WK綜合論壇, WK综合论坛

查看:6270 回復:6 發表於 2018-3-13 04:27:09
累計簽到︰1636 天
連續簽到︰45 天
發表於 2018-3-7 16:13:32 | 顯示全部樓層 |閱讀模式

僵屍攻擊 Attack.of.the.Southern.Fried.Zombies., 2017.[MKV / 9.4G] [複製鏈接]

影視分享
分類: 電影
題材: 恐怖 
地區: 美國 
語言: 英语 
格式: MKV 
年份: 2017
資源: BT资源
1.jpg & _0 E- m" Y# w3 g& I
# `4 [4 h) i: v, }( s
◎译  名 AttackoftheSouthernFriedZombies- k) d( n( P6 Y2 X  u
  o: R/ G+ _0 ?+ S9 L0 |$ v
◎片  名 Kudzu Zombies" `4 G& J! B$ l8 P
  l  r" f5 M: O9 q* ]4 [- u
◎年  代 2017
) B7 P* o) `5 Y4 ~5 t1 V+ u' i8 l0 j  F9 f- b+ n6 e
◎产  地 美国
1 i2 a3 {+ i2 S% Q2 u  B3 U& o9 }/ e- R5 ]5 C
◎类  别 恐怖8 z/ G7 z. H+ Y6 {0 c' }

' r% [, ?% r0 \◎语  言 英语* A( Z$ Y- X7 k4 G' O& y

5 d. J2 @- t) t& d1 n2 e4 Q◎IMDb评分  7.0/10 from 17 users# Y. W% M7 r0 @) V$ _: G/ e
) v$ [3 D& T; D* A/ z& H% \9 ^4 G) N
◎IMDb链接  http://www.imdb.com/title/tt5594444/. U5 P# R& N% ?1 _: c
6 o3 g3 L' c. p) a" v9 c& F6 ]0 ~
◎导  演 Mark Newton
( c+ t; z  T9 z9 ~. ]# a+ c/ v/ H& M
# r) d9 p5 o+ N2 Q5 m◎主  演 Megan Few/ F( o0 H5 a) k" Z/ u

: A9 x* f/ c% ]. s% z. }( G( @/ d2 O/ G  W      Jeremy Sande, Z3 D" W" {- h( g- I- l
& c1 k2 J# B% y. H" R  j, Z
      Michael Joiner& M# m: j+ P) _1 J6 w" H' P

7 w- B" c8 L, G; J* J0 T, [6 o
* E" a0 Q3 p8 O9 r; N$ M. L
" Y$ j2 P" w: ~# s1 ]8 s& q◎简  介
) I0 T8 ]( [6 ~/ s6 }, \# F& [
1 y& q( s* _" X+ R; Q9 Q/ |/ J$ F

( }; g5 X) }- e, w+ s  Lonnie, a crop duster pilot, must lead a mismatched group of survivors to escape the deadly zombie horde after an experimental chemical, intended to control the invasive kudzu vine, transforms the citizens of Charleston, MS into zombies.  W1 C; n- ^* e# B9 [
6 h7 B. A& s( J6 O" R* b2 \0 T) O

* W3 N: W, D: k. Y: p; h7 E4 }" z1 @1 g
Video: P( V2 E  i7 W6 h8 k3 ?. x
ID                                       : 1
/ e+ k* {! B/ W$ [) }% v* hFormat                                   : AVC9 f! C$ O1 Y0 M, {& Y
Format/Info                              : Advanced Video Codec
+ N. _7 ~4 V6 K/ ]- P( d% S* b, D0 ~Format profile                           : High@L4.18 D* m& H3 c) G# `$ S' D
Format settings                          : CABAC / 4 Ref Frames4 d. K7 k' M7 F: n% g9 V
Format settings, CABAC                   : Yes  T% N" h$ x; F8 O2 m
Format settings, ReFrames                : 4 frames' A1 t# M) G' r# V
Codec ID                                 : V_MPEG4/ISO/AVC
1 S! `9 m( v+ E. ]4 w& BDuration                                 : 1 h 23 min2 [4 t5 m9 d4 R. l1 K) m
Bit rate                                 : 14.8 Mb/s
1 v: X5 V6 z  Z  yWidth                                    : 1 920 pixels" i2 r5 x) z1 }6 f  y3 n$ e
Height                                   : 1 080 pixels; E' e; Y) ^9 |* P1 K
Display aspect ratio                     : 16:9
! V: _! m! {. rFrame rate mode                          : Constant- p9 ]( \8 F$ f' k8 c2 ]& a
Frame rate                               : 23.976 (24000/1001) FPS5 U8 ~/ h' l) ?( E' g! s0 b
Color space                              : YUV
% C+ M# \; x# n$ KChroma subsampling                       : 4:2:0
0 E# o* Z& ~, l/ |. U- D2 zBit depth                                : 8 bits: L0 X' w/ I! J
Scan type                                : Progressive
# P8 w! \2 T& OBits/(Pixel*Frame)                       : 0.298
6 B( B$ f3 i9 y- ?, Q  |- x) EStream size                              : 8.61 GiB (91%)
0 q! p  C2 e. v2 S$ M4 {/ NWriting library                          : x264 core 149 r2771+45 509cceb 7mod [8-bit@all X86_64]  T/ t  y) i" A
Encoding settings                        : cabac=1 / ref=4 / deblock=1:-3:-3 / analyse=0x3:0x113 / me=umh / subme=10 / psy=1 / fade_compensate=0.00 / psy_rd=0.90:0.10 / mixed_ref=1 / me_range=48 / chroma_me=1 / trellis=2 / 8x8dct=1 / cqm=0 / deadzone=21,11 / fast_pskip=0 / chroma_qp_offset=-2 / threads=12 / lookahead_threads=2 / sliced_threads=0 / nr=0 / decimate=1 / interlaced=0 / bluray_compat=0 / constrained_intra=0 / fgo=0 / bframes=8 / b_pyramid=2 / b_adapt=2 / b_bias=0 / direct=3 / weightb=1 / open_gop=0 / weightp=2 / keyint=250 / keyint_min=23 / scenecut=40 / intra_refresh=0 / rc_lookahead=40 / rc=crf / mbtree=0 / crf=19.0000 / qcomp=0.70 / qpmin=0:0:0 / qpmax=69:69:69 / qpstep=4 / vbv_maxrate=35000 / vbv_bufsize=35000 / crf_max=0.0 / nal_hrd=none / filler=0 / ip_ratio=1.40 / pb_ratio=1.30 / aq=3:1.00 / aq-sensitivity=10.00 / aq-factor=1.00:1.00:1.00 / aq2=0 / aq3=2:[0.50:0.50]:[0.50:0.50]:[0.50:0.50]:[0.50:0.50] / aq3-sensitivity=10.00 / aq3-factor=[1.00:1.00]:[1.00:1.00]:[1.00:1.00] / aq3-boundary=192:64:24* b) U% m8 [6 R4 t& F' r9 ?
Language                                 : English3 I  V* b) H6 P5 a" q
Default                                  : Yes
4 ^- g  A$ N8 d, w# \. CForced                                   : No; @$ |9 M; f4 U1 B4 x
Color range                              : Limited
/ v+ S% L9 W- Q2 f" K2 t) LMatrix coefficients                      : BT.709
, ^' u% F5 U8 j# w1 O. W" Z$ C- ?% n9 \- O
Audio3 p1 O( v  T& h$ {4 {/ q/ |
ID                                       : 2
8 N5 o+ y  _4 IFormat                                   : DTS
' ]4 U$ K. `  k, YFormat/Info                              : Digital Theater Systems
7 g0 H5 G5 V! uCodec ID                                 : A_DTS
' b+ ^4 o" P' z6 D3 uDuration                                 : 1 h 23 min! g- O1 b2 ^) p
Bit rate mode                            : Constant
5 @, P/ b- Q' @8 Y: B  bBit rate                                 : 1 509 kb/s: R* _2 ^4 b$ u, |: r# s
Channel(s)                               : 6 channels
) L8 T* t" A$ ~- TChannel positions                        : Front: L C R, Side: L R, LFE
1 |: u" C+ F/ QSampling rate                            : 48.0 kHz- R+ V8 \, V5 d: ^) j6 W
Frame rate                               : 93.750 FPS (512 SPF)
* c7 f  R, a* @3 OBit depth                                : 24 bits
2 i' L6 z9 I8 qCompression mode                         : Lossy
/ l7 C! t4 K9 E9 X+ VStream size                              : 898 MiB (9%)# K9 f( \) `& [* Z" T: {
Language                                 : English: Z. w/ m' ?* ~/ R
Default                                  : Yes9 ?; a# B8 r) t% x
Forced                                   : No

% K+ x; e$ s2 N* h- }
4 ?, ?6 _' |, U6 m/ z9 O( g" e! [+ e3 b- K+ F

僵屍攻擊. MKV.torrent

95.48 KB, 下載次數: 712

尚未簽到

發表於 2018-3-8 03:24:01 來自手機 | 顯示全部樓層
感謝大大的辛勞分享!我會繼續在WK關注大大的文章!

尚未簽到

發表於 2018-3-10 00:12:14 | 顯示全部樓層
精妙絕倫的精品,感謝啊!期待你更多更好的創作哦!
累計簽到︰1022 天
連續簽到︰7 天
發表於 2018-3-10 23:26:44 | 顯示全部樓層
感謝大大的辛勞分享!我會繼續在WK關注大大的文章!

尚未簽到

發表於 2018-3-12 01:56:36 | 顯示全部樓層
偶像^^小生一直都在關注你的原創!小生對你之仰慕如滔滔江水連綿不絕!

尚未簽到

發表於 2018-3-12 19:52:54 | 顯示全部樓層
偶像^^小生一直都在關注你的原創!小生對你之仰慕如滔滔江水連綿不絕!

尚未簽到

發表於 2018-3-13 04:27:09 | 顯示全部樓層
精妙絕倫的精品,感謝啊!期待你更多更好的創作哦!

回復樓主 親!! 下午好,中午養足了精神嗎?讓我們一起渡過下午茶時間,WK有您更精彩!

 分享同時學會感恩,一句感謝的話語,就是最大的支持!  歡迎交流討論
您需要登錄後才可以回帖 登錄 | 立即注册

本版積分規則




VIP精品区

c重要聲明:本論壇是以即時上載言論的方式運作,WK論壇對所有言論的真實性、立場及版權等,不負任何法律責任。而一切言論只代表發佈者個人意見,並非本網站之立場,讀者及用戶務必自行判斷內容之真實性。 由於本論壇受到「即時上載言論」運作方式所規限,故不能完全監察所有言論,若讀者及用戶發現有內容出現「真實性、立場及版權」等問題,請聯絡我們:info@waikeung.net論壇有權刪除任何言論(刪除前或不會作事先警告及通知)| SiteMap[網站地圖]

發表新帖 返回頂部