WK綜合論壇, WK综合论坛

查看:2940 回復:5 發表於 2018-3-20 17:25:30
累計簽到︰1636 天
連續簽到︰45 天
發表於 2018-3-14 10:00:36 | 顯示全部樓層 |閱讀模式

玉米地的小孩:大逃亡 Children.of.the.Corn., 2018.[MKV / 2.8G] [複製鏈接]

影視分享
分類: 電影
題材: 恐怖 
地區: 美國 
語言: 英语 
格式: MKV 
年份: 2018
資源: BT资源
1.jpg : o6 t+ n. T2 S  w' f

" k/ ~3 Y' _9 _. W! A. |7 m◎译  名 玉米地的小孩:大逃亡
6 n6 _( r6 l/ w& {& _# X/ S* N% O0 K: c9 A7 Z8 O$ [
◎片  名 Children of the Corn: Runaway
! [# D. t( ]" {9 N8 w
2 D+ I/ ^- F+ ~' y# [◎年  代 2018% B) U# _" q# x, z) Q& p

% z1 w2 M% q, W2 a2 x: \' ?; m◎产  地 美国. K$ d  _& L' R, K

0 b* }' ~9 }, C- p5 j, L◎类  别 恐怖, [- p. `; ]1 ?4 j  i9 P+ y  \

" Y/ I2 H( Z6 O2 b8 U/ Q6 s◎语  言 英语
( O, u$ j7 H. |3 v- Y
; b  o! p  V, z  x2 x◎上映日期 2018-03-13(美国)
8 l; E! E' c* T4 F( r& E
% N; p5 T  ~* C6 T1 P4 g. F$ P◎IMDb评分  5.6/10 from 5 users
0 c. O: l) }8 o1 D+ m
& b& K% h8 c& [" F7 G0 H) G◎IMDb链接  http://www.imdb.com/title/tt5565634/- m" M/ ?! x2 S' a, m3 y9 G) P
# d/ @# f% ?6 A
◎片  长 82分钟
# b7 O$ a: f& E7 o  @5 a- n
% I2 e2 q0 I! p8 M! a3 R◎导  演 约翰·古拉格 John Gulager
  V$ b$ B$ y2 @& y0 n0 ]5 v1 r8 q- [( Y- {6 S4 _
◎主  演 玛茜·米勒 Marci Miller
( {$ V1 W! D5 G& |& [/ g, k- G5 T) I3 y& T' P
      Molly Nikki Anderson. K# o. t% K* w
* h0 _1 f1 w# x- L; u9 B, o
      Blaine Maye/ W# A* v: X$ `2 F4 I

. r, ^( I1 y1 i$ \: Q      Lynn Andrews III
, b0 g$ I( w" p; L& [7 ?/ v. y  W# N8 U9 |( z0 {! d6 f/ k
      JR Hatchett$ ^  \7 k6 N7 S* W  a0 q6 t
0 G* b5 J9 u" o  @
      Mary Kathryn Bryant
& q6 v! h5 T/ i0 }/ X! ~& `3 F8 F3 I+ q- t  t# r* q4 k
      Jake Ryan Scott
; B9 z, m! x$ W5 N) V8 O- J' o( ]. m. P1 i
      Sara Moore: D7 S6 _/ K1 w3 K4 j: g0 Q6 |
( R6 q2 C/ G8 _5 _" {
      Gavin Taylor
) \: b3 C, e. ?& e3 j7 G' f# {( s- u* }; [* k! D9 G
      Debbi Tucker. q- j, h, F8 F, N: q4 U! _& q
7 L7 {( @3 |' K; \3 M# v! w
      Glenda Taylor# O# W' o9 E4 v0 E( {  |
- t4 F1 p) G) e+ r7 }
      Cacky Poarch1 M7 I- Z: B4 |$ w. p. J

* B( P! j* d' w4 ~# j. j, [4 H6 p      Tom Allen5 d0 @, M! M* R/ x

5 G6 z( p3 b- g9 V7 U$ n2 q: \      Tyler Corbin
9 L8 u2 H6 P/ P, O8 @: e
! J# u' V$ E8 r( Y$ {& y! K      Daria Balling
, r( N) y7 Z) c5 l' Q0 G1 H4 o/ u3 I7 I7 M( X: Q
      William Sturgeon7 Q+ k5 L7 [  y6 s' s1 d
- P$ F/ J5 m9 f8 X" u. h8 t+ g

5 P% s* s3 |; M4 K
- f. r4 B( S) B6 i) O) `! {◎简  介- H) a& p6 U6 N+ x6 h
2 e, L' J; _6 x$ d6 m4 m
. v: W6 {. s( R7 S/ Z

  q* e. [9 c& j$ [* u  The plot of Children of the Corn: Runaway follows a young pregnant Ruth who escapes a murderous child cult in a small Midwestern town. She spends the next decade living anonymously in an attempt to spare her son the horrors that she experienced as a child. She lands in the small Oklahoma town, but something is following her. Now, she must confront this evil or lose her child.1 n: m6 Y% q6 b5 f$ W8 O
, t. n% [3 X) w
. q- e: C) a2 |$ _2 [. i( ~, Q! I
( j1 b5 p+ l8 f4 S" H" N# ^: r
Video& n* [2 c2 X6 l0 H# l, f: m
ID                                       : 1# z, j& Y+ N3 a. \% C: |, i
Format                                   : AVC; X6 R: l0 G: f: L+ J' b
Format/Info                              : Advanced Video Codec
* |2 g  W) \. r& [" b0 C. MFormat profile                           : High@L4
7 ^0 e6 ^) |5 C& {( gFormat settings                          : CABAC / 5 Ref Frames
( V; H' [* J3 m: W+ g4 p3 TFormat settings, CABAC                   : Yes
+ I. X3 O& w$ T# ?Format settings, ReFrames                : 5 frames
: s( }& _% Q# G6 [3 t" z; nCodec ID                                 : V_MPEG4/ISO/AVC
8 F9 J# d, C6 p' SDuration                                 : 1 h 22 min
6 o" J" C' F% y+ sBit rate                                 : 4 544 kb/s
$ [1 A' I  v' E1 k7 t; ?# WWidth                                    : 1 912 pixels
# E9 _3 T" X. w4 \9 J0 R1 h! THeight                                   : 808 pixels! M0 v" a7 X, z! m2 P4 v" r. A
Display aspect ratio                     : 2.35:1: N6 U- }2 V4 `7 {2 ?" @6 S
Frame rate mode                          : Constant
, O2 O3 P2 t: p( G0 vFrame rate                               : 23.976 (24000/1001) FPS  r, r5 ~, b. b0 P# r
Color space                              : YUV. e- Q4 w" E3 Z6 l8 D9 \9 V8 y9 D
Chroma subsampling                       : 4:2:0
' `/ n/ \. V0 o1 W2 pBit depth                                : 8 bits
* B7 w7 t3 Z5 T/ K" SScan type                                : Progressive
) C; k. J7 l$ [/ t& ]Bits/(Pixel*Frame)                       : 0.123
- ~, S0 ]9 @$ c: B* VStream size                              : 2.61 GiB (92%)* R0 b* _+ {( l
Title                                    : Children.of.the.Corn.Runaway.2018.1080p.WEB-DL.DD5.1.H.264-FGT$ J  d1 x1 B9 C0 [5 J
Language                                 : English
: A, o; h! M  I, `- a- Y: C$ KDefault                                  : Yes
: o! A* n4 c) I+ k$ e2 m4 [& a' fForced                                   : No
5 G; X& |/ C+ v( g$ q# uColor range                              : Limited/ N( |" K( u" a3 t" T1 [
Color primaries                          : BT.709* D: \& {; K1 M; |- V
Transfer characteristics                 : BT.709
* f. g* }, c2 B# ]2 {Matrix coefficients                      : BT.7095 J" c' \7 h; ^3 R/ N+ I7 R$ N7 g

9 Y0 A+ d0 i/ p& GAudio( b0 x; Z' P9 V! x" \: C7 K% R
ID                                       : 2+ _# }4 K" G$ o3 N1 `& o% V
Format                                   : AC-3
- ~3 K5 {' X! q6 |/ I7 }" NFormat/Info                              : Audio Coding 36 x5 N4 @( N* E; B  }' h
Codec ID                                 : A_AC31 t# L/ c( b' s. Y% N1 J( s
Duration                                 : 1 h 22 min3 A; l0 |7 x% |1 C- }
Bit rate mode                            : Constant
  t" o+ z# P% v/ cBit rate                                 : 384 kb/s
/ d& w9 }) ]8 E# d. v( ^2 T3 k* iChannel(s)                               : 6 channels
  Q+ `9 N4 _6 qChannel positions                        : Front: L C R, Side: L R, LFE
+ A4 W; e3 N' q5 N) {Sampling rate                            : 48.0 kHz
- J! b1 ]) a! s  l1 o. M* Y" ^Frame rate                               : 31.250 FPS (1536 SPF)' P7 ?" Y" u! m* y1 `: d" X+ t
Bit depth                                : 16 bits
2 i% m4 c2 L" ACompression mode                         : Lossy
0 N4 `4 ?9 }* v7 u: v% [/ h5 SStream size                              : 226 MiB (8%)
* r; N& [, R6 d3 Z7 VTitle                                    : Children.of.the.Corn.Runaway.2018.1080p.WEB-DL.DD5.1.H.264-FGT
! v, R! ~7 L& a4 _; \; X# CLanguage                                 : English
8 ]% p3 @) t% a4 IService kind                             : Complete Main
7 f% w% f# {8 E3 u- t# U! ?Default                                  : Yes
" }) k' X. m( C# b+ s2 b, D! xForced                                   : No
% L, G  _4 M- w) d( v: _
% Z7 K. N; k! C* O5 z& CText& ]% h# F7 f! j
ID                                       : 30 s$ M% M3 i$ h6 N" J& z( R
Format                                   : UTF-8
3 @) p, ?% m1 t8 A, a# Z6 e% ZCodec ID                                 : S_TEXT/UTF8
  G3 Q: s( d; S8 J6 {1 FCodec ID/Info                            : UTF-8 Plain Text
2 W2 K. j4 f! d4 g# s+ R; ZDuration                                 : 1 h 21 min
- H% y* t/ C7 aBit rate                                 : 39 b/s0 ?  c- W8 K' k- A6 F' ?
Count of elements                        : 883
. b2 {, X# H8 E# \% JStream size                              : 23.7 KiB (0%)
3 q0 ~6 c4 @% g: H0 c; K9 lLanguage                                 : English/ @$ Y6 O7 K, h
Default                                  : No
/ \( e& o/ f6 @7 DForced                                   : No
% m5 D1 I4 O$ T0 _% k% R. T) l' v" ^, |! ~
Menu. p7 }- I& ^1 ?2 K
00:00:00.000                             : en:1
9 r: b$ v! P  G6 T1 e00:11:57.000                             : en:2; {5 k9 I  s. v6 ^. r
00:25:54.000                             : en:3" y* ?$ Y, ~) J& ^3 J" I
00:33:45.000                             : en:4
  q0 ~9 q5 a$ o& @5 D5 F00:46:17.000                             : en:5
6 h: u, R" `8 I/ \8 {00:59:11.000                             : en:6
0 c9 d! h; ~; o- C4 }( K) W01:08:29.000                             : en:7: p3 x- Q- r% R4 a0 W1 X) A# R
01:19:26.000                             : en:8

5 v3 X3 }2 u2 R6 i
& N7 \8 d3 b1 |' q. \( m) Z7 U) `4 u/ V2 x* a3 R

玉米地的小孩_大逃亡. MKV.torrent

57.18 KB, 下載次數: 363

尚未簽到

發表於 2018-3-15 00:15:05 | 顯示全部樓層
精妙絕倫的精品,感謝啊!期待你更多更好的創作哦!
累計簽到︰189 天
連續簽到︰1 天
發表於 2018-3-15 09:47:34 | 顯示全部樓層
感謝大大的辛勞分享!我會繼續在WK關注大大的文章!

尚未簽到

發表於 2018-3-16 08:37:41 | 顯示全部樓層
偶像^^小生一直都在關注你的原創!小生對你之仰慕如滔滔江水連綿不絕!

尚未簽到

發表於 2018-3-17 09:53:41 | 顯示全部樓層
精妙絕倫的精品,感謝啊!期待你更多更好的創作哦!

尚未簽到

發表於 2018-3-20 17:25:30 來自手機 | 顯示全部樓層
偶像^^小生一直都在關注你的原創!小生對你之仰慕如滔滔江水連綿不絕!

回復樓主 親!! 下午好,中午養足了精神嗎?讓我們一起渡過下午茶時間,WK有您更精彩!

 分享同時學會感恩,一句感謝的話語,就是最大的支持!  歡迎交流討論
您需要登錄後才可以回帖 登錄 | 立即注册

本版積分規則




c重要聲明:本論壇是以即時上載言論的方式運作,WK論壇對所有言論的真實性、立場及版權等,不負任何法律責任。而一切言論只代表發佈者個人意見,並非本網站之立場,讀者及用戶務必自行判斷內容之真實性。 由於本論壇受到「即時上載言論」運作方式所規限,故不能完全監察所有言論,若讀者及用戶發現有內容出現「真實性、立場及版權」等問題,請聯絡我們:info@waikeung.net論壇有權刪除任何言論(刪除前或不會作事先警告及通知)| SiteMap[網站地圖]

發表新帖 返回頂部