WK綜合論壇, WK综合论坛

查看:19910 回復:12 發表於 2018-6-11 05:45:09
本主題由 jack 於 2018-8-22 05:03 刪除回復
累計簽到︰1631 天
連續簽到︰40 天
發表於 2018-6-7 21:33:11 | 顯示全部樓層 |閱讀模式

團鬼六:美教師地獄責罰 Beautiful Teacher in Torture Hell, [MKV/5.77GB] 日语中字 (限制級禁片) [複製鏈接]

影視分享
分類: 電影
題材: 恐怖 倫理 
地區: 日本 
語言: 中文字幕 日语 
格式: MKV 
年份: 更早
資源: BT资源
2.jpg 3 R6 ]$ J) G: L- x0 a4 h' G+ t

6 y6 Z, R3 M5 @  o  T 1.jpg
) a9 M8 X* a% i6 f* J
  l3 D" f" Y$ N" S! q$ S7 p" T, `; I※※※※※※※ 影片信息 ※※※※※※※& K, h- Q) G+ N* h: h
◎片   名 団鬼六 美教師地獄責め7 m' Q( _2 c- d
◎译   名 团鬼六:美教师地狱责罚/Beautiful Teacher in Torture Hell4 {* a( U- ~( `
◎年   代 1985, B% \' g9 M. C8 F
◎国   家 日本
. a& t) D. j; x. I+ M◎类   别 恐怖 / 情色
5 \  m4 \% d6 a' y7 \1 W◎语   言 日语4 _( a: R/ f8 X1 h) T& E" C* ~
◎上映日 期 1985-12-14(日本)
4 c  H% k# ~5 V& I! y5 @◎字   幕 简体字幕/繁体字幕% T5 C( p8 x. w% {; g. ~
◎IMDB 评分  5.6/10 from 235 users. T/ A8 d: i- {- ]5 @* T
◎豆瓣 评分  6.0/10 from 273 users3 k0 _" j3 n5 |; ?7 x# h$ A
◎视频尺 寸  1920x960p
. r6 y! O* o8 F! v* h◎片   长 1.07.20$ G/ D8 \. K8 e
◎导   演 瀬川正仁7 z  m8 |' P& K8 x0 ~
◎编   剧  佐伯俊道(脚本) / 団鬼六(原作)
; |! o+ Q  T9 m◎主   演 真咲乱/志麻泉
; |( M2 z5 C6 m" W2 u+ ~+ R
3 x' U) x$ Y2 Z* Y( |6 r+ i8 P, |
$ j& h8 t( e  p4 B◎简  介
6 n+ y8 ]! _. k9 b8 D5 D0 M6 m3 X- a% _* Q3 p) V
  国语教师法子要到乡下的高中去上任了。在简陋的车站,冈岛冴子开车来迎接法子了。在车要进入山道的时候,若林、大木,佐川三个流氓突然窜出了上前骚扰。全日本剑道冠军的法子用车内的木刀将三人痛打一通。不久,学校理事长的女儿田野仓由纪,把法子叫出了实验室。法子进到一房间,突然被 人从身后偷袭,失去了意识。等她醒过来,发现自己竟然躺在了学校勤务员森田的房间里。数日之后,由纪给法子寄了个包裹。里面竟然是法子全裸着被五花大绑的难堪姿态的照片。与此同时,还收到镇上的流氓的恐吓。“想要底片,就到剑道场来!”法子底下什么也没穿,披着道服和三个流氓同时较量。尽管是剑道冠军,也是难以招架三人的攻击。股间的阴部和肛门不断受到袭击。而且,当时的画面被清楚的录了下来。当晚,由纪安慰法子,招呼法子到田野仓家吃晚饭。但是,理事长田野仓聪竟然说:“我看过你的录影带了哦。”想要逃走的法子,被三人组带到了地下室,又被全裸的花大绑。田野仓聪,田野仓由纪,流氓三人组,还有勤务工森田,女教师冴子,全都到齐了。他们原来是一伙的。法子被强迫喝了很多的水,然后被扔到了水槽里。在周围,那一伙人在疯狂的纵欲。法子无法忍受,于是在水槽中大声叫喊起来。茶黄色的污秽物把水弄的越发肮脏混浊。数日之后,法子被吊在了隧道里,地下水不断的直击股间。地下水和股间的爱液混在一起,变成白浊的液体往下滴。成为了田野仓家的性奴的法子被快感刺激着,身体在不停的震动。
9 W) f- B4 \  A2 P1 I; ^4 y, H3 L6 D9 x$ S3 R/ u6 N; v
9 B# i, [' a4 M6 I4 }+ T3 Z: S* A
※※※※※※※ 参数信息 ※※※※※※※
" s9 j) o* l+ A. U3 n: q2 l. ^' t9 b: Y3 o! z) P- A& T
General
1 b) Y$ T7 }" g" ?' aUnique ID                      : 188935677417353816946930321344307780178 (0x8E23B0184187F7D5BBE5298DBCF5DA52)8 D1 v* f0 }7 f$ J" o$ f5 K( M
Format                         : Matroska1 T7 u8 E3 @& a) E
Format version                 : Version 4 / Version 2
' G1 r6 `0 O0 jFile size                      : 5.78 GiB
% N7 r# T+ u7 p, L2 ~Duration                       : 1 h 7 min
, u- Z* t, b$ P1 w' K4 IOverall bit rate               : 12.3 Mb/s
9 z, E1 o) D! G* `. JMovie name                     : kook* d, W, J2 S  S, V
Encoded date                   : UTC 2018-04-19 12:47:113 f' g6 K. ~5 ~/ Y' h
Writing application            : mkvmerge v9.4.2 ('So High') 64bit
, H0 i+ Z& R1 u2 {- I4 _$ bWriting library                : libebml v1.3.4 + libmatroska v1.4.52 g# o1 `+ v3 Z
Attachments                    : 正式海报.jpg / fzlbfw.ttf / fzlbjw.ttf6 t  {  ]5 P: E% E3 x/ R& X4 |
Video
) H% p  ~: I' jID                             : 1
% o. f7 S. a: _. N! V) hFormat                         : AVC
  z. b2 w  v/ H6 V8 _7 ?' YFormat/Info                    : Advanced Video Codec
+ R: @$ z/ U+ _1 g. n$ HFormat profile                 : High@L4.1( Q2 X/ g& ^* U, B9 c7 N3 h
Format settings, CABAC         : Yes
. j# e  |) v  F+ _% w' Z/ KFormat settings, ReFrames      : 4 frames5 N7 m/ L3 a( e: o" O
Codec ID                       : V_MPEG4/ISO/AVC
) d- {, l' d& yDuration                       : 1 h 7 min
% B' S1 R' v' y; S; m, p1 gBit rate                       : 11.8 Mb/s
: a& B# U0 ?, B0 N5 d( f; LWidth                          : 1 920 pixels
# `# P* _9 C) q% K/ N0 C) ]7 P2 cHeight                         : 960 pixels" Z$ ]9 V0 X0 P! g6 c
Display aspect ratio           : 2.000
  z  X; f4 r6 |) wFrame rate mode                : Constant, J1 I5 U/ ]4 V$ I6 k8 \' h
Frame rate                     : 23.976 (24000/1001) FPS
3 _: t" [; }" U1 M8 o/ pColor space                    : YUV/ z  q- l8 Q  t
Chroma subsampling             : 4:2:0
7 v1 ?5 r/ x( Y5 v# PBit depth                      : 8 bits) @# L$ t- x% t, h& r
Scan type                      : Progressive$ r$ t8 e4 F6 F( X9 G9 Q& Y
Bits/(Pixel*Frame)             : 0.267
1 d" @. s% _: d5 [6 e& a+ [Stream size                    : 5.56 GiB (96%)+ v2 m5 t5 f9 |; y8 V6 L' |" t
Title                          : 环环@HDS
1 u/ _8 n& ?  R9 L6 eWriting library                : x264 core 148 r2699+6+41 29a38aa Yuuki [8-bit@4:2:0 X86_64][GCC 5.3.0]' W. ]1 V) k4 n
Encoding settings              : cabac=1 / ref=4 / deblock=1:-3:-3 / analyse=0x3:0x113 / me=umh / subme=11 / psy=1 / fade_compensate=0.00 / psy_rd=1.00:0.05 / mixed_ref=1 / me_range=32 / chroma_me=1 / trellis=2 / 8x8dct=1 / cqm=0 / deadzone=21,11 / fast_pskip=0 / chroma_qp_offset=-2 / threads=24 / lookahead_threads=4 / sliced_threads=0 / nr=0 / decimate=1 / interlaced=0 / bluray_compat=0 / constrained_intra=0 / fgo=0 / bframes=8 / b_pyramid=2 / b_adapt=2 / b_bias=0 / direct=3 / weightb=1 / open_gop=0 / weightp=2 / keyint=250 / keyint_min=23 / scenecut=40 / intra_refresh=0 / rc_lookahead=40 / rc=crf / mbtree=0 / crf=17.9000 / qcomp=0.60 / qpmin=0:0:0 / qpmax=69:69:69 / qpstep=4 / vbv_maxrate=50000 / vbv_bufsize=40000 / crf_max=0.0 / nal_hrd=none / filler=0 / ip_ratio=1.40 / pb_ratio=1.30 / aq=3:0.90( _  V* s+ j, Q1 B
Default                        : Yes
- B2 y+ X6 y) q. {1 EForced                         : No
/ t4 W3 V0 E% G; @1 WAudio' J4 Z" }: p. d+ j: B; u. p" T
ID                             : 27 e& A5 Q4 G& A# W& z& n, ^  E# w
Format                         : AC-3
1 d  Q1 Q; y: Q( RFormat/Info                    : Audio Coding 3
9 U; h& B& U2 n9 j8 PMode extension                 : CM (complete main)
; w( f  b+ B! m# U: r2 DFormat settings, Endianness    : Big( ^: N6 Y5 T8 z; j" r; ?9 a
Codec ID                       : A_AC3
: v' J, n% X) V" j9 u6 b1 r' z0 H( UDuration                       : 1 h 7 min1 R' I) o& P& \! N
Bit rate mode                  : Constant
! @! G1 |( W7 V% S5 `) x5 aBit rate                       : 448 kb/s
, u0 E* U7 e4 m" }- y! X+ AChannel(s)                     : 2 channels2 N2 A( t- d/ O! w' U
Channel positions              : Front: L R5 B8 K: h9 ?& r( ?- b* l2 i
Sampling rate                  : 48.0 kHz
/ O/ U! g2 b% l/ i+ SFrame rate                     : 31.250 FPS (1536 spf)
. C# K( M  S  Y* m* S/ J$ \Compression mode               : Lossy
$ d6 q0 |$ t4 w. \! X7 U, ^; O* S3 x, gStream size                    : 216 MiB (4%)
3 E# V$ ~  p  H$ K6 S: B2 |+ A/ cTitle                          : Japanese
1 y& `/ e3 m& R0 n8 f1 c9 |Language                       : Japanese
0 g% {& l. I  Q- T  _. C  v' MDefault                        : Yes" X- I7 n5 r! D3 Y3 |( H
Forced                         : No
6 [$ \8 c4 Q6 `. j% Q8 Q$ d( Q7 k% aText #1( @8 t$ d# a: C- O/ ]+ ^0 h
ID                             : 38 C+ |' a% [8 F3 u
Format                         : ASS+ |8 B7 i$ h' n7 u4 J9 c
Codec ID                       : S_TEXT/ASS( g. a. h1 q+ S6 ~
Codec ID/Info                  : Advanced Sub Station Alpha
. n8 t0 o1 k* E& |; y! TDuration                       : 1 h 7 min
# V" K8 Z) [: Y( I( m$ PBit rate                       : 47 b/s/ S$ }/ c) j/ r/ N9 O
Count of elements              : 340
* n# P% q3 J! N9 R! k0 n0 VCompression mode               : Lossless1 B: }6 S7 \' {8 V. |  t% r
Stream size                    : 23.5 KiB (0%)
7 s" e$ G' ^" hTitle                          : 简体字幕
/ o7 H( N, m. E* pLanguage                       : Chinese6 X2 w! b; M; C( v9 h2 m) j
Default                        : Yes
5 ?1 V+ z! d! L$ s* h+ _Forced                         : No4 F' k2 [, K& B5 q: c
Text #2) _" N' i( [0 T8 |
ID                             : 4
6 \: Q: E( H' w- @* S. ^0 d6 c4 ]Format                         : ASS
% o' Z# B  H* OCodec ID                       : S_TEXT/ASS
1 y& d" s$ y  y, xCodec ID/Info                  : Advanced Sub Station Alpha
- ]) Q& W- e  N4 ~" M% aDuration                       : 1 h 7 min
8 G7 t# e, X# U$ R# A$ BBit rate                       : 47 b/s
4 u: \  O$ l8 A! b3 j9 @  K  n) i9 LCount of elements              : 340
1 v: w; i+ S- a0 A% dCompression mode               : Lossless5 t5 ?# U  H& U) R# u4 V
Stream size                    : 23.5 KiB (0%)
3 @* k# Y# Z  T, Q; ^Title                          : 繁体字幕) A3 x, M3 O: |$ h8 h1 a- S2 g" z- m( V
Language                       : Chinese
# t, `0 W) i, k- [( X# Y8 D  c7 l. H) M+ jDefault                        : No
1 Y0 U8 F$ Z# w# D9 m- CForced                         : No( a& G1 w7 F$ Z6 f
! _6 U. f+ T2 O( S" n8 _* E6 e
3.jpg
團鬼六:美教師地獄責罰 MKV.torrent (119.89 KB, 下載次數: 651)
累計簽到︰1 天
連續簽到︰1 天
發表於 2018-6-7 22:11:35 | 顯示全部樓層
Thank you for sharing.
累計簽到︰604 天
連續簽到︰1 天
發表於 2018-6-8 08:36:02 | 顯示全部樓層
谢谢楼主分享精彩影片。

尚未簽到

發表於 2018-6-9 23:46:02 | 顯示全部樓層
感謝大大的無私分享! 太讚了!

尚未簽到

發表於 2018-6-10 12:55:20 | 顯示全部樓層
精妙絕倫的精品,感謝啊!期待你更多更好的創作哦!

尚未簽到

發表於 2018-6-10 15:40:07 | 顯示全部樓層
精妙絕倫的精品,感謝啊!期待你更多更好的創作哦!

尚未簽到

發表於 2018-6-10 18:22:47 | 顯示全部樓層
感謝大大的辛勞分享!我會繼續在WK關注大大的文章!

尚未簽到

發表於 2018-6-11 00:07:52 | 顯示全部樓層
精妙絕倫的精品,感謝啊!期待你更多更好的創作哦!

尚未簽到

發表於 2018-6-11 00:07:57 | 顯示全部樓層
精妙絕倫的精品,感謝啊!期待你更多更好的創作哦!

尚未簽到

發表於 2018-6-11 05:45:09 | 顯示全部樓層
偶像^^小生一直都在關注你的原創!小生對你之仰慕如滔滔江水連綿不絕!

回復樓主 親!! 現在是淩晨!妳失眠啦?餓啦?通宵加班?還是想WK啦?

 分享同時學會感恩,一句感謝的話語,就是最大的支持!  歡迎交流討論
您需要登錄後才可以回帖 登錄 | 立即注册

本版積分規則




c重要聲明:本論壇是以即時上載言論的方式運作,WK論壇對所有言論的真實性、立場及版權等,不負任何法律責任。而一切言論只代表發佈者個人意見,並非本網站之立場,讀者及用戶務必自行判斷內容之真實性。 由於本論壇受到「即時上載言論」運作方式所規限,故不能完全監察所有言論,若讀者及用戶發現有內容出現「真實性、立場及版權」等問題,請聯絡我們:info@waikeung.net論壇有權刪除任何言論(刪除前或不會作事先警告及通知)| SiteMap[網站地圖]

發表新帖 返回頂部