WK綜合論壇, WK综合论坛

查看:31374 回復:25 發表於 2018-9-9 16:05:11
本主題由 212love 於 2018-9-10 09:27 解除高亮
累計簽到︰1602 天
連續簽到︰11 天
發表於 2018-9-8 10:51:41 | 顯示全部樓層 |閱讀模式

侏羅紀世界2 Jurassic.World.Fallen.Kingdom., 2018.[MKV/12.28G] [複製鏈接]

影視分享
分類: 電影
題材: 動作 冒險 科幻 
地區: 美國 
語言: 英语 
格式: MKV 
年份: 2018
資源: BT资源
1.jpg ( W, ~; _, F& Z" K) |
  ~6 Q2 `, B& W- y: b
6 [. W& G7 W& Q6 m1 C: O
◎译  名 侏罗纪世界2/侏罗纪世界:殒落国度(台)/侏罗纪世界:迷失国度(港)/侏罗纪世界2:失落王国/侏罗纪世界2:堕落王国/侏罗纪公园54 K( r5 L1 C! S. c
  e( j8 v- E/ b/ S1 B* Q
◎片  名 Jurassic World: Fallen Kingdom
2 w* S8 Y& I& N* Y# [
, @- o) z- D5 K  ?! ?5 Z◎年  代 2018/ k1 H/ \! X* f* M! N0 `6 J1 W3 }
% I6 C. c; [2 S3 ^) A2 T
◎产  地 美国/西班牙- G. S4 y, i8 M* A  J4 {

1 `, K8 Y3 R! E- ]◎类  别 动作/科幻/冒险% @0 ]' p1 X8 `; k* I: Y

+ ~" d$ Y  U+ T$ z' H8 a◎语  言 英语
( i# `5 c: W2 m4 w. w* }( c6 f0 p; L$ ~# O/ M. K/ A: T1 [
◎上映日期 2018-06-15(中国大陆)/2018-06-22(美国)
, ^( N* R7 C, c8 H) D
) n5 K* e, `+ V◎BT之家整理 http://www.btbtt.us/$ T1 g2 |+ D5 X6 t, w" @: `
$ S( R/ p: T6 {! A; [
◎片  长 128分钟1 {' g) g+ g: r$ O
$ q( J: _% D# D: Z% @9 a* c
◎导  演 胡安·安东尼奥·巴亚纳 Juan Antonio Bayona
4 y$ Z, F) A- G5 _
1 h+ N5 Z" o8 t( k9 a, \5 ?◎主  演 克里斯·帕拉特 Chris Pratt
8 ~0 @+ F* r" \4 v% Z) N
! T* {9 U) x/ x5 n7 p      布莱丝·达拉斯·霍华德 Bryce Dallas Howard% ~/ Y4 I' G' F8 r
* T: x  ?, ~! `7 B; J
      贾斯蒂斯·史密斯 Justice Smith
9 X, Q$ k) \9 ]+ j( Q; O4 ~' W
  j8 F- E- R3 h      伊莎贝拉·瑟蒙 1394999
) U. n" ?- u. ~4 j6 s9 n$ @% q  ]! W7 L( _/ n7 t
      拉菲·斯波 Rafe Spall. v6 \$ z; y: F2 ~2 \7 Y
7 b0 q4 x* D7 W* G# K) h+ c
      托比·琼斯 Toby Jones# x( {! `; r' C( N

0 O) S' ?! p8 n2 B3 W- |4 F      泰德·拉文 Ted Levine9 w, w0 Y" u* {; @4 [* s

( l2 Q, D% A# d# \) @4 r* ]      詹姆斯·克伦威尔 James Cromwell
$ J0 a& C% a, |% _6 d5 o# D7 y+ c3 r! P" o
      黄荣亮 B.D. Wong1 O- }! @, I6 K' T( |

  G8 W, g2 B8 N& Q. X: ^# r- N- v      丹妮艾拉·皮内达 Daniella Pineda) o# O8 _; z6 M# d4 f1 |

$ C1 _2 j  [% z, ]6 x$ N- x! D( R7 W, U      杰拉丁·卓别林 Geraldine Chaplin+ E8 G9 t' a4 P  i3 \1 h
" f  L6 V) y, o8 `4 D  B
      杰夫·高布伦 Jeff Goldblum
; W0 [; d2 p% n7 @5 l% k- _5 w  R' a: U* i% R
      卡米尔·雷米泽斯基 Kamil Lemieszewski' M$ e% h; `8 @( ^' W

3 B4 f7 e7 F4 J1 T% y* R$ p2 _      丹尼尔·斯蒂森 Daniel Stisen3 J: W0 \7 B/ u% x

& f3 o5 G7 `. g1 x4 O- ?% L      皮特·杰森 Peter Jason
! @2 ]$ e& W: i+ _, X, ^8 a
1 g3 E; O4 k0 t) \. ?( Y      迈克尔·帕帕约翰 Michael Papajohn1 I+ K- |' V2 e$ E: q2 D6 e& ~
7 P8 [# v8 \* X2 ]* |) F
      罗伯特·埃姆斯 Robert Emms
3 f, D0 a( x, c: G9 c
5 |5 _) M; k( L  S, ?% Q1 O1 i( T      罗南·萨莫尔斯 Ronan Summers
# ]8 {% D  ]: U/ A3 K4 [. t9 j" J
0 |7 W7 L! J6 Q8 g8 n      麦克斯·贝克 Max Baker8 ~- t9 R: c, {: J  X& o4 I8 v+ W

/ \8 u$ l8 y' H      丹尼尔·厄根 Daniel Eghan8 e, Z% Z# D6 b( v7 q7 w
5 B& P* Y& ]# ]! l# i# x# D' k- J+ {! s; ~
      戴维·奥拉瓦莱·阿印德 David Olawale Ayinde
8 m' K4 S/ }3 J0 D  N, m1 q+ |$ @) [
7 T( p! M, j4 G0 J+ ^

# W' H- \/ N: S, Z- r! o; e4 R/ e$ f% ?+ o& @
◎简  介
4 }. }- l" x1 l; b1 }
- K6 T( ~9 A4 s  V! q- {
, S7 c! n) K+ i# @
$ b+ A2 X: X4 b' w- B) L6 b) I6 f3 [' t! ^% {: F
  自侏罗纪世界的骚乱以来,种类繁多的恐龙在努布拉岛度过了三年无拘无束的时光。然而该岛火山活动频繁,随时有喷发的危险。致力于恐龙保护的克莱尔·戴宁(布莱丝·达拉斯·霍华德 Bryce Dallas Howard 饰)受到班杰明•洛克伍德的邀请。班杰明及其下属伊莱·米尔斯(拉菲·斯波 Rafe Spall 饰)希望她和相关技术人员前往努布拉岛拯救那里的恐龙,并将它们安置在新的栖息地。受到感染的克莱尔设法找来欧文(克里斯·帕拉特 Chris Pratt 饰)一同前往,欧文则希望救出他亲手驯养的迅猛龙小蓝。当他们踏足这座隔绝之岛时,却发现事情没那么简单。
3 ~" A1 U% ^9 S! n( @' P
% Z0 A: ~5 E+ i, Y1 Z  火山蠢蠢欲动,随时爆发,而混乱之中丑恶的阴谋悄然酝酿……
+ u. G; x4 u3 h7 c  G: u
* f) R' d* r' t6 d3 H: w* {4 Z, r' S( r; M4 Q' d8 F8 g

. ?* G% S6 n, B' Q6 u  \MediaInfo « 1 t- U0 W, E9 r/ J8 \, A
Video$ R- [/ _: {+ }+ {. j' h% n
ID : 1
7 o: u% q( k# U1 OFormat : AVC
4 K" ~: E' W* q$ h/ p+ k0 U1 E( IFormat/Info : Advanced Video Codec
/ B% G5 L8 E* X" z$ QFormat profile : High@L4.1
: b% s# E6 W. I' ~1 p' }$ aFormat settings : CABAC / 5 Ref Frames
$ I5 r: a. C! [+ b6 a/ i/ k6 L  NFormat settings, CABAC : Yes
. R' `1 x. P0 D! w; kFormat settings, RefFrames : 5 frames
9 G" Z1 O" {" J3 c9 I. D( aCodec ID : V_MPEG4/ISO/AVC% a: R8 @: F- F/ J/ a# X, b3 E
Duration : 2 h 8 min
* e# H( D: R0 m! U5 {Bit rate : 9 468 kb/s
$ u  H" m3 g7 {: qWidth : 1 920 pixels$ _0 Y& n6 y$ k4 x3 X2 S  ]2 t
Height : 808 pixels
9 I* g. l7 i% r2 D9 C, G7 Q8 GDisplay aspect ratio : 2.40:1, |6 \9 u: m" w  A# x! @
Frame rate mode : Constant+ A9 W  J1 Y' l. o
Frame rate : 23.976 (24000/1001) FPS: d6 q- S4 i# ]5 ?0 @5 G! O9 r0 T
Color space : YUV
& w$ |' D4 l* Y% Z, x$ qChroma subsampling : 4:2:0
! H2 N3 O- W% o0 A" \+ s# LBit depth : 8 bits
" X9 W# {; H3 iScan type : Progressive
) {! {& B$ f1 D5 FBits/(Pixel*Frame) : 0.255
4 m( k/ Z) c+ `% k. ?5 ]3 J$ lStream size : 8.48 GiB (86%)7 ?# r2 G7 |4 W5 \% J* I
Writing library : x264 core 157 r2932 303c484
0 ?. e0 W& D; F* o- }Encoding settings : cabac=1 / ref=5 / deblock=1:-3:-3 / analyse=0x3:0x113 / me=umh / subme=8 / psy=1 / psy_rd=1.00:0.00 / mixed_ref=1 / me_range=16 / chroma_me=1 / trellis=1 / 8x8dct=1 / cqm=0 / deadzone=21,11 / fast_pskip=1 / chroma_qp_offset=-2 / threads=24 / lookahead_threads=4 / sliced_threads=0 / nr=0 / decimate=1 / interlaced=0 / bluray_compat=0 / constrained_intra=0 / bframes=3 / b_pyramid=2 / b_adapt=1 / b_bias=0 / direct=3 / weightb=1 / open_gop=0 / weightp=2 / keyint=250 / keyint_min=23 / scenecut=40 / intra_refresh=0 / rc_lookahead=50 / rc=2pass / mbtree=1 / bitrate=9468 / ratetol=1.0 / qcomp=0.60 / qpmin=0 / qpmax=69 / qpstep=4 / cplxblur=20.0 / qblur=0.5 / ip_ratio=1.40 / aq=1:1.00& J! V7 l& c- Z( m1 W  M# _
Language : English6 c4 a. Z& S/ @* f: U0 ~3 K
Default : Yes* V: K( ~4 O- u1 O
Forced : No
* ?9 }2 O# ~, {5 y2 @  T+ w
1 L& w7 V6 f2 ?& |7 X7 h, o/ {Audio
6 W% H: u: W2 \% Q- @) zID : 2( N( H; s2 h0 M9 t  B" b4 p
Format : DTS
# S0 A: C% Y% ^. YFormat/Info : Digital Theater Systems
; b+ ?6 z5 ?1 F3 w9 A  GMode : 160 O3 c+ F. ], A
Format settings, Endianness : Big& S( C# ?/ o5 g( m  f
Codec ID : A_DTS8 B. b9 r) ~) D# O" F+ a
Duration : 2 h 8 min: O" z$ Z# A" ~: b' t( b+ ?7 C# F
Bit rate mode : Constant
0 {$ L( `- N: j' hBit rate : 1 509 kb/s) r% k9 }2 U& _6 ^
Channel(s) : 6 channels& z# I! `/ [5 h( i5 Z" V" U4 r
Channel positions : Front: L C R, Side: L R, LFE
0 \; K7 I6 k7 b. sSampling rate : 48.0 kHz
3 w0 i. F$ k) `' u9 tFrame rate : 93.750 FPS (512 SPF)  B3 B$ A! k* v! o2 S0 `2 }$ [
Bit depth : 24 bits% R& [8 k( {/ O6 A1 K; W1 _
Compression mode : Lossy$ X: L- Z4 p: o1 Y$ o1 Z
Stream size : 1.35 GiB (14%), D8 |& v: A) ^! u
Language : English
1 E7 E% Y& Z, L" Z6 ~2 K) i; K1 e! PDefault : Yes
) e4 o) @( l7 S# uForced : No
& c/ H: s! L# F. ^1 x3 X" o; _

侏羅紀世界2. MKV.torrent

99.63 KB, 下載次數: 1114

尚未簽到

發表於 2018-9-8 10:52:40 | 顯示全部樓層
精妙絕倫的精品,感謝啊!期待你更多更好的創作哦!

尚未簽到

發表於 2018-9-8 13:52:44 | 顯示全部樓層
這個我收藏了!謝謝分享!WK的資源越來越豐富,這少不了大大的辛勞!

尚未簽到

發表於 2018-9-8 16:45:59 | 顯示全部樓層
偶像^^小生一直都在關注你的原創!小生對你之仰慕如滔滔江水連綿不絕!
累計簽到︰1671 天
連續簽到︰6 天
發表於 2018-9-8 18:21:12 | 顯示全部樓層
這個我收藏了!謝謝分享!WK的資源越來越豐富,這少不了大大的辛勞!

尚未簽到

發表於 2018-9-8 21:13:00 | 顯示全部樓層
偶像^^小生一直都在關注你的原創!小生對你之仰慕如滔滔江水連綿不絕!

尚未簽到

發表於 2018-9-9 00:03:22 | 顯示全部樓層
感謝大大的辛勞分享!我會繼續在WK關注大大的文章!

尚未簽到

發表於 2018-9-9 05:35:36 | 顯示全部樓層
這個我收藏了!謝謝分享!WK的資源越來越豐富,這少不了大大的辛勞!

尚未簽到

發表於 2018-9-9 08:19:25 | 顯示全部樓層
偶像^^小生一直都在關注你的原創!小生對你之仰慕如滔滔江水連綿不絕!

尚未簽到

發表於 2018-9-9 16:05:11 | 顯示全部樓層
絕對的好貼!謝謝啊!逐字逐圖地看完這個帖子以後,我的心久久不能平靜,感恩啊!

回復樓主 親!! 現在是淩晨!妳失眠啦?餓啦?通宵加班?還是想WK啦?

 分享同時學會感恩,一句感謝的話語,就是最大的支持!  歡迎交流討論
您需要登錄後才可以回帖 登錄 | 立即注册

本版積分規則

c重要聲明:本論壇是以即時上載言論的方式運作,WK論壇對所有言論的真實性、立場及版權等,不負任何法律責任。而一切言論只代表發佈者個人意見,並非本網站之立場,讀者及用戶務必自行判斷內容之真實性。 由於本論壇受到「即時上載言論」運作方式所規限,故不能完全監察所有言論,若讀者及用戶發現有內容出現「真實性、立場及版權」等問題,請聯絡我們:info@waikeung.net論壇有權刪除任何言論(刪除前或不會作事先警告及通知)| SiteMap[網站地圖]

發表新帖 返回頂部