WK綜合論壇, WK综合论坛

查看:28454 回復:21 發表於 2018-9-9 13:30:19
本主題由 212love 於 2018-9-10 09:27 解除高亮
累計簽到︰1602 天
連續簽到︰11 天
發表於 2018-9-8 13:40:56 | 顯示全部樓層 |閱讀模式

下層人 Lowlife., 2017.[MKV / 9.6G] [複製鏈接]

影視分享
分類: 電影
題材: 劇情 喜劇 犯罪 
地區: 美國 
語言: 英语 
格式: MKV 
年份: 2017
資源: BT资源
1.jpg 0 y) f+ M3 D  q: g  x

) C2 g, A' t/ I: r) S  {◎译  名 下层人
; b7 Q% Z. H: r8 B% z( m7 D5 ~9 n6 ]# `. L* y
◎片  名 Lowlife2 q0 f: ^- l1 ?+ @  X
  D' k5 W4 @% o( ^7 b
◎年  代 2017& i- E- Q* E( M2 I

. c5 v" q) ^$ N◎产  地 美国
, w" Q( h) D( C3 ?9 V7 r/ v" @* `" I( S- j1 q' T, n: t
◎类  别 剧情/喜剧/犯罪
% _) F0 L! X" X- F- R% R* Q6 H, K
& O$ A; i' ]+ P- ]◎语  言 英语
. B6 p1 T. a  ~0 H4 [5 n, l6 G8 C) B4 d) t
◎上映日期 2017-07(加拿大)9 k4 H* \" r7 ~0 p1 U, z; H# i

+ D7 k& F; ]) t4 m◎片  长 96分钟
2 i0 O- P" U8 K
* U2 U2 Y- O( a% w$ z◎导  演 Ryan Prows
; z" _) `0 R6 f9 k$ |* b: e
# f" ?& N" @$ X8 Y3 Y) t" p◎主  演 Nicki Micheaux
0 \# g$ p: h. T9 C7 g4 V
* Z. b* [* i- t0 ~0 r1 N      Ricardo Adam Zarate% w$ v" w. q9 ^4 j$ W7 B
% ~( S! `& `9 C1 \5 g+ K' u
      Jon Oswald4 m6 }0 z# U+ r4 G% _
/ }/ r9 {, j6 |5 w' [7 a
& g3 K* ]$ ~8 I

( {- c+ I. V& o/ S◎简  介8 R; D( q3 T( ]5 C

2 l+ P* N) |+ N- |( ~4 J2 [+ d' B" h, d0 \  X- c
/ m  T# j& u1 W* E& H
  The sordid lives of an addict, an ex-con, and a luchador collide when an organ harvesting caper goes very, very wrong.
0 S/ ]) g4 {* ^- U/ C7 p: H
' Z% m( T5 ~3 X# [/ p+ w! S3 M) }5 n
8 ]% Z# X% ]- J3 [5 h) ^& t+ q' T
Video
1 Y. i& w  C6 n8 FID : 1
, D) I; ^, S3 O9 pFormat : AVC
  l2 f9 s% {! C! c4 F1 n) G% I+ xFormat/Info : Advanced Video Codec
7 u5 U. e" `4 U* {* Y) HFormat profile : High@L4
0 c& ]$ Z. Q4 P* vFormat settings : CABAC / 4 Ref Frames( Z8 {) m5 f% Z: V2 A
Format settings, CABAC : Yes4 I8 Y1 ]! n, \* {
Format settings, ReFrames : 4 frames% {/ G: U5 W# n; [! x! D4 k# \
Codec ID : V_MPEG4/ISO/AVC: a, b" u* E9 K1 r4 t
Duration : 1 h 36 min
% ]- \1 o9 F( UBit rate mode : Variable
3 [! }( k1 w- E, p. z% W: eBit rate : 13.6 Mb/s
' w$ r4 n2 O, N# p: k$ u& mMaximum bit rate : 15.0 Mb/s& k" P5 \( u* S; D" H
Width : 1 920 pixels
9 B; ]0 I5 K9 f/ L* ZHeight : 800 pixels
* u/ v/ Y) U5 D7 ~. c9 bDisplay aspect ratio : 2.40:1! K& a. u  Y+ J0 t" L  R* C
Frame rate mode : Constant
( R" |' B$ b' P! ^; dFrame rate : 23.976 (24000/1001) FPS" V: w  {8 X6 Q" @. S" _/ `: Q
Color space : YUV( ?, k1 X7 j/ @
Chroma subsampling : 4:2:0
2 w/ l9 x* U* \5 UBit depth : 8 bits
( `3 X4 A: Y& h; r8 U. L8 ^4 m! _Scan type : Progressive
+ a: {" [: M" ^1 J4 U' |9 m7 |, lBits/(Pixel*Frame) : 0.3702 a0 z7 }  y2 m8 t# U2 k
Stream size : 9.16 GiB (95%)7 d: r& A3 h6 G. W
Default : Yes  c- `2 t# }: \$ j, T1 m0 v/ O( s# k
Forced : No$ d7 m) F3 G" F2 s/ _3 s
Color range : Limited, S1 ~4 j. Q3 z  i( k
Color primaries : BT.709. [0 c4 B$ x& H
Transfer characteristics : BT.709
# G  B& s" `& j4 z- o  o. j" sMatrix coefficients : BT.709
9 e, `' D6 W5 i0 ~4 ^9 Z2 K( D. s0 _0 R7 a$ X
Audio
4 Y: d* j( h5 ~  oID : 2
4 E3 H8 z, `# l+ w  ~Format : E-AC-3
9 N$ Q' l3 W0 oFormat/Info : Enhanced Audio Coding 34 l0 C+ \/ I' K* r6 g
Codec ID : A_EAC3  `: q. m) R' C# c4 W6 M7 P3 e, o9 ^
Duration : 1 h 36 min
8 b# u( J8 H) c1 qBit rate mode : Constant; I( Y( M0 Y0 ~8 N: \
Bit rate : 640 kb/s. [6 @; j* d3 X0 T; }- y, x
Channel(s) : 6 channels* a4 E/ b0 `* N- |# K& Q1 L. Y3 W
Channel positions : Front: L C R, Side: L R, LFE+ I( i) ~6 J5 R3 F- Q. S4 g2 {
Sampling rate : 48.0 kHz" ?" M4 Y) ]- E$ P& o& V7 ^
Frame rate : 187.500 FPS (256 SPF)+ r. z* }, a1 |+ m! ?! }5 o9 s7 G9 X
Compression mode : Lossy& B' p7 `% h* @! B' Z6 K$ ]
Stream size : 441 MiB (4%); x8 V: D5 ~9 v3 K9 \
Language : English
' N( a/ k; B- N: w: S5 Z- f# {2 JService kind : Complete Main& x6 T) }* w. O# X7 [! v& t1 b
Default : Yes
  q) P/ o( _, X* Y4 vForced : No
0 J9 {+ V$ ]4 c3 c; p9 ^+ b0 y) q1 }; i, K2 r% b% e6 r
Text #1- h: N" m  b/ X% s+ Z  M0 n
ID : 3
: v/ X( B. t) B8 C- X+ CFormat : UTF-8
& w$ x/ [' c, B* YCodec ID : S_TEXT/UTF8* y5 @! k7 t0 B9 v
Codec ID/Info : UTF-8 Plain Text) p7 ^) B0 e& x" U2 N
Duration : 1 h 30 min- }/ g+ X# ]9 A% v" }) A
Bit rate : 36 b/s2 B2 p; y) I+ R
Count of elements : 885! i# y% f/ Q+ z2 l6 J, W6 V
Stream size : 24.3 KiB (0%)
( w1 B" N2 m6 \2 NLanguage : English
9 n# \. U* j* o9 [- i: s7 _Default : No; U% R6 \5 j: M) c8 H8 ^9 t! T+ R
Forced : No
$ j$ h8 `  C! M' K
6 B6 I0 W7 z$ e7 m9 {Text #2! [; P1 O5 ^! ~  ^
ID : 4
6 O" m) D0 ?1 n" _/ k4 {Format : UTF-8! K+ h! r5 A. W4 ~
Codec ID : S_TEXT/UTF8
" o9 ~0 z0 P, l8 B. S# ACodec ID/Info : UTF-8 Plain Text
& B) m( p: n' o4 NDuration : 1 h 35 min
1 Q% z2 H( l0 W3 fBit rate : 42 b/s& v3 J6 c- q* w9 O7 _) k2 P
Count of elements : 1186
% e' d9 C9 j' I" m" c; hStream size : 29.3 KiB (0%)
, v7 v) c  G$ L" I! n; u8 w! E- bTitle : SDH
8 h1 `3 `4 d. F5 S8 G! g1 jLanguage : English
: a3 Z5 n) l0 F) tDefault : No1 e/ Y9 ?% B8 p1 F4 @) i
Forced : No

: {- j1 p; O0 ^# Z+ E- a
! I4 ~; }# }, Z( @' T
$ k$ f2 c  a( W' e

下層人. MKV.torrent

96.49 KB, 下載次數: 982

尚未簽到

發表於 2018-9-8 13:41:58 來自手機 | 顯示全部樓層
絕對的好貼!謝謝啊!逐字逐圖地看完這個帖子以後,我的心久久不能平靜,感恩啊!

尚未簽到

發表於 2018-9-8 16:36:03 | 顯示全部樓層
絕對的好貼!謝謝啊!逐字逐圖地看完這個帖子以後,我的心久久不能平靜,感恩啊!

尚未簽到

發表於 2018-9-8 16:36:05 | 顯示全部樓層
這個我收藏了!謝謝分享!WK的資源越來越豐富,這少不了大大的辛勞!

尚未簽到

發表於 2018-9-8 19:26:12 來自手機 | 顯示全部樓層
感謝大大的辛勞分享!我會繼續在WK關注大大的文章!

尚未簽到

發表於 2018-9-8 22:16:49 來自手機 | 顯示全部樓層
感謝大大的辛勞分享!我會繼續在WK關注大大的文章!

尚未簽到

發表於 2018-9-9 01:08:31 | 顯示全部樓層
精妙絕倫的精品,感謝啊!期待你更多更好的創作哦!

尚未簽到

發表於 2018-9-9 03:54:39 | 顯示全部樓層
精妙絕倫的精品,感謝啊!期待你更多更好的創作哦!

尚未簽到

發表於 2018-9-9 11:17:05 | 顯示全部樓層
絕對的好貼!謝謝啊!逐字逐圖地看完這個帖子以後,我的心久久不能平靜,感恩啊!
累計簽到︰148 天
連續簽到︰4 天
發表於 2018-9-9 13:30:19 | 顯示全部樓層
感謝大大的辛勞分享!我會繼續在WK關注大大的文章!

回復樓主 親!! 現在是淩晨!妳失眠啦?餓啦?通宵加班?還是想WK啦?

 分享同時學會感恩,一句感謝的話語,就是最大的支持!  歡迎交流討論
您需要登錄後才可以回帖 登錄 | 立即注册

本版積分規則

VIP精品区

c重要聲明:本論壇是以即時上載言論的方式運作,WK論壇對所有言論的真實性、立場及版權等,不負任何法律責任。而一切言論只代表發佈者個人意見,並非本網站之立場,讀者及用戶務必自行判斷內容之真實性。 由於本論壇受到「即時上載言論」運作方式所規限,故不能完全監察所有言論,若讀者及用戶發現有內容出現「真實性、立場及版權」等問題,請聯絡我們:info@waikeung.net論壇有權刪除任何言論(刪除前或不會作事先警告及通知)| SiteMap[網站地圖]

發表新帖 返回頂部