WK綜合論壇, WK综合论坛

查看:41 回復:1 發表於 7 天前
本主題由 212love 於 7 天前 解除高亮
累計簽到︰1997 天
連續簽到︰1 天
發表於 2020-5-23 08:44:14 | 顯示全部樓層 |閱讀模式
VIP精品區,資源無限好賺金任務區,輕松賺金幣
加入VIP,享受高級特權宣傳賺金又升級,超級棒

塘鵝之血 Pelican.Blood., [MKV / 10.14G] [複製鏈接]

影視分享
分類: 電影
題材: 劇情 
地區: 英國 
語言: 英语 
格式: MKV 
年份: 更早
資源: BT资源
1.jpg 8 t) C5 w9 Q) b( _, H+ g
' c4 T4 ]' `# r8 ~8 |
◎译  名 塘鹅之血7 r0 |" y" Y  ^, ^
◎片  名 Pelican Blood
# K  p, C" _8 y( a◎年  代 2009
/ g9 m* P, i& A3 R+ K◎产  地 英国1 Q1 B. y4 L) L% q. G
◎类  别 剧情8 Z* m  v) b0 L; S. q: n
◎语  言 English- Q# B3 @& e, i- c, j( _6 T
◎上映日期 2009-12-017 v8 s# G; Q) q- O, S
◎IMDb评分 6.4/10 from 499 users
8 @; Q2 f/ ~; ]3 U: B( }7 Z0 l◎IMDb链接 https://www.imdb.com/title/tt1305059
* `% U/ s& R" _- A! f◎豆瓣评分 7.4/10 from 118 users
! h* a5 M% a. K- O4 N/ b+ w◎豆瓣链接 https://movie.douban.com/subject/3285657/4 i+ ]  k$ T5 _4 l5 A1 d& ^/ L
◎片  长 95分钟7 u) P8 Z7 B+ t8 {- ~" e* D; W
◎导  演 Karl Golden
) H- ~- B1 |3 [" U0 x7 w◎编  剧 Cris Cole
2 x0 q% W4 `3 ~9 m* w- T* n' n◎主  演 Harry Treadaway
  }# w5 }  O. |/ U; a      Emma Booth/ e4 }$ V$ Q2 Z4 Z
      Emma Clifford
" @1 Y# B2 F* r3 D3 b
. u# b6 k$ t# i) }; Q, S# h: S1 o; B! V
◎标  签 英国 | 文艺 | 英国电影 | 爱情 | 塘鹅之血 | HarryTreadaway | 剧情 | Treadaway
: y! J$ t4 S  H# @2 L1 w) J+ ?' g  A6 f2 ~
◎简  介
! h- B9 o5 V8 y6 S, N8 z8 R1 o" w2 v6 C* B0 r  k- B
  本片讲述了一个生活在伦敦的有趣年轻人的故事。' A5 I5 O+ X3 M$ r: i
  (转自moviereleased)4 K+ T0 w" @* \
  Pelican Blood tells the story of Nikko, a funny but left-of-center young man living in London. Following a disastrous break up with his girlfriend, Stevie, he's taking life one day at a time, throwing all his energy into his hobby: bird spotting Just as life becomes bearable, Stevie arrives back on the scene, causing a rift between Nikko and all his friends, who warn him she will destroy him. They are fully aware of how the couple first met: on a suicide website, pledging they will 'end it all together'. As their intense, disturbing and highly sexual connection resumes, the relationship between Nikko, Stevie, his friends and his hobby are thrown into questionable chaos. Pelican Blood is a funny and passionate look at the things that make us tick, and the things we tick off the list.
5 b: `: ~* `# i4 N) x" `Video2 }+ K. S! Q0 D0 i  V" B- @# `
ID : 1
& V& P; ~/ \) |  p4 p9 Y/ MFormat : AVC& j3 X$ M& M+ w8 V  G- H4 p
Format/Info : Advanced Video Codec
4 T, b; a. e# s0 a% VFormat profile : High@L4
5 ]; {8 f& p. W6 zFormat settings : CABAC / 4 Ref Frames
4 I/ S/ f! X, `; e  jFormat settings, CABAC : Yes( H5 A3 K$ U; k; K  X, P0 c( H' S
Format settings, Reference frames : 4 frames6 L7 Z+ W+ V  Q' u
Codec ID : V_MPEG4/ISO/AVC* Q( d8 k4 \; k6 O$ W
Duration : 1 h 38 min
- w" Y  }: G$ I) ?Bit rate mode : Variable
: P: P7 D* ]7 Y) t# K( K1 @- E, e. WBit rate : 14.1 Mb/s
% H1 R3 Y; r. c! g0 t2 S8 U; dMaximum bit rate : 15.0 Mb/s
' _+ U+ l$ N0 @' V5 HWidth : 1 920 pixels" M8 B5 H" o3 V( d& X
Height : 1 040 pixels
6 }+ Z9 _' a$ t; p) l- MDisplay aspect ratio : 1.85:1% s; v  X: L- D; r' N
Frame rate mode : Constant# s) Y$ O0 x% t/ U3 t5 w! Q
Frame rate : 24.000 FPS
9 R$ b9 ?& Z, C& A4 wColor space : YUV; u/ q. _4 D/ I
Chroma subsampling : 4:2:0/ g3 ^; G$ L, o
Bit depth : 8 bits7 s% x/ Y( R, |
Scan type : Progressive. i" A3 P  z) ?; Y: t* ?7 P
Bits/(Pixel*Frame) : 0.295  A- l% B) }. U/ O
Stream size : 9.70 GiB (96%)
! S( s. {& F+ L/ [$ OLanguage : English* F/ Q7 R" Q3 L
Default : Yes
" B6 M( o7 x- m( z- [( RForced : No
2 V/ |9 B( L8 o. Y2 {' l. oColor range : Limited* S% A7 v# [7 P! x2 @# I
Color primaries : BT.709
+ J0 F: M& s5 \5 FTransfer characteristics : BT.709
" t2 ^1 `5 J3 ], c# r+ cMatrix coefficients : BT.709
4 ^7 W/ f+ n" @: x8 g/ c
2 [/ b  _; L4 x( Q; m* y* H) c4 }Audio* M7 ]2 [5 ]* ?# ?$ x
ID : 2
: u2 f% k; S' ~, oFormat : E-AC-36 R1 t2 N( t; E; R+ `1 V( s9 ~
Format/Info : Enhanced AC-3: x; T: O6 c( t5 b" o6 O; d
Commercial name : Dolby Digital Plus
) ~3 T) _7 |8 g8 l( f, E6 {Codec ID : A_EAC3! |; J5 {  w  N- R
Duration : 1 h 38 min
+ l& o# R! F* }5 j; rBit rate mode : Constant2 q3 ^4 }6 [8 p. P! X0 [4 V
Bit rate : 640 kb/s
# o% o  T) H1 s8 u' G; gChannel(s) : 6 channels; _! Y. V8 g5 o+ u5 @7 [. z. j
Channel layout : L R C LFE Ls Rs
& Z; ?7 x( Q$ |* j5 U4 [. CSampling rate : 48.0 kHz) L4 L: {+ d) O3 |$ A/ S
Frame rate : 31.250 FPS (1536 SPF)
+ I( H) p3 R0 j' ^) l& ?) Y, gCompression mode : Lossy
9 ^9 N8 ?. a$ k3 g. N4 hStream size : 450 MiB (4%)' a$ d* F9 e* P6 h  l
Language : English
' a% P# J: _& N, U7 G# M: q* YService kind : Complete Main6 b( {; A7 f1 \1 t( l% U* N# R
Default : Yes) d4 n: a1 S5 f( b4 O2 U! E' i
Forced : No6 T( r* c6 l/ x

) w0 q8 Q* ~2 p% mText1 e  f4 g/ T& b, A/ O
ID : 3
# Z* H1 R; q& mFormat : UTF-8
& P& e5 j) B  o! f7 YCodec ID : S_TEXT/UTF86 V8 @( d" v, J! R
Codec ID/Info : UTF-8 Plain Text4 A) f/ N1 Q' S, g
Duration : 1 h 37 min  x5 J& F6 z, a
Bit rate : 41 b/s
9 I8 g9 _- p- V' \. J4 ~6 bCount of elements : 12605 o: p2 Z- e* |- x
Stream size : 30.0 KiB (0%)/ k9 t8 r' ?# b2 @4 s5 |- b
Title : SDH
+ d& O8 |  v, J3 u, i: }Language : English. a" _% @1 v5 R1 z% z, o
Default : No" n6 ~. c3 b& H* f
Forced : No
/ i6 b! z% E- e) W' E' ~4 I
8 P  Y4 m/ }0 D* s- d

, Z% G( r4 g2 n: q1 F

塘鵝之血. MKV.torrent

51.25 KB, 下載次數: 5

累計簽到︰2 天
連續簽到︰2 天
發表於 7 天前 | 顯示全部樓層
VIP精品區,資源無限好賺金任務區,輕松賺金幣
加入VIP,享受高級特權宣傳賺金又升級,超級棒
很讚的文章,謝謝咯!相信WK因為有你而更加精彩!

回復樓主 親!! 早上好! 心底有WK、心情就會飛翔,心中要個希望、笑容就會清爽!

 分享同時學會感恩,一句感謝的話語,就是最大的支持!  歡迎交流討論
您需要登錄後才可以回帖 登錄 | 立即注册

本版積分規則

c重要聲明:本論壇是以即時上載言論的方式運作,WK論壇對所有言論的真實性、立場及版權等,不負任何法律責任。而一切言論只代表發佈者個人意見,並非本網站之立場,讀者及用戶務必自行判斷內容之真實性。 由於本論壇受到「即時上載言論」運作方式所規限,故不能完全監察所有言論,若讀者及用戶發現有內容出現「真實性、立場及版權」等問題,請聯絡我們:info@waikeung.net論壇有權刪除任何言論(刪除前或不會作事先警告及通知)| SiteMap[網站地圖]

發表新帖 返回頂部