WK綜合論壇, WK综合论坛

查看:98 回復:3 發表於 2020-5-23 23:02:54
本主題由 212love 於 2020-5-25 11:30 解除高亮
累計簽到︰1997 天
連續簽到︰1 天
發表於 2020-5-23 08:48:33 | 顯示全部樓層 |閱讀模式
VIP精品區,資源無限好賺金任務區,輕松賺金幣
加入VIP,享受高級特權宣傳賺金又升級,超級棒

寶劍與權杖 The.Warrior.Queen.Of.Jhansi., 2019.[MKV / 6.78G] [複製鏈接]

影視分享
分類: 電影
題材: 劇情 
地區: 英國 
語言: 英语 
格式: MKV 
年份: 2019
資源: BT资源
1.jpg ! r6 E9 w  C0 y9 K# g2 M/ x
! Y6 ^: Q& W/ c0 W* d
◎译  名 宝剑与权杖 / Swords and Scepters / Swords and Sceptres: The Rani of Jhansi8 t1 f8 v" c+ X* `
◎片  名 The Warrior Queen of Jhansi2 Z6 n; y- R! N/ E
◎年  代 2019' t7 V  ?4 V: C
◎产  地 英国" ?# U' B5 \/ c2 Y
◎类  别 剧情
9 Y) _, ]8 b; M) ~' n9 `' i3 `◎语  言 英语# ~: y0 Y0 U- K5 h- p( _3 t4 \
◎上映日期 2019-03-10(温哥华女性电影节)3 x! O; Z1 {$ N6 D" ]
◎IMDb评分 3.5/10 from 245 users
- Q* @* t+ x7 N% u& U◎IMDb链接 https://www.imdb.com/title/tt6916348
- K; \1 F) o& ?◎豆瓣评分 0/10 from 0 users
9 J1 `1 I" I( B8 t3 ?( [1 [6 I% @◎豆瓣链接 https://movie.douban.com/subject/27191803/
6 j' `" v0 E" d/ V◎片  长 103分钟: G/ X' D7 v' Q, v$ _/ [
◎导  演 Swati Bhise$ A7 N" T  k7 d
◎编  剧 Devika Bhise / Swati Bhise / Olivia Emden
. _3 U" {; a* Z◎主  演 鲁伯特·艾弗雷特 Rupert Everett. U/ g8 c' K& ]0 o+ \, ^
      德里克·雅各比 Derek Jacobi
' {; v3 A: A2 E4 T/ p9 H4 p      乔迪·梅 Jodhi May+ N+ ^/ {: }! G$ z1 s8 f
      内森奈尔·帕克 Nathaniel Parker
7 ], j- r  S! }: \1 H  S8 [      德维卡·贝斯 Devika Bhise1 j( m2 i7 J# Y& w% H
      Ben Lamb# h8 ^+ g* h& ]( ~# V
* B0 h7 O3 e1 S* ~5 P# F; {9 A5 J4 c
+ T2 B0 n% C0 Z0 U  U
◎标  签 印度 | 英国 | 2019年上海国际电影节 | 历史 | DerekJacobi | 剧情 | 2019SIFF | 首选
( n! g' D& ^8 P% v" s+ [5 i% Z, V, Z5 s5 E
◎简  介) s+ D% [$ F" j1 W3 g( W, _
: e" P0 T# h/ j$ i9 S/ f
  鲁伯特·艾弗雷特、德里克·雅各比加盟[宝剑与权杖](Swords and Scepters,暂译)。主演德维卡·贝斯、乔迪·梅、内森奈尔·帕克等。印度导演斯瓦蒂·贝斯执导,故事聚焦印度“詹西女王”拉克希米巴伊1857年反抗英国东印度公司的起义行动。艾弗雷特、雅各比分饰休·罗斯爵爷、帕默斯顿勋爵。( S5 ^' n1 U! _# x- D# ~. P
Video
9 b% Z& e& K1 B0 a5 ^ID : 1
4 u9 F+ |* _9 ?' h: fFormat : AVC
& R/ y0 k3 D/ [" n9 E4 _  b9 h% }Format/Info : Advanced Video Codec
+ s# ~% i' ~- l, ~0 `Format profile : High@L4
- p2 |; }2 ]0 n; \* x( VFormat settings : CABAC / 4 Ref Frames8 J8 o" r3 h* l% v" A; c
Format settings, CABAC : Yes, r" m( ^$ z& `2 _9 ^
Format settings, Reference frames : 4 frames
8 r; g: w5 ?5 R2 c" H1 a7 ?0 MCodec ID : V_MPEG4/ISO/AVC
. H0 T" u! _; GDuration : 1 h 42 min
0 m: f% G3 v" N; n2 h* T, Z, WBit rate mode : Constant
9 j/ d3 V6 y* x% ZBit rate : 8 813 kb/s
- V- g3 x* C# |6 I$ MNominal bit rate : 10 000 kb/s
) z7 e9 {- r6 Z1 JWidth : 1 920 pixels
3 e  A" \3 n2 n6 S; ]! M1 MHeight : 800 pixels
! T& U) t$ }- m# f" e  K; L+ ?Display aspect ratio : 2.40:1
! x8 G$ b: Q' Y( vFrame rate mode : Constant
) ^: W  O* B: f7 m5 KFrame rate : 23.976 (24000/1001/189150) FPS
8 B/ V6 A2 P* @Color space : YUV
" a+ S2 _9 O. \! l% f6 {. W# O3 bChroma subsampling : 4:2:0
! x+ s+ r2 F7 Y8 l* {, JBit depth : 8 bits
% O; p7 h" C# r& j3 h5 t7 _; r( OScan type : Progressive: e* R. b, ~# [1 o3 W- G
Bits/(Pixel*Frame) : 0.239
+ [2 p  E' k- F+ ~! \- Q9 q/ EStream size : 6.32 GiB (93%)
. ~$ E5 f2 P7 Z4 G! F& KDefault : Yes
6 g9 v/ M/ h( B0 t4 MForced : No
  h+ f# e6 C4 ?: dColor range : Limited
7 M% w; h$ {0 ZColor primaries : BT.7096 U# W. t' }, `
Transfer characteristics : BT.709
6 I3 u3 v* S% P+ ^Matrix coefficients : BT.709
% x, y3 I5 |- ~$ G2 g. l/ ]' P, x7 W+ v4 @6 ^/ T1 }5 T
Audio
+ y3 B. l6 c! Q$ {ID : 2
9 z1 i, T8 R. J8 @9 H& }Format : E-AC-3
9 g% B# ^$ O5 a* L& I$ a9 \* fFormat/Info : Enhanced AC-3
7 `- N2 m* n/ z/ b  F# g1 zCommercial name : Dolby Digital Plus
6 e# y! o2 G: F2 m8 J- Y2 yCodec ID : A_EAC3# P/ L, T7 P) ~, f+ i
Duration : 1 h 42 min
; E  C; J7 G# a$ r4 [; v* zBit rate mode : Constant$ \# A' g. n- f: g! J6 v8 V# |' F
Bit rate : 640 kb/s7 @/ W# P, v/ O3 L
Channel(s) : 6 channels7 ?3 b% Q, D& Q0 a" o
Channel layout : L R C LFE Ls Rs0 H+ d6 M. }) z) u: K' |1 ]0 @' d
Sampling rate : 48.0 kHz
, T7 c8 G1 D) f- I; s1 ^- Q" s5 dFrame rate : 31.250 FPS (1536 SPF)
1 n$ j6 c( G5 q2 v2 aCompression mode : Lossy9 u& Z* o. i; R  ]/ Z  q
Stream size : 470 MiB (7%)- m6 \: S3 c: S7 A& n8 C
Language : English
7 O# Q0 _( W  x1 k: |Service kind : Complete Main
; a0 T" V0 l* S) ~- T- qDefault : Yes" p& j) O9 C$ {6 W  ~2 G2 R9 R' P! k
Forced : No
$ M1 ~9 {$ j9 @3 x# r: s* a! W5 a5 x* W4 t- I* q+ {. S& o$ W" o
Text #1% |( p3 e  Y8 c4 q+ @7 F/ l  a
ID : 3
' f+ [6 B2 P/ W$ X. GFormat : UTF-8
8 ?: H1 z7 y! |3 n, d' \: f: H: b5 {% uCodec ID : S_TEXT/UTF86 ~+ R- v8 l/ ?; F% [, P" \; v
Codec ID/Info : UTF-8 Plain Text
5 h# }% ^; r  I. q# s* E4 QDuration : 1 h 35 min
. ], E# W* {9 y4 c/ YBit rate : 46 b/s% a+ i, p" d9 S5 W
Count of elements : 1040$ F! W+ e/ d/ r/ I
Stream size : 33.0 KiB (0%)
% {, Z- ?9 h# l6 B% R3 i5 XLanguage : English
+ t) l& |7 |  C8 M" V# h- X+ ^Default : No
* L: A1 N2 B6 I8 JForced : No; F4 c$ ?! c7 T, }9 x9 e
0 M& n$ ~. A' ]3 `
Text #24 j$ k" e% {6 J8 [  S: |; P
ID : 42 }* n! J+ d( ?6 C
Format : UTF-8
, F# j% K* I( J, \2 f2 ?, n7 ECodec ID : S_TEXT/UTF8
/ L6 d  E/ o% L& F( YCodec ID/Info : UTF-8 Plain Text
  T; T" J# ]! {, O# u9 k5 tDuration : 1 h 35 min2 c" C  C  Y. B1 v
Bit rate : 53 b/s
4 X- \0 D  ~2 p9 m* E3 m: xCount of elements : 1259
8 V; F1 P! P/ g5 [6 @, e/ o  nStream size : 37.4 KiB (0%)
4 A% z- W1 L: U3 F4 \2 H  O( A# TTitle : SDH4 P& V# T! D+ X9 M' c  f
Language : English" \$ l0 j- R  `/ [- C
Default : No. f4 \) Z. A& W) D% P: {1 o
Forced : No
$ E3 X' O, \0 q( O1 D! ^: n

* ]" L* f0 A, f! I2 U* ]6 I) U1 ^6 s1 D% `4 R9 {7 P( Q6 ]& c, d

寶劍與權杖. MKV.torrent

34.46 KB, 下載次數: 8

累計簽到︰2 天
連續簽到︰1 天
發表於 2020-5-23 09:46:01 | 顯示全部樓層
VIP精品區,資源無限好賺金任務區,輕松賺金幣
加入VIP,享受高級特權宣傳賺金又升級,超級棒
ddddddddddddddddddddddddddddddddddddd
累計簽到︰1239 天
連續簽到︰28 天
發表於 2020-5-23 10:09:10 | 顯示全部樓層
感謝大大的辛勞分享!我會繼續在WK關注大大的文章!
累計簽到︰1 天
連續簽到︰1 天
發表於 2020-5-23 23:02:54 | 顯示全部樓層
Thank you for sharing.

回復樓主 親!! 早上好! 心底有WK、心情就會飛翔,心中要個希望、笑容就會清爽!

 分享同時學會感恩,一句感謝的話語,就是最大的支持!  歡迎交流討論
您需要登錄後才可以回帖 登錄 | 立即注册

本版積分規則

c重要聲明:本論壇是以即時上載言論的方式運作,WK論壇對所有言論的真實性、立場及版權等,不負任何法律責任。而一切言論只代表發佈者個人意見,並非本網站之立場,讀者及用戶務必自行判斷內容之真實性。 由於本論壇受到「即時上載言論」運作方式所規限,故不能完全監察所有言論,若讀者及用戶發現有內容出現「真實性、立場及版權」等問題,請聯絡我們:info@waikeung.net論壇有權刪除任何言論(刪除前或不會作事先警告及通知)| SiteMap[網站地圖]

發表新帖 返回頂部