WK綜合論壇, WK综合论坛

查看:57 回復:0 發表於 2021-1-7 10:12:25
本主題由 212love 於 6 天前 刪除回復
累計簽到:2124 天
連續簽到:1 天
發表於 2021-1-7 10:12:25 | 顯示全部樓層 |閱讀模式
VIP精品區,資源無限好賺金任務區,輕松賺金幣
加入VIP,享受高級特權宣傳賺金又升級,超級棒

然后我們跳了舞 And.Then.We.Danced., 2019.[MKV / 13.89G] [複製鏈接]

影視分享
分類: 電影
題材: 劇情 同性 
地區: 法國 其它 
語言: 其他 
格式: MKV 
年份: 2019
資源: BT资源
1.jpg
( Q3 t5 @, O: Q3 S3 Z6 W6 u9 \0 y  S; E  X
◎译  名 然后我们跳了舞/And Then We Danced/以你的舞步撩动我(港)
- R) T* R$ @1 m. s% U◎片  名 ?? ???? ????????
# L. ]4 ]7 a; Z& P+ M& R◎年  代 2019
& B+ `4 C! G$ F( R3 I' S3 N& _◎产  地 瑞典,格鲁吉亚,法国0 B2 I' d) A9 n$ n; \+ x+ ^
◎类  别 剧情 / 同性' ^7 X7 I# r. X  _7 @
◎语  言 格鲁吉亚语
+ E4 d  y7 p" A6 i◎上映日期 2019-05-16(戛纳电影节) / 2019-08-18(中国香港夏日国际电影节) / 2019-09-13(瑞典)/ Q2 I# J, n$ h& X2 O- E# O+ k
◎IMDb评分 7.8/10 from 8977 users, h- Z6 @+ f+ o
◎IMDb链接 https://www.imdb.com/title/tt8963708/
% q- e9 [1 M3 w# Y, o' A# z* ^: w  y◎豆瓣评分 7.9/10 from 8520 users
; ^6 k: W: A; i% h◎豆瓣链接 https://movie.douban.com/subject/30394484/
( l( l1 V. ~4 r◎片  长 105分钟
5 ^4 a4 _/ e* F◎导  演 列万·阿金 Levan Akin% X2 f4 l. @6 y. M0 A) S4 ~2 k( N
◎编  剧 列万·阿金 Levan Akin
. o( X, P  F" Y  @/ {! n2 o◎主  演 列文·格尔巴赫亚尼 ????? ??????????
3 E0 b3 H. l/ Q5 e' T1 V) Y) q      巴奇·瓦利什维利 ???? ?????????
6 `0 ]8 n- e4 }% i0 b+ J, b      安娜·贾瓦基什维利 Ana Javakishvili
  i& `, ]6 ?: Y: M5 E% }      格奥尔基·采列捷利 Giorgi Tsereteli0 ^- c4 a- H" }- t9 ]
      塔马尔·布赫尼卡什维利 Tamar Bukhnikashvili
; i: T" s, D5 E& Y$ ?2 u      玛丽卡·戈吉查什维利 Marika Gogichaishvili
% x  Y! d; |# C& N5 ^' j) n      卡卡·戈吉泽 Kakha Gogidze6 V; c9 i% a9 k3 E% l
      莱万·加布拉瓦 Levan Gabrava
) \' l& |6 E+ W9 E      安娜·马克哈泽 Ana Makharadze
* t7 ?& p2 n4 p* Y* s& s, A0 `      尼诺·加比索尼亚 Nino Gabisonia/ Z' Y7 g$ k3 j( B' ?$ b0 \) }
      马特·基沙德利 Mate Khidasheli
7 q' \, F0 O# ]) x      阿莱科·贝加里什维利 Aleko Begalishvili2 A: i# a& u. I+ k( Q# R# h
      沙巴·阿巴希泽 Saba Abashidze
4 I6 y( L$ R+ _+ z/ T6 U# a      索索·阿布拉米什维利 Soso Abramishvili
- w7 ~2 R: y) U/ M      戴维特·阿布拉泽 Davit Abuladze- z! a! i# ~4 M" f) t( U

& w/ V0 ]2 E+ b# K0 K- O, m3 |◎标  签 同性 | 格鲁吉亚 | 舞蹈 | 爱情 | 瑞典 | 2019 | 剧情 | 文艺
2 l; [9 n8 I7 b+ X! ?8 a/ b7 Y5 A8 M3 r
◎简  介
: m8 D  e0 y- d$ b# @9 ^+ m$ {4 W9 G2 d6 K5 `/ h3 I" f4 A' G
  梅拉布从小就在格鲁吉亚国家舞团与他的舞伴玛丽一起训练。当富有魅力、无忧无虑的伊拉克利到来后,他不仅遇到了最强大的对手,也触发了内心的欲望,世界就这样突然颠倒。可在这种保守的环境中,梅拉布发现自己必须挣脱束缚寻求冒险。' a* K* r/ W4 `/ l; o
6 D# X: T+ k& f, }0 A9 t
◎获奖情况
- F% q* M  h# W% ?& ]) v" S9 ]: T* S* U" c; s5 ]
  第72届戛纳电影节 ?(2019)
# B! E( h0 ]5 Y& u# |$ R  K5 @  导演双周单元(提名) 列万·阿金
5 B4 T; t5 y$ Q# n: @6 M  同志金棕榈奖(提名) 列万·阿金# U8 X4 C* X0 c; m  A
  
* P8 v& o& w' W" q8 U7 v$ }, R  第32届欧洲电影奖 ?(2019)* i; O5 O& v) I$ f0 S) ^3 u
  最佳男主角(提名) 列文·格尔巴赫亚尼' e: b0 S4 ?$ ?; |. X! Z1 w
  ( ]9 Z, |1 y; \9 T
  第7届豆瓣电影年度榜单 ?(2020)
1 K2 U9 _" l# p$ ^  年度LGBT电影(提名)
/ y% L' `* u2 yVideo+ U. X+ f3 s% @
ID : 1
" s1 K" b) b1 J0 T8 HFormat : AVC
2 D4 O7 W, C3 U: M4 Q0 `- ]9 N: `Format/Info : Advanced Video Codec
5 b' K7 b& U3 t, G- n* DFormat profile : [email protected]
5 q* ^! r6 k4 \/ t1 h; ?% ^7 jFormat settings : CABAC / 4 Ref Frames& M  u- X5 |4 D: R/ ]6 M# Q
Format settings, CABAC : Yes- `3 }* }. S/ O+ M2 G
Format settings, Reference frames : 4 frames
2 ^  Z' j& n; u4 E. ?9 s. h& iCodec ID : V_MPEG4/ISO/AVC
& B6 N  P& E5 i0 c; nDuration : 1 h 53 min0 {- S3 H2 d2 d1 w0 {* s3 K) D2 o0 m
Bit rate : 16.1 Mb/s* {7 R( |" S" L# x+ ^$ s
Width : 1 920 pixels$ \* `# w2 n, A: J3 t- s( ?- n
Height : 1 080 pixels
0 \7 n# w2 |; N* G  B6 w) `3 yDisplay aspect ratio : 16:9
: \; f) V7 M2 UFrame rate mode : Constant$ N, U" C) e3 t/ ]* k# v5 ~
Frame rate : 23.976 (24000/1001/189150) FPS* G/ n' W- L; q2 c' g  t7 E
Color space : YUV
# s' M  P3 J8 j% s+ M- L8 vChroma subsampling : 4:2:00 ^7 _& J9 g0 U7 [$ B  X
Bit depth : 8 bits
' @9 d2 F* |/ `Scan type : Progressive
3 J" u8 ]% }  eBits/(Pixel*Frame) : 0.323& ~- s" S4 P8 W' X2 g8 w
Stream size : 12.7 GiB (91%)
* P; o( v8 K. Q2 N/ G0 B: N3 B. SWriting library : x264 core 161 r3018+53 18a1d6c t_mod_New [(8 & 10)[email protected] X86_64]
5 o, Z4 t( V  ?  x7 @- I1 i- f" {Encoding settings : cabac=1 / ref=4 / deblock=1:-3:-3 / analyse=0x3:0x133 / me=umh / subme=11 / psy=1 / fade_compensate=0.00 / psy_rd=1.00:0.00 / mixed_ref=1 / me_range=48 / chroma_me=1 / trellis=2 / 8x8dct=1 / cqm=0 / deadzone=21,11 / fast_pskip=0 / chroma_qp_offset=-3 / threads=9 / lookahead_threads=2 / sliced_threads=0 / nr=0 / decimate=0 / interlaced=0 / bluray_compat=0 / constrained_intra=0 / fgo=0 / bframes=11 / b_pyramid=2 / b_adapt=2 / b_bias=0 / direct=3 / weightb=1 / open_gop=0 / weightp=2 / keyint=240 / keyint_min=1 / scenecut=40 / intra_refresh=0 / rc_lookahead=72 / rc=crf / mbtree=0 / crf=19.0000 / qcomp=0.65 / qpmin=0:0:0 / qpmax=69:69:69 / qpstep=4 / vbv_maxrate=62500 / vbv_bufsize=78125 / crf_max=0.0 / nal_hrd=none / filler=0 / ip_ratio=1.40 / pb_ratio=1.30 / aq=3:0.70 / aq-sensitivity=10.00 / aq-factor=1.00:1.00:1.00 / aq2=0 / aq3=05 q/ B9 Q% v# J7 x: _$ G* c2 \
Default : Yes: E( j/ ~; H; u$ R
Forced : No
& Q8 _) i, g- O9 o- J6 E( r) I' ]! j
Audio* X- b9 }; [& n/ L9 Q5 L
ID : 2
- t+ o4 Y7 e# I' A5 e9 Z7 OFormat : DTS# C/ p4 r1 X* z! ]0 p# ?& C
Format/Info : Digital Theater Systems  b$ R; [& i3 C( L9 i  H# y
Codec ID : A_DTS
5 o0 Z, \5 A4 H. SDuration : 1 h 53 min0 G% M% R/ A' _
Bit rate mode : Constant
. D8 h! b' ]6 M) W! g/ lBit rate : 1 509 kb/s
& b1 O! Z% _" \9 {6 UChannel(s) : 2 channels
* Q2 N5 N% O; T3 r* K$ K  K- x4 VChannel layout : L R
2 w! i$ q. A- e* `5 h( pSampling rate : 48.0 kHz
3 C8 n# h* g  \( WFrame rate : 93.750 FPS (512 SPF): V0 e$ ^( u2 ~3 ~0 b& g8 @$ l+ T
Bit depth : 24 bits
1 g/ h) P1 q$ g$ g8 Z" H, hCompression mode : Lossy
1 s+ R1 r8 K; U; k$ T1 \Stream size : 1.19 GiB (9%)
+ m# M) h# A  d! H. dLanguage : English
3 I2 |( {* B, O' Y1 PDefault : Yes
# b9 W5 m7 q4 y( i4 p, w# hForced : No$ J; _5 {  S; U0 n5 X
' X/ }0 C( b. s' o* X- Q
Text #1# _$ n! [+ }* R6 m  @& |- {
ID : 36 [% @2 [- H4 N) W6 n
Format : UTF-8
1 B! b( O" R/ P% I0 C' g: HCodec ID : S_TEXT/UTF8
4 |, l+ E2 _$ K2 b$ |Codec ID/Info : UTF-8 Plain Text
: ~. ~9 h1 A# H' q& {Duration : 1 h 45 min& R8 j" g$ e7 q
Bit rate : 30 b/s
9 B5 [' R* _" z, x& R& TCount of elements : 1057
, k1 p3 C9 M% j6 j3 uStream size : 23.9 KiB (0%)4 s! p2 Q0 _% K6 c' @% a
Title : SRT/ u# N4 f3 o# q+ o/ V
Language : English6 T. B1 i% a9 a- C6 v
Default : Yes
: H  u! i6 e2 i* v  x. ~3 u6 wForced : No" U* v3 G8 n8 Q0 Y" b
- a  h; G8 T% x2 v5 o4 i+ |
Text #2; c7 `3 [" [' Y: ^! n( A% t- y
ID : 4
: j4 a2 S1 Z# h2 lFormat : ASS
: J( S( c& ?6 HCodec ID : S_TEXT/ASS
4 d+ P, o( R; @1 y6 f$ L8 GCodec ID/Info : Advanced Sub Station Alpha
, n: @9 {: \! q: Z9 Y% `Duration : 1 h 45 min
" X; `$ R$ r6 JBit rate : 98 b/s
; L, f& C, l# p" WCount of elements : 1057' {( o9 K1 l; _+ _. f. k* y; e0 ^
Compression mode : Lossless
& m  {5 K. {5 T! M5 ?* k" xStream size : 76.4 KiB (0%)
! O; v. P$ h  }, ~; K* g- l% x2 xTitle : chs&eng
: O# L; q# L% g* Y3 Z) Z4 k8 wLanguage : Chinese. I; D& b/ T! `( C. f
Default : No
* n/ j, [- o) {Forced : No
+ b  ?8 x; V2 `8 m$ |! X* K/ _( I7 t4 k$ d
Text #3
! [/ _! V: Q3 ?+ G" {ID : 5* Z2 k% p, c8 v* {7 G
Format : ASS$ R/ ]  t  h+ I! k" o# V$ V
Codec ID : S_TEXT/ASS  i6 S7 m& v* X3 l) f3 ]7 [( \
Codec ID/Info : Advanced Sub Station Alpha+ o8 X% y) b, C8 n$ F
Duration : 1 h 45 min0 h- T* Y+ B7 {9 r' }$ z6 C
Bit rate : 98 b/s' u' d$ Q: `7 p( [
Count of elements : 1057
( \4 t  T( J- r5 E4 B0 nCompression mode : Lossless
5 J9 Q2 n* d' ]Stream size : 76.4 KiB (0%)
% X' g9 I7 r' }9 ?  v& [! X1 OTitle : cht&eng" l5 k; W& w% |3 S0 x( ^, U$ s
Language : Chinese2 S% {- I3 P/ N( Q5 e7 e* z3 A
Default : No/ i- I* f3 [2 V, y0 J& f1 l
Forced : No
+ F& U9 g5 V! D$ }! z& e* L5 z  A  c) X
Text #4% @$ j* @& A3 f5 ~4 z- j6 a7 [
ID : 66 o4 j" M% m8 Z9 B
Format : ASS
/ R6 `! `/ f6 c/ UCodec ID : S_TEXT/ASS
4 F. J' g1 W9 ~# g# o2 z5 ~Codec ID/Info : Advanced Sub Station Alpha( `5 Q, E! x- C& x7 m
Duration : 1 h 45 min1 g; k9 T( p3 l6 ]* b
Bit rate : 56 b/s* B7 p9 b5 d! [4 p6 `
Count of elements : 10577 `% }3 b6 D" p0 P/ t
Compression mode : Lossless
4 ~2 Z3 Z2 ?* [1 p5 q" v4 ~% W5 XStream size : 43.8 KiB (0%)  O; P+ ]* A+ t0 }/ L8 v
Title : chs) N' G6 k+ ?1 E. w  {  x
Language : Chinese
" u# U9 i# b0 ~4 O4 b: gDefault : No
9 A7 g: w7 j' n( HForced : No
' g9 O6 q) G! k8 O. Z: H  S% m
* B+ w( |3 W# |Text #5  d: j7 C0 Y6 T; `
ID : 7
0 v, G. V8 h6 \8 eFormat : ASS
5 j7 i( l% f! x, QCodec ID : S_TEXT/ASS% P2 i) _, t: X: [# ~6 I
Codec ID/Info : Advanced Sub Station Alpha
& \  ^, w; Y% F4 K3 Q/ I3 `Duration : 1 h 45 min1 |  x" C& j' e: R+ ^+ D
Bit rate : 56 b/s. {9 ^% h" s4 z& Z' g- B5 Z
Count of elements : 10576 A" V8 U5 @" f5 l1 n
Compression mode : Lossless
9 S. q& S8 M; r% e+ _Stream size : 43.8 KiB (0%), G- w( F$ m( @2 q
Title : cht- N9 e0 X+ ~  F$ @! Q3 X; E3 E, F
Language : Chinese
7 F9 a, A5 o: z4 W1 WDefault : No# v7 W, r! s/ U' A. b
Forced : No
/ Z7 S* d* C; e# i. o" d  v
& q( Z0 R1 _5 v, Y, o% DText #6
; A2 U$ Q. o$ r- B; ?3 }: ~ID : 8# n9 t, I! a1 d# W* n! z2 \
Format : ASS# I9 h) I3 b3 @
Codec ID : S_TEXT/ASS1 ?- i+ J% b9 Z! Z! p
Codec ID/Info : Advanced Sub Station Alpha
6 x5 \) c- U5 j- z+ j! P( c; HDuration : 1 h 45 min0 y% N% u  Z8 l9 p- b
Bit rate : 60 b/s* u& S9 H) s; l( `% ?" C
Count of elements : 1057- I3 o7 n) i! J7 A9 o5 W
Compression mode : Lossless# J+ M' K4 f( o( _9 W. q2 o
Stream size : 46.5 KiB (0%)1 F6 @2 R* P2 I5 X$ S
Language : English$ Y- p# P% Y1 \* q- s
Default : No
0 c9 J; {; A( x4 D. kForced : No
6 x1 k  b; L% |3 `& p
1 N4 B2 S: M+ oMenu
2 ?+ A+ @' F5 {* Q5 \: n2 w00:00:00.000 : en:Chapter 016 B1 X; h! a$ b$ X
00:08:38.518 : en:Chapter 02
4 O! ?$ k( p# u2 B00:18:09.171 : en:Chapter 03
8 e$ m# }3 I4 ?5 ~1 m4 J( }# r00:27:19.429 : en:Chapter 04
" v7 @9 L& j& ?! ?! I; J00:36:16.883 : en:Chapter 051 o' I/ A: T, B+ Q+ O
00:44:40.803 : en:Chapter 06, Y+ [9 Y" b, Q
00:53:42.511 : en:Chapter 07
0 w" m' A( f, |9 p2 z01:01:08.999 : en:Chapter 082 @+ r! h) H( {# H* M9 g. F
01:09:15.610 : en:Chapter 09
# K6 d6 [5 W4 t4 K- e01:15:58.554 : en:Chapter 10
0 o* N0 r  d/ U8 ^- r3 R! U01:26:11.833 : en:Chapter 11
1 E, c- s) A: S! j6 G- {: B4 l01:35:22.050 : en:Chapter 12
, E- u% q! g4 H9 E5 g! V1 a01:46:52.573 : en:Chapter 13
5 Y: B1 A$ ]. {4 i5 Y

% `( d, d6 T9 ^9 p. f1 [( ]2 g
* U& v, S! D3 m; G$ x1 s& U4 E

然后我們跳了舞. MKV.torrent

69.97 KB, 下載次數: 3

回復樓主 親!! 現在是後半夜!妳失眠啦?餓啦?通宵加班?還是想WK啦?

 分享同時學會感恩,一句感謝的話語,就是最大的支持!  歡迎交流討論
您需要登錄後才可以回帖 登錄 | 立即注册

本版積分規則

c重要聲明:本論壇是以即時上載言論的方式運作,WK論壇對所有言論的真實性、立場及版權等,不負任何法律責任。而一切言論只代表發佈者個人意見,並非本網站之立場,讀者及用戶務必自行判斷內容之真實性。 由於本論壇受到「即時上載言論」運作方式所規限,故不能完全監察所有言論,若讀者及用戶發現有內容出現「真實性、立場及版權」等問題,請聯絡我們:[email protected]論壇有權刪除任何言論(刪除前或不會作事先警告及通知)| SiteMap[網站地圖]

發表新帖 返回頂部