WK綜合論壇, WK综合论坛

查看:387963 回復:33 發表於 2016-10-15 09:03:03
累計簽到︰1914 天
連續簽到︰2 天
發表於 2016-10-12 18:58:49 | 顯示全部樓層 |閱讀模式
VIP精品區,資源無限好賺金任務區,輕松賺金幣
加入VIP,享受高級特權宣傳賺金又升級,超級棒

神奇隊長 Captain.Fantastic, 2016.[MKV / 3.48GB]   [複製鏈接]

影視分享
分類: 電影
題材: 愛情 劇情 喜劇 
地區: 美國 
語言: 英语 
格式: MKV 
年份: 2016
資源: BT资源

3 a% Q3 J$ ~8 J1 y7 k0 r$ t5 s3 |# q$ o
◎译  名 神奇队长
7 @7 u( B" p: I: s* W◎片  名 Captain Fantastic
# k  E  q3 a5 T" @◎年  代 2016& j1 b+ @7 @/ g  s& Q
◎国  家 美国4 S" P& \0 a3 h% H- d1 q4 l6 Y" r
◎类  别 剧情/喜剧/爱情  L* x! n" r6 L! q/ p5 U
◎语  言 英语( ?+ t5 f6 m. ^- F! y
◎上映日期 2016-01-23(圣丹斯电影节)/2016-07-08(美国)
0 t' N$ w2 c; W2 l◎IMDb评分  8.1/10 from 9,480 users2 {: z! C; ]  u, q. J8 d
◎IMDb链接  http://www.imdb.com/title/tt3553976/3 g/ H7 y# Z5 w3 y9 h6 B7 X! `
◎豆瓣评分 7.9/10 from 243 users; Y' Y  m+ S$ Z
◎豆瓣链接 https://movie.douban.com/subject/25834735/5 `& ]1 V6 w3 y% W1 f5 a
◎片  长 118分钟
+ s% u+ _- N) Z; g+ i( c◎导  演 马特·罗斯 Matt Ross0 _9 K/ Q. a/ \, x+ z
◎主  演 维果·莫腾森 / 乔治·麦凯 / 安娜丽丝·巴索 / 弗兰克·兰格拉 / 史蒂夫·茨恩 / 凯瑟琳·哈恩 / 米西·派勒 / 艾琳·莫里亚蒂 / 萨曼莎·伊斯莱尔+ p1 M; K* K# Z8 r
◎简  介
5 c+ c" E: U# |* R. e( m( Y4 W8 j  在太平洋西北部的森林深处,与世隔绝,一位慈爱的父亲全心全意地试图将自己六个年幼的孩子培养成出色的成年人。但当灾难降临,他们被迫离开了自己创建的天堂,开始走向外面的世界。这不仅挑战了他对“家长“这个角色的理解,也让孩子们开始怀疑父亲所教给他们的一切。1 l  q* t8 j1 V/ J) G
Video# n8 j8 j5 o9 D
ID                                       : 17 @4 ^% d) @. }8 a' ?+ G
Format                                   : AVC
& P( q0 Q, i* q$ C" N; `Format/Info                              : Advanced VideoCodec
. x) A, N$ d. Y5 qFormat profile                           : High@L4
( ^! x0 N/ ?" O: V+ d$ c8 b! fFormat settings, CABAC                   : Yes; f9 p  r  j' i4 j
Format settings, ReFrames                : 5 frames
7 `. i. a3 I4 t5 I( T0 LCodec ID                                 :V_MPEG4/ISO/AVC
* P/ h: \1 k2 {  t! |% t! YDuration                                 : 1h 59mn$ k0 M! e$ X/ h& }% K
Bit rate                                 : 4 424 Kbps8 C" ]6 p; a6 G. [2 H- D
Width                                    : 1 916 pixels7 ]! o$ B4 T9 W$ v  ?$ `, [& V1 m6 P' n
Height                                   : 792 pixels$ m* w$ e/ R; K% \. f1 V( \6 l- Z3 o
Display aspect ratio                     : 2.40:1
9 y' u! x( l! {( E8 r: sFrame rate mode                          : Constant
# _8 t; m1 p' Y* C0 L' uFrame rate                               : 23.976 fps1 A$ ^3 w! c! T$ e& _
Color space                              : YUV
1 {; {" O8 B# M+ DChroma subsampling                       : 4:2:0
( B  D8 O# y$ d/ GBit depth                                : 8 bits: H5 W: V% E" B8 o+ f- U  d% O2 W
Scan type                                : Progressive
. A' D# m' G# d) ~. Z  IBits/(Pixel*Frame)                       : 0.122
8 X. `; u$ Q8 L6 ?" q; Q* X" P' rStream size                              : 3.69 GiB (90%)
( l; a* T4 o7 h% m8 hTitle                                    :Captain.Fantastic.2016.1080p.WEB-DL.DD5.1.H264-FGT
8 e1 y1 b. Z% Y4 t' vLanguage                                 : English5 Y( |1 f* R$ W3 s- M
Default                                  : Yes& e. ]& ^% X& ]3 x' L/ E1 A
Forced                                   : No
) M0 F9 M9 F  f& u3 H- aColor range                              : Limited
: }  i: y. \, z+ \2 MColor primaries                          : BT.709
. o. \9 q" i* d) FTransfer characteristics                 : BT.709" b5 ^0 I& T  O8 V& G+ K! a; _
Matrix coefficients                      : BT.709
/ R5 t* M3 [5 s; Z) K, ?& BAudio& X* k9 a8 E% `! q( }* y* @2 I
ID                                       : 2
- ~5 v  |% K2 }) yFormat                                   : AC-3  k" A! e4 q/ |( \- C2 A
Format/Info                              : Audio Coding 31 u$ I) m! j2 g. x9 U0 v& |2 }6 D
Mode extension                           : CM (complete main): \8 |5 A. |$ K' L0 z0 p
Format settings, Endianness              : Big
6 F5 O# e9 l- z7 p2 T, z0 u; |Codec ID                                 : A_AC32 A3 S: {# |7 M3 S/ i
Duration                                 : 1h 59mn% h9 Y. x8 M3 R$ T5 G2 V7 e
Bit rate mode                            : Constant. A+ D- I, y5 f
Bit rate                                 : 384 Kbps0 r' p5 [% b0 u% W2 o& z+ ]
Channel(s)                               : 6 channels
' G# @6 \# @9 qChannel positions                        : Front: L C R, Side: LR, LFE
! W% Q1 X: Z6 a1 I. bSampling rate                            : 48.0 KHz9 S5 M" O* T& u$ p! W7 X5 E
Frame rate                               : 31.250 fps(1536 spf)
+ _  [3 y: e% X' r7 wCompression mode                         : Lossy* c$ Z& E4 N' O
Stream size                              : 328 MiB (8%)3 H0 u& @3 n. @+ I6 q6 v/ }. |
Title                                    :Captain.Fantastic.2016.1080p.WEB-DL.DD5.1.H264-FGT
2 [  c* f! Z2 ULanguage                                 : English
3 H( |' F/ n) Y! o' l7 ~Default                                  : Yes! n, R2 E) l/ _8 Q
Forced                                   : No( h0 P6 b0 q7 z. N
Text, @( G( @2 L3 T. S
ID                                       : 3
# q8 }& b- v' B7 F+ H# e* VFormat                                   : UTF-89 L! k4 X. H8 P; |
Codec ID                                 : S_TEXT/UTF8- P0 Y0 o& I- f6 t$ x) ]1 u
Codec ID/Info                            : UTF-8 Plain Text9 E; B* Y5 ^1 y% v: q3 S& p) z+ u( U
Language                                 : English. `8 e  \; }% y
Default                                  : Yes3 a# }+ q5 t7 _: z& T
Forced                                   : No
) R) P) ?9 n8 `* ~; eMenu
+ Z6 X% @; O) c/ |" x00:00:00.000                             : en:1
6 e1 \% ~$ I9 h- {$ m# n00:05:15.000                             : en:2
6 T; k% |) L4 F00:11:13.000                             : en:3# Y0 J8 \4 c  `5 Q
00:17:35.000                             : en:4
  D: |. L( g/ D00:25:21.000                             : en:5" T8 m7 t# d/ ~, P
00:31:38.000                             : en:6+ g! o5 q: p+ z3 B0 b
00:37:42.000                             : en:7
# `5 v5 X6 E/ |) m7 e00:40:26.000                             : en:8, r: R3 d( M9 o& }
00:46:11.000                             : en:9
3 f6 h  R0 S) S6 n00:54:04.000                             : en:100 G, A) \' I7 @4 I7 _& C: p
00:59:35.000                             : en:11
! l0 a9 h4 q. W7 G, [01:08:22.000                             : en:12
% q$ Y2 e' D5 X$ ]6 K4 o. c01:14:09.000                             : en:13
3 Q- ?& A3 }; Y" B' c- a: e01:20:19.000                             : en:14
* L3 p0 Q( q! g) X2 s: m% _8 z01:24:31.000                             : en:153 |/ R0 o4 c! R: `% q, ]5 z
01:30:20.000                             : en:16! h% C2 R! ]! J7 X5 n8 @' c7 y
01:36:53.000                             : en:17# i/ _1 C; r" i3 O0 [
01:43:04.000                             : en:18; @, Y  r3 F- y5 X" y; G
01:48:24.000                             : en:19
6 }! \+ A$ i" g2 [7 D& _, H01:52:48.000                             : en:20
& ]" L1 M; Y6 p

& x# j7 h7 a( D1 D! S, C 神奇隊長. MKV.torrent (70.13 KB, 下載次數: 8355)

尚未簽到

發表於 2016-10-12 18:59:49 | 顯示全部樓層
VIP精品區,資源無限好賺金任務區,輕松賺金幣
加入VIP,享受高級特權宣傳賺金又升級,超級棒
精妙絕倫的精品,感謝啊!期待你更多更好的創作哦!

尚未簽到

發表於 2016-10-13 06:15:20 | 顯示全部樓層
偶像^^小生一直都在關注你的原創!小生對你之仰慕如滔滔江水連綿不絕!

尚未簽到

發表於 2016-10-13 12:49:08 | 顯示全部樓層
精妙絕倫的精品,感謝啊!期待你更多更好的創作哦!

尚未簽到

發表於 2016-10-14 01:03:40 來自手機 | 顯示全部樓層
偶像^^小生一直都在關注你的原創!小生對你之仰慕如滔滔江水連綿不絕!

尚未簽到

發表於 2016-10-14 14:24:59 | 顯示全部樓層
精妙絕倫的精品,感謝啊!期待你更多更好的創作哦!

尚未簽到

發表於 2016-10-14 16:18:19 | 顯示全部樓層
偶像^^小生一直都在關注你的原創!小生對你之仰慕如滔滔江水連綿不絕!

尚未簽到

發表於 2016-10-14 19:15:03 | 顯示全部樓層
精妙絕倫的精品,感謝啊!期待你更多更好的創作哦!

尚未簽到

發表於 2016-10-14 23:25:21 | 顯示全部樓層
偶像^^小生一直都在關注你的原創!小生對你之仰慕如滔滔江水連綿不絕!
累計簽到︰1 天
連續簽到︰1 天
發表於 2016-10-15 09:03:03 | 顯示全部樓層
精妙絕倫的精品,感謝啊!期待你更多更好的創作哦!

回復樓主 親!! 早上好! 心底有WK、心情就會飛翔,心中要個希望、笑容就會清爽!

 分享同時學會感恩,一句感謝的話語,就是最大的支持!  歡迎交流討論
您需要登錄後才可以回帖 登錄 | 立即注册

本版積分規則

c重要聲明:本論壇是以即時上載言論的方式運作,WK論壇對所有言論的真實性、立場及版權等,不負任何法律責任。而一切言論只代表發佈者個人意見,並非本網站之立場,讀者及用戶務必自行判斷內容之真實性。 由於本論壇受到「即時上載言論」運作方式所規限,故不能完全監察所有言論,若讀者及用戶發現有內容出現「真實性、立場及版權」等問題,請聯絡我們:info@waikeung.net論壇有權刪除任何言論(刪除前或不會作事先警告及通知)| SiteMap[網站地圖]

發表新帖 返回頂部