WK綜合論壇, WK综合论坛

查看:28768 回復:25 發表於 2017-5-21 17:40:15
本主題由 212love 於 2017-5-21 09:58 解除高亮
累計簽到︰1133 天
連續簽到︰9 天
發表於 2017-5-19 23:03:07 | 顯示全部樓層 |閱讀模式

美女與野獸 Beauty.and.the.Beast, 2017.[MKV / 4.12G] 内含中字幕 [複製鏈接]

影視分享
分類: 電影
題材: 愛情 
地區: 美國 
語言: 英语 
格式: MKV 
年份: 2017
資源: BT资源
& p& z5 m' A) [3 l$ W0 U% }
◎译  名 美女与野兽
& d* A6 [# f- u" W
- V/ z1 r9 Z. P' ]" o, p" i! k; n◎片  名 Beauty and the Beast4 a- C6 C$ Y! V2 }) M* o: x3 I
- b, T! n% O# s5 k1 {, @$ B7 p5 V
◎年  代 2017
7 c, g2 q4 |. O: s+ S8 K& ]+ {0 d1 c  W  L0 e: T
◎产  地 美国
. H- _' L0 r; H4 J  o: E7 g' f$ }7 [5 ]
◎类  别 爱情/奇幻/歌舞
& x0 G! n4 ]7 C  e* b& Y
5 u# a+ T1 Z. J◎语  言 英语
; [- n6 E7 Z% P: ], B* S1 F, e: m, m
◎上映日期 2017-03-17(中国大陆)/2017-03-17(美国), @, u4 M- j* v' U: Y, n
- \6 K' H, ]5 ^, S4 }, v" ?, N' E
◎IMDb评分  7.7/10 from 99,319 users# _2 w, H) t. E/ p8 I* }! k
) {+ Q. c! h; Y* T
◎IMDb链接  http://www.imdb.com/title/tt2771200/
/ d& a/ D( ]. F% w/ w) @- g. k6 W8 }( A9 F+ @2 K
◎豆瓣评分 7.4/10 from 112,850 users8 K; ?  n6 b) P
2 m7 Y( F: z- v& r* v4 C4 ~+ g$ O
◎豆瓣链接 https://movie.douban.com/subject/25900945/$ m$ Z- R2 p- U! z& h

( ^* k* D% M7 U8 v  q4 Q8 t◎BT之家整理 http://www.btbtt.co
: v$ d! i; t8 e+ s
- _2 [' |' B' v. x# I9 L% e; |6 }◎片  长 130分钟
0 h7 {4 {) I6 X; j
( R* \# W2 {8 [$ `# _# T0 R2 N◎导  演 比尔·康顿 Bill Condon
, H" l8 B& B) p. V& G- R; m/ j+ Z* Q
◎主  演 艾玛·沃森 Emma Watson( \4 b, y4 A, m7 V) E

  g; L" j) O3 o" q0 S& L1 r% P9 N      丹·史蒂文斯 Dan Stevens
2 e  [7 Z# B4 U0 j: v8 F/ V
2 u8 R( x3 V1 V& L" Z) N: H      卢克·伊万斯 Luke Evans, Q( m$ o3 @* [" A3 o  H

6 t8 ?8 w: k( h% j! M* b6 Z      凯文·克莱恩 Kevin Kline
3 P% ]9 N1 Z; t: K( T/ K3 e  }" f( ?- P2 A% z
      乔什·盖德 Josh Gad
; B( }2 p% C( K6 m, h
4 N. \2 n3 e4 S. z# F2 T' p      伊万·麦克格雷格 Ewan McGregor, R. g3 i" o8 W# i
. C4 R, F0 o1 z( }
      伊恩·麦克莱恩 Ian McKellen
1 \/ w/ J8 H9 A9 N4 `6 g2 r5 `0 m, u5 n$ S( G' T, C' ?4 A
      艾玛·汤普森 Emma Thompson' w8 t' F; S7 J

" j% x( l2 D* h9 f; C! |: ~      斯坦利·图齐 Stanley Tucci( F9 T! ^# `9 Y
; h6 {3 G) [/ q$ n* c9 h( F9 S4 @
      古古·姆巴塔-劳 Gugu Mbatha-Raw
& ^6 X" {6 R6 ^. K% s
; t/ k3 E3 e# p5 [0 T$ ^      奥德拉·麦当娜 Audra McDonald0 b1 Z9 N1 y# T; M) }5 p& R

5 b4 U5 d( o, o- ?  R      内森·麦克 Nathan Mack
$ ~1 }. w( s0 z2 y, P3 U* `
: q/ }8 }  u/ Q/ @3 G, N      哈蒂·莫拉汉 Hattie Morahan% h8 ?/ m- f+ S/ _
2 Q6 V. w. U9 S. g5 c
      迈克尔·吉普森 Michael Jibson) B% O- [  P6 E! F/ G- u, b& K

9 x- N8 g! a; U$ F2 e3 p      水野索诺娅 Sonoya Mizuno
, t  x2 ]5 u- P- X1 j- F# O  I: E& I5 ~/ I% ~
      亨利·加勒特 Henry Garrett+ M4 r$ P- D) J5 H) a0 e- O
9 T3 e; o0 n$ X( n9 [. a
      戴尔·布兰斯顿 Dale Branston2 a' Z/ d) t  a- c5 Q
  E1 p8 `) ?! i' y  i

. A& C8 k- M; [' ~1 q8 Q0 J# |$ l6 h, d; y2 U$ E

3 a. Q& o' z/ N* y( O" c% X◎简  介
$ A) L* C( Z8 ], P  n2 g
8 c$ `# T" o8 t  P# L, }, d: _6 \; n8 R$ d! e' w4 Z; Z

" |% W1 N/ m* c+ D8 L1 l4 M$ J( c/ y0 S& V
  贝儿(艾玛·沃森 Emma Watson 饰)和小镇上的其他女孩不同,是一个热爱阅读和幻想的姑娘,孔武有力英俊强壮的加斯顿(卢克·伊万斯 Luke Evans 饰)发誓要娶贝儿为妻,但贝儿却一眼看穿了他的自私和虚伪,拒不从命。某日,贝儿的父亲莫里斯(凯文·克莱恩 Kevin Kline 饰)迷路误打误撞之下来到了一座荒凉破败的城堡中,那里居住着样貌可怖半人半兽的野兽(丹·史蒂文斯 Dan Stevens 饰)。# {- r. v" |9 ^/ s4 R+ Y/ P

. m4 ^# s4 Y4 g* ^; y) C1 q2 v- Q  因为偷摘了城堡里种植的玫瑰,莫里斯被野兽囚禁了起来,得知此消息的贝儿赶到城堡,要求和父亲作交换。就这样,贝儿开始了和野兽的同居生活。在会说话的茶壶太太(艾玛·汤普森 Emma Thompson 饰)、烛台卢米亚(伊万·麦克格雷格 Ewan McGregor 饰)和时钟葛士华(伊恩·麦克莱恩 Ian McKellen 饰)的照顾和帮助下,贝儿渐渐发现,野兽在丑陋的外表下,隐藏了一颗善良温柔的心。实际上,野兽的真实身份是一位王子,因受到了女巫的诅咒而沦落至此,而贝儿,是解除诅咒最后的,也是唯一的希望。# B% N. l2 p3 n9 R$ K' Z

  ~; G* j) A( ?6 s
& S5 X& U% w. u0 ~7 E# p4 r  ?" |% S3 H! ?/ X% Q5 W% J# M8 }/ G3 Z

" G4 Q. x, K  ^  \; H; x◎获奖情况1 m: x8 U; ]" R7 K* C0 r7 A2 U" C

$ }9 I; }+ }& Z" e# ~, J& F* k3 c+ W7 [9 i) g* X( l

1 U+ q6 Y3 m( Q+ O! P. ]1 r' H0 L4 T$ l
  第26届MTV电影奖  (2017)* ]( O$ {. {7 c3 `5 b! a
6 s& ~3 I: f4 l6 a' e' `( ~5 ~* N
  MTV电影奖 年度电影
8 d- e/ R) {" e  C0 u9 m5 e  f! n$ V7 M
  MTV电影奖 最佳表演 艾玛·沃森2 T+ |, i: Z1 O. K1 Q9 Z
( K$ r7 D1 x  \. I
  MTV电影奖 最佳吻戏(提名) 艾玛·沃森 / 丹·史蒂文斯
; r0 H9 b6 L5 _* K* R. y1 c, L. l; \- j
  MTV电影奖 最佳银幕组合(提名) 卢克·伊万斯 / 乔什·加德
5 W  M9 w' {( T0 `& l; p2 D; g( `1 v$ X% m- z
: {% \6 ^  v- k8 T4 N! v8 N
+ ]) r/ w7 ]$ j) V) H0 P( }

! N" `$ \- {' E2 A5 w* hVideo
2 f* P% N" G3 `7 R7 j  w, MID                                       : 1+ `6 y1 h  @& r: s, R  u  y
Format                                   : AVC$ W( c% O' [! n# v4 I
Format/Info                              : Advanced Video Codec
5 ?( p' q+ G/ K) h) sFormat profile                           : High@L4.1
  b) w1 c2 Z" ?1 xFormat settings, CABAC                   : Yes& q& _6 S9 |' `. k& p
Format settings, ReFrames                : 4 frames4 v5 M) _: |8 F# O9 p+ `% A2 |
Codec ID                                 : avc1
/ A; V7 m# E" MCodec ID/Info                            : Advanced Video Coding
2 P, }: \1 }" _! A8 |" a6 ODuration                                 : 2h 4mn
& c' u  ]! r* W) Z# eBit rate                                 : 4 500 Kbps
  N, [- W8 y4 X0 R$ SWidth                                    : 1 920 pixels1 j. Z+ x( V8 m
Height                                   : 800 pixels7 h- Y. a  A* z1 Y) |; y8 I- r3 a9 m
Display aspect ratio                     : 2.40:15 `. Z- }# u0 \# Z* p: Z" c
Frame rate mode                          : Constant
: ~4 U& E! A+ u+ M4 X  pFrame rate                               : 25.000 fps
& L% C% o  z# j2 r" t& p4 m" L/ `( HColor space                              : YUV: v; u4 p; ~& t, X
Chroma subsampling                       : 4:2:03 r: a! g& ]/ e. M- F! j9 u! o! L
Bit depth                                : 8 bits4 N7 q! \$ B. P; x( m! d" a  \
Scan type                                : Progressive3 Z# Q% v. _1 M* f
Bits/(Pixel*Frame)                       : 0.1178 p$ T+ l, o4 [: T$ d- y
Stream size                              : 3.92 GiB (95%)
! U3 v. B8 x  W8 d% QTitle                                    : Beauty.and.the.Beast.2017.1080p.HC.WEBRip.x264.AAC2.0-STUTTERSHIT4 Z5 M$ N+ F. Q
Writing library                          : x264 core 148 r2597M e86f3a12 A1 F/ R' E, q3 |+ i. p( X
Encoding settings                        : cabac=1 / ref=4 / deblock=1:0:0 / analyse=0x3:0x113 / me=umh / subme=8 / psy=1 / psy_rd=1.00:0.00 / mixed_ref=1 / me_range=16 / chroma_me=1 / trellis=1 / 8x8dct=1 / cqm=0 / deadzone=21,11 / fast_pskip=1 / chroma_qp_offset=-2 / threads=40 / lookahead_threads=6 / sliced_threads=0 / nr=0 / decimate=1 / interlaced=0 / bluray_compat=0 / constrained_intra=0 / bframes=3 / b_pyramid=2 / b_adapt=2 / b_bias=0 / direct=3 / weightb=1 / open_gop=0 / weightp=2 / keyint=250 / keyint_min=25 / scenecut=40 / intra_refresh=0 / rc_lookahead=50 / rc=abr / mbtree=1 / bitrate=4500 / ratetol=1.0 / qcomp=0.60 / qpmin=0 / qpmax=69 / qpstep=4 / ip_ratio=1.40 / aq=1:1.00
* _  P* j0 `. q  A( U* J: i% Z, ^# i
Audio
# Q) v& x* G, A4 SID                                       : 26 h7 P6 a; a. I1 ?
Format                                   : AAC
$ P5 k3 x& D$ L  CFormat/Info                              : Advanced Audio Codec
* n1 g/ ?9 F# F$ mFormat profile                           : LC
! t! D  D0 C. C9 m6 U- S# `. wCodec ID                                 : 40
$ l( y" b7 I, X! C! H  VDuration                                 : 2h 4mn) ?, a3 y6 q$ d8 r+ E
Duration_LastFrame                       : 32ms
6 r  p! e& P7 d' e- dBit rate mode                            : Constant/ M% S3 [' r5 m3 A8 ^; S2 N0 s. p
Bit rate                                 : 224 Kbps
  g. K* |; `; V+ c8 BChannel(s)                               : 2 channels! S; g+ P& j; u& x. ~
Channel positions                        : Front: L R2 s0 R  n0 W) g: }) l% ?
Sampling rate                            : 48.0 KHz
, W3 i3 W6 O* a; O: WFrame rate                               : 46.875 fps (1024 spf)
# f; G% h  I5 i" h/ p% v" BCompression mode                         : Lossy
+ m3 K0 r# _2 m" G+ {  e, z1 QStream size                              : 199 MiB (5%)# V8 s8 J" f& d3 @; P. v
Title                                    : Beauty.and.the.Beast.2017.1080p.HC.WEBRip.x264.AAC2.0-STUTTERSHIT7 \: b7 P$ ]9 G( A/ A& Q
Default                                  : Yes: r% R( i5 N9 h6 q/ @, L! E, L
Alternate group                          : 18 a# a* o/ G( f1 g5 C8 b
1.png

美女與野獸 MKV.torrent

82.99 KB, 下載次數: 1314

尚未簽到

發表於 2017-5-19 23:04:06 | 顯示全部樓層
絕對的好貼!謝謝啊!逐字逐圖地看完這個帖子以後,我的心久久不能平靜,感恩啊!

尚未簽到

發表於 2017-5-20 13:44:58 | 顯示全部樓層
這個我收藏了!謝謝分享!WK的資源越來越豐富,這少不了大大的辛勞!

尚未簽到

發表於 2017-5-20 14:47:15 來自手機 | 顯示全部樓層
偶像^^小生一直都在關注你的原創!小生對你之仰慕如滔滔江水連綿不絕!

尚未簽到

發表於 2017-5-20 16:46:51 | 顯示全部樓層
很讚的文章,謝謝咯!相信WK因為有你而更加精彩!

尚未簽到

發表於 2017-5-20 19:12:17 | 顯示全部樓層
感謝大大的辛勞分享!我會繼續在WK關注大大的文章!

尚未簽到

發表於 2017-5-21 01:08:27 來自手機 | 顯示全部樓層
感謝大大的辛勞分享!我會繼續在WK關注大大的文章!

尚未簽到

發表於 2017-5-21 14:24:37 | 顯示全部樓層
這個我收藏了!謝謝分享!WK的資源越來越豐富,這少不了大大的辛勞!

尚未簽到

發表於 2017-5-21 15:18:29 | 顯示全部樓層
偶像^^小生一直都在關注你的原創!小生對你之仰慕如滔滔江水連綿不絕!

尚未簽到

發表於 2017-5-21 17:40:15 來自手機 | 顯示全部樓層
感謝大大的辛勞分享!我會繼續在WK關注大大的文章!

回復樓主 親!! 下午好,中午養足了精神嗎?讓我們一起渡過下午茶時間,WK有您更精彩!

 分享同時學會感恩,一句感謝的話語,就是最大的支持!  歡迎交流討論
您需要登錄後才可以回帖 登錄 | 立即注册

本版積分規則

c重要聲明:本論壇是以即時上載言論的方式運作,WK論壇對所有言論的真實性、立場及版權等,不負任何法律責任。而一切言論只代表發佈者個人意見,並非本網站之立場,讀者及用戶務必自行判斷內容之真實性。 由於本論壇受到「即時上載言論」運作方式所規限,故不能完全監察所有言論,若讀者及用戶發現有內容出現「真實性、立場及版權」等問題,請聯絡我們:info@waikeung.net論壇有權刪除任何言論(刪除前或不會作事先警告及通知 )。

發表新帖 返回頂部