WK綜合論壇, WK综合论坛

查看:16402 回復:19 發表於 4 天前
本主題由 212love 於 4 天前 解除高亮
累計簽到︰1028 天
連續簽到︰8 天
發表於 6 天前 | 顯示全部樓層 |閱讀模式

美女與野獸 Beauty.and.the.Beast, 2017.[MKV / 4.12G] 内含中字幕 [複製鏈接]

影視分享
分類: 電影
題材: 愛情 
地區: 美國 
語言: 英语 
格式: MKV 
年份: 2017
資源: BT资源
$ r) J+ p# a. [
◎译  名 美女与野兽9 R% p) H3 \+ j: {
4 A- c0 a0 \. O) U; K( J! ]
◎片  名 Beauty and the Beast( i  F6 U, O" z  i

: L& G4 }8 I# B4 E4 |◎年  代 2017+ k% J; f% t2 Q

( P: F& H) @) m/ [6 F+ ^◎产  地 美国; F$ C! V( T4 z
! q8 @, d( r" m6 G. S$ K* L4 Q, v( |
◎类  别 爱情/奇幻/歌舞
. U& j" M* [5 M( X  l$ s, q9 \1 w6 Z6 l( I' ~
◎语  言 英语4 N1 d7 w' F- I8 L$ ]1 E0 N2 o* A% H

/ l! C' i0 a' D0 U* n! G2 X◎上映日期 2017-03-17(中国大陆)/2017-03-17(美国)
* G0 U2 @5 v9 |9 o3 |. }* q+ y
2 j3 h! L# z& N7 @◎IMDb评分  7.7/10 from 99,319 users9 w3 S3 C3 F, j. a  x9 R6 q

- k- z$ y0 }1 o8 n8 L◎IMDb链接  http://www.imdb.com/title/tt2771200/% w, p; Q8 {) e9 j+ Y0 G+ A/ D
6 M5 A# ?" Z" A1 I; j4 g; a
◎豆瓣评分 7.4/10 from 112,850 users
0 P/ ~" F8 L7 Y( E9 ]7 E! w5 ^2 Z1 i! a) k5 P
◎豆瓣链接 https://movie.douban.com/subject/25900945/
' w& m! E" n* ?! F+ H
, Z/ t, i: R1 Y" c. v7 N◎BT之家整理 http://www.btbtt.co
. n1 q3 j9 z. B
! n% m6 K- F' q( {4 f/ l) K/ S4 O◎片  长 130分钟
7 i  B1 P' _# `0 W0 J5 w3 X1 |: L
◎导  演 比尔·康顿 Bill Condon- j' \1 r$ T7 t1 X. V: M( U7 G) `
* \3 }, q) h2 A* y; O) {
◎主  演 艾玛·沃森 Emma Watson
4 A9 s. ~: k; ?6 c! Z+ b1 F8 g, x( Z. j
      丹·史蒂文斯 Dan Stevens
# B! U  V  z, ~1 k  Q2 x1 l9 @: [+ `; i) q7 A: `7 ~# l
      卢克·伊万斯 Luke Evans4 {8 a+ g4 ]3 m& M9 v) p

' O: c' a  b$ ^1 N      凯文·克莱恩 Kevin Kline
) o2 t" x7 W8 `  r3 V- E" C3 O7 Q, [
' e+ N$ e) s4 O      乔什·盖德 Josh Gad
! D: O. \: E4 C1 N, j) o$ R5 n/ ~% `' y6 I1 h+ E
      伊万·麦克格雷格 Ewan McGregor
. o0 z* }1 W( h' K
* r( F( Z( ~, s/ |2 u$ @# Y8 |      伊恩·麦克莱恩 Ian McKellen- Q" Q4 Q" V$ ~! W" f8 x
; ?/ H1 R% m/ M. |  V- K
      艾玛·汤普森 Emma Thompson
$ L- i% [5 `9 ]; w' G
+ m: n/ |( v6 [& d/ G# I3 ]2 o      斯坦利·图齐 Stanley Tucci8 M  D, o! ^$ e

+ u9 H; P/ l1 M3 L      古古·姆巴塔-劳 Gugu Mbatha-Raw
0 W) D8 V* y( S. K. c8 M8 i" @9 ~# D! N7 r! f: x
      奥德拉·麦当娜 Audra McDonald
; {0 N9 w5 `* I9 y$ e6 q$ @' g, c/ X+ g! _$ S
      内森·麦克 Nathan Mack' P& I8 a" b- C4 W! e( G6 M- Y
- z& S8 D/ \! K* U( a
      哈蒂·莫拉汉 Hattie Morahan& J7 ]+ m" w, V$ J% K8 v! }. D
9 F! |2 u  t5 x
      迈克尔·吉普森 Michael Jibson9 @2 e* S. \3 b8 e; ^3 L
& _. k# p, U1 s3 }5 F
      水野索诺娅 Sonoya Mizuno
. I: C4 ~; X7 c2 m: U
, W$ ~+ j! b2 n  j  L/ `1 f& D      亨利·加勒特 Henry Garrett2 z# ?% a. _  B3 U& ~4 J
+ m: {0 H, f, A0 r( t- B! z1 U
      戴尔·布兰斯顿 Dale Branston
, F1 Y8 f; ^! C0 c- K
$ y$ d# g2 t3 j. P
8 m% _. `& o$ Y3 ~! K' `
4 Y) K6 f* x+ H! B- c9 k; g/ l& h8 E
◎简  介3 H7 w/ `) z% \. F6 A1 K

5 P) M9 o3 O! _, I, t- _1 H% C" ^3 {* t) B4 G

! N5 d. f+ U( a1 g# L
4 W4 u  Y2 }) Y3 e" I2 Q% y  K1 F9 c  贝儿(艾玛·沃森 Emma Watson 饰)和小镇上的其他女孩不同,是一个热爱阅读和幻想的姑娘,孔武有力英俊强壮的加斯顿(卢克·伊万斯 Luke Evans 饰)发誓要娶贝儿为妻,但贝儿却一眼看穿了他的自私和虚伪,拒不从命。某日,贝儿的父亲莫里斯(凯文·克莱恩 Kevin Kline 饰)迷路误打误撞之下来到了一座荒凉破败的城堡中,那里居住着样貌可怖半人半兽的野兽(丹·史蒂文斯 Dan Stevens 饰)。1 f' M8 K6 j. o+ ?  }
' w' L. t$ l) J  [6 `! Y6 A) T
  因为偷摘了城堡里种植的玫瑰,莫里斯被野兽囚禁了起来,得知此消息的贝儿赶到城堡,要求和父亲作交换。就这样,贝儿开始了和野兽的同居生活。在会说话的茶壶太太(艾玛·汤普森 Emma Thompson 饰)、烛台卢米亚(伊万·麦克格雷格 Ewan McGregor 饰)和时钟葛士华(伊恩·麦克莱恩 Ian McKellen 饰)的照顾和帮助下,贝儿渐渐发现,野兽在丑陋的外表下,隐藏了一颗善良温柔的心。实际上,野兽的真实身份是一位王子,因受到了女巫的诅咒而沦落至此,而贝儿,是解除诅咒最后的,也是唯一的希望。
# B# l) E9 Q+ @1 p: c2 u5 q* M
& K# a$ m* Y4 b7 s
& J1 k/ Z$ q8 c$ h
1 M$ d- S% d$ _  ~$ p& a: R% N/ P- S% B' f0 a- v
◎获奖情况2 r1 S9 a2 N% v* ?: C1 A0 H+ E9 l$ X

, P& B0 |+ ^6 X, Q7 ~: I
, m$ a8 p- `* d/ P2 T" L! ~: H& s
& Q# k2 E2 z9 q7 J3 h( h, v& j8 \" [9 X7 }9 K
  第26届MTV电影奖  (2017)
) I6 d; b7 C% S
. v# C, Y+ G  R4 m; @  MTV电影奖 年度电影% h5 f0 Z  h  G2 w( c+ M! t* X

  Z3 k3 ^  J1 c& |3 o0 P$ O, P1 g  MTV电影奖 最佳表演 艾玛·沃森( D, t# a  I0 c2 B) m7 F' l4 i

3 T' l1 I* i8 ~9 [! h  MTV电影奖 最佳吻戏(提名) 艾玛·沃森 / 丹·史蒂文斯
0 |4 ]1 [/ B8 z7 M! X6 R4 ], C" }* F' O" W0 s
  MTV电影奖 最佳银幕组合(提名) 卢克·伊万斯 / 乔什·加德
. q9 n: ^- ]- S% D8 z. f/ }) J2 r  P* a9 b+ V1 f
8 E7 r/ @4 z/ d# m9 g4 k4 i* o$ k

* L% K. b0 H+ J1 D. H, U6 H+ ~
) [$ H# n* D* UVideo
8 ], w. w' Q# I2 ^" j3 cID                                       : 1
8 v( H6 J! h  o* k( C+ CFormat                                   : AVC. A% h2 V, e# {) H. }3 n  Z' e+ Z  D
Format/Info                              : Advanced Video Codec. L$ H3 j; N% X$ y) \
Format profile                           : High@L4.1
6 {2 d7 N  M6 V: [3 O# p9 U8 K$ ^Format settings, CABAC                   : Yes
2 u" {9 C' i) [  ~* VFormat settings, ReFrames                : 4 frames: b: h" u( g, r$ c0 b; F" k
Codec ID                                 : avc1
  G+ H! ]  W, R+ _/ bCodec ID/Info                            : Advanced Video Coding
. M, Z2 ~  B; K+ ^7 BDuration                                 : 2h 4mn4 g5 H# o$ i3 ^3 l3 j- a1 a4 H: A
Bit rate                                 : 4 500 Kbps& }! r- d8 G$ g$ C
Width                                    : 1 920 pixels, \! b: W5 T) G+ p  }+ e4 ~6 y
Height                                   : 800 pixels
# D2 p( ~$ E' I; o4 l" j8 fDisplay aspect ratio                     : 2.40:1
% k3 D) L$ o& a  P" g4 p8 EFrame rate mode                          : Constant
) c$ i$ ?; o) i/ J! DFrame rate                               : 25.000 fps3 Q+ v  s* D0 M7 n! t0 Y
Color space                              : YUV2 O# u8 F- |& R9 k+ _
Chroma subsampling                       : 4:2:06 R5 d7 V, m9 @' v/ m5 M
Bit depth                                : 8 bits
) O# ?! l- a) ~# v6 s" `Scan type                                : Progressive
/ b8 v  p% a5 s' {Bits/(Pixel*Frame)                       : 0.1178 r6 c5 ~/ d2 k4 Y+ K' a' [
Stream size                              : 3.92 GiB (95%)
7 s& C+ ]/ N. X5 J; i7 E$ ]; nTitle                                    : Beauty.and.the.Beast.2017.1080p.HC.WEBRip.x264.AAC2.0-STUTTERSHIT
; t4 ?, J; M! [6 C7 x5 ZWriting library                          : x264 core 148 r2597M e86f3a17 K" v( P. L4 V8 H% O9 l8 o/ B
Encoding settings                        : cabac=1 / ref=4 / deblock=1:0:0 / analyse=0x3:0x113 / me=umh / subme=8 / psy=1 / psy_rd=1.00:0.00 / mixed_ref=1 / me_range=16 / chroma_me=1 / trellis=1 / 8x8dct=1 / cqm=0 / deadzone=21,11 / fast_pskip=1 / chroma_qp_offset=-2 / threads=40 / lookahead_threads=6 / sliced_threads=0 / nr=0 / decimate=1 / interlaced=0 / bluray_compat=0 / constrained_intra=0 / bframes=3 / b_pyramid=2 / b_adapt=2 / b_bias=0 / direct=3 / weightb=1 / open_gop=0 / weightp=2 / keyint=250 / keyint_min=25 / scenecut=40 / intra_refresh=0 / rc_lookahead=50 / rc=abr / mbtree=1 / bitrate=4500 / ratetol=1.0 / qcomp=0.60 / qpmin=0 / qpmax=69 / qpstep=4 / ip_ratio=1.40 / aq=1:1.00
* b3 C4 j1 c8 N
4 c% i. Q7 P' z4 P+ eAudio
0 }1 K8 Q' [4 ~ID                                       : 2+ b$ D% G& P/ n* [! p
Format                                   : AAC
  U1 c' A8 P7 U5 c8 T5 SFormat/Info                              : Advanced Audio Codec
# k) b; r6 F: o' Z' N6 k% VFormat profile                           : LC( j+ o; p' C1 {, P& R
Codec ID                                 : 40
5 U2 p- n$ P3 n  p6 N! e/ dDuration                                 : 2h 4mn' o8 M1 T& `; |3 _3 L2 ~/ e
Duration_LastFrame                       : 32ms
# E7 V, M+ ~; ^" x1 g5 A$ B/ K( ~Bit rate mode                            : Constant
( O  ^) }" w. q, D* Z* j( P2 aBit rate                                 : 224 Kbps. o* S: ?2 z2 ^6 X! ]
Channel(s)                               : 2 channels1 \; B5 J( i& J' k. M
Channel positions                        : Front: L R
" _+ L+ V2 p. \$ CSampling rate                            : 48.0 KHz
9 W1 f  Q3 v  M. j5 m7 j4 OFrame rate                               : 46.875 fps (1024 spf)# p" l! P# E0 `6 J1 a  K  y
Compression mode                         : Lossy5 o5 T* }9 I$ R4 P! E  G9 X9 v
Stream size                              : 199 MiB (5%)/ d9 L$ r  }: u$ P/ P& G
Title                                    : Beauty.and.the.Beast.2017.1080p.HC.WEBRip.x264.AAC2.0-STUTTERSHIT" B% u9 K4 k& H
Default                                  : Yes
+ \7 B/ d  ?. O5 g2 t0 S: pAlternate group                          : 14 f9 a% J* S# [! Z4 s
1.png

美女與野獸 MKV.torrent

82.99 KB, 下載次數: 1128

尚未簽到

發表於 6 天前 | 顯示全部樓層
絕對的好貼!謝謝啊!逐字逐圖地看完這個帖子以後,我的心久久不能平靜,感恩啊!

尚未簽到

發表於 5 天前 | 顯示全部樓層
這個我收藏了!謝謝分享!WK的資源越來越豐富,這少不了大大的辛勞!

尚未簽到

發表於 5 天前 來自手機 | 顯示全部樓層
偶像^^小生一直都在關注你的原創!小生對你之仰慕如滔滔江水連綿不絕!

尚未簽到

發表於 5 天前 | 顯示全部樓層
很讚的文章,謝謝咯!相信WK因為有你而更加精彩!

尚未簽到

發表於 5 天前 | 顯示全部樓層
感謝大大的辛勞分享!我會繼續在WK關注大大的文章!

尚未簽到

發表於 4 天前 來自手機 | 顯示全部樓層
感謝大大的辛勞分享!我會繼續在WK關注大大的文章!

尚未簽到

發表於 4 天前 | 顯示全部樓層
這個我收藏了!謝謝分享!WK的資源越來越豐富,這少不了大大的辛勞!

尚未簽到

發表於 4 天前 | 顯示全部樓層
偶像^^小生一直都在關注你的原創!小生對你之仰慕如滔滔江水連綿不絕!

尚未簽到

發表於 4 天前 來自手機 | 顯示全部樓層
感謝大大的辛勞分享!我會繼續在WK關注大大的文章!

回復樓主 親!! 下午好,中午養足了精神嗎?讓我們一起渡過下午茶時間,WK有您更精彩!

 分享同時學會感恩,一句感謝的話語,就是最大的支持!  歡迎交流討論
您需要登錄後才可以回帖 登錄 | 立即注册

本版積分規則

c重要聲明:本論壇是以即時上載言論的方式運作,WK論壇對所有言論的真實性、立場及版權等,不負任何法律責任。而一切言論只代表發佈者個人意見,並非本網站之立場,讀者及用戶務必自行判斷內容之真實性。 由於本論壇受到「即時上載言論」運作方式所規限,故不能完全監察所有言論,若讀者及用戶發現有內容出現「真實性、立場及版權」等問題,請聯絡我們:info@waikeung.net論壇有權刪除任何言論(刪除前或不會作事先警告及通知 )。

發表新帖 返回頂部