WK綜合論壇, WK综合论坛

查看:28818 回復:25 發表於 2017-5-21 17:40:15
本主題由 212love 於 2017-5-21 09:58 解除高亮
累計簽到︰1273 天
連續簽到︰34 天
發表於 2017-5-19 23:03:07 | 顯示全部樓層 |閱讀模式

美女與野獸 Beauty.and.the.Beast, 2017.[MKV / 4.12G] 内含中字幕 [複製鏈接]

影視分享
分類: 電影
題材: 愛情 
地區: 美國 
語言: 英语 
格式: MKV 
年份: 2017
資源: BT资源
5 Z) r% U  b  \, G4 l* f0 n* P
◎译  名 美女与野兽$ r% V/ E. @1 G0 S

& I1 i# ^/ G0 I1 B8 b; [◎片  名 Beauty and the Beast
; o9 v/ }" o. }0 x9 I. I% D5 L+ Y7 y( x, G6 g3 A
◎年  代 2017
3 x6 \* ?% l9 N8 G2 A
) w) Z& P1 |, @6 c2 G2 Z1 }/ f" F◎产  地 美国
  Z% i* P$ s& U6 K2 `
1 _" {  n+ f$ T◎类  别 爱情/奇幻/歌舞
% ]! X8 S' W( ]) c! z/ ^1 }" p5 s
7 @0 ?, t8 t. ]* |& L* T5 t◎语  言 英语' i9 R8 I' O2 E& h2 H

, _7 W# {! S& n" I* r* a◎上映日期 2017-03-17(中国大陆)/2017-03-17(美国)( h, B  w8 v9 M  O2 m; K$ m

" X4 m6 \. E- g◎IMDb评分  7.7/10 from 99,319 users" f1 M+ j( e8 g$ k$ I7 u
& P4 m8 ^. l8 W# L
◎IMDb链接  http://www.imdb.com/title/tt2771200/
" Q5 P) ^+ `* l$ W9 `  g( g2 |, t: Y
◎豆瓣评分 7.4/10 from 112,850 users8 u3 a7 r$ z% t- D" r* r! N

& ]/ W6 U& i: v  d) C" m* ]◎豆瓣链接 https://movie.douban.com/subject/25900945/
0 g/ A1 g) B( }* K
6 K' O# g% x3 t7 |; l3 K1 D+ _3 _◎BT之家整理 http://www.btbtt.co
: ?5 K0 g) ~* q/ r2 [! B( {& ?: w1 {0 Y) l6 ^
◎片  长 130分钟
& l& l6 T% m9 ~) Q* ?) p8 k. J7 I$ T) P# P6 L: Z1 |2 s
◎导  演 比尔·康顿 Bill Condon
# J$ q) h) ~" B" `- r5 k
0 y1 P) F) [5 b◎主  演 艾玛·沃森 Emma Watson% d' I  @4 }' x, V) `
! v/ U) w2 @! q; h( ^
      丹·史蒂文斯 Dan Stevens
0 n( u- z' z( X/ \! |8 W& o" y# i3 }4 P& H2 j+ @
      卢克·伊万斯 Luke Evans2 }) i. ?, }: ?' j4 m4 v; K: R8 P

) C9 [% s! U4 O      凯文·克莱恩 Kevin Kline. Z, P+ I! }3 l5 r: K7 R8 g

$ P# h" x* d2 ^5 z* V      乔什·盖德 Josh Gad2 y) p" L+ M& {3 b
) Y- b+ }6 z9 `( h- V7 z0 d- R
      伊万·麦克格雷格 Ewan McGregor% i+ l( w% t4 |0 P: \
8 J2 E& @$ `" X: m. L' K
      伊恩·麦克莱恩 Ian McKellen% v1 h# c, ?+ U- F3 E

1 P. r( e8 g5 x5 y( S8 r$ m/ F      艾玛·汤普森 Emma Thompson: w& k- @9 j* N0 H" }. h

! l* l! H; N5 I* c! Q9 N      斯坦利·图齐 Stanley Tucci
; ~1 Q, L* u+ o* [7 ?$ k! G2 ^% D9 L5 ^
      古古·姆巴塔-劳 Gugu Mbatha-Raw
9 s) a- E& h% {! O
# T. K+ p/ k+ e# ^) U1 @      奥德拉·麦当娜 Audra McDonald
6 [7 X( ]  i) V2 M" R
8 _5 p& ?1 ~& m8 Q      内森·麦克 Nathan Mack
; c0 k2 Y: v& L+ _7 e% Y3 f
. N7 j, P7 C( P% z" F! V  w      哈蒂·莫拉汉 Hattie Morahan
* D$ y0 n+ v% i1 p2 |; f1 w4 f6 n0 `4 V8 s& n
      迈克尔·吉普森 Michael Jibson* @1 F7 j: N6 ?6 [
/ t- l+ Y. u; t8 F1 p% f
      水野索诺娅 Sonoya Mizuno* F+ ?+ \! }& h

; S, v1 [/ ^6 F) H7 ^5 R  h& l      亨利·加勒特 Henry Garrett. q9 f5 w3 `+ P" Q* P

8 x0 }$ U- @4 b0 }! f; \1 y" ?" |      戴尔·布兰斯顿 Dale Branston4 H8 c& r' q. H

1 L% s, }/ `  B  Y. j! L8 H6 R' {" f7 ~6 l3 c; V- @
- a; Y0 [1 w; S6 N4 e- q

. g" v  \) I8 C- u2 A  n◎简  介9 C; ]2 D9 \0 m( N5 i: }/ M8 J: b

5 f; A/ H1 @- d3 I$ b) f! c9 D
0 ?2 \3 S, {4 k! |. Q0 i. S
$ o! q  P& R" C+ n+ Q
4 b/ l) \: |6 i2 v, g) K  贝儿(艾玛·沃森 Emma Watson 饰)和小镇上的其他女孩不同,是一个热爱阅读和幻想的姑娘,孔武有力英俊强壮的加斯顿(卢克·伊万斯 Luke Evans 饰)发誓要娶贝儿为妻,但贝儿却一眼看穿了他的自私和虚伪,拒不从命。某日,贝儿的父亲莫里斯(凯文·克莱恩 Kevin Kline 饰)迷路误打误撞之下来到了一座荒凉破败的城堡中,那里居住着样貌可怖半人半兽的野兽(丹·史蒂文斯 Dan Stevens 饰)。
4 T" y" n, `2 S+ x2 i- N5 `! U, n7 u5 ~0 ?$ E9 @8 x
  因为偷摘了城堡里种植的玫瑰,莫里斯被野兽囚禁了起来,得知此消息的贝儿赶到城堡,要求和父亲作交换。就这样,贝儿开始了和野兽的同居生活。在会说话的茶壶太太(艾玛·汤普森 Emma Thompson 饰)、烛台卢米亚(伊万·麦克格雷格 Ewan McGregor 饰)和时钟葛士华(伊恩·麦克莱恩 Ian McKellen 饰)的照顾和帮助下,贝儿渐渐发现,野兽在丑陋的外表下,隐藏了一颗善良温柔的心。实际上,野兽的真实身份是一位王子,因受到了女巫的诅咒而沦落至此,而贝儿,是解除诅咒最后的,也是唯一的希望。+ s1 h5 g4 [" v) J4 y# m
$ w  r9 o+ x3 N0 P# k
1 Y5 V: r* F) m# \2 k( v$ L' ]
2 p% Q% y" n7 m2 r
; R- E3 j2 g5 U* I2 O3 o& |1 `
◎获奖情况
' u* r" `4 Q1 t) a6 |" y
; D$ _- J  x8 n* y
7 O, p7 X) O3 u* d  e% D( d) P8 V* t+ b/ x0 u8 T

2 C; |7 l; }* H( N  第26届MTV电影奖  (2017)" Z0 ^( r7 v: x

7 E) A# c9 }! A7 ~  G% k0 g0 E1 @  MTV电影奖 年度电影
& B3 X/ l1 ^: T- [' }% u9 n0 h# u3 I! [$ x( P/ L
  MTV电影奖 最佳表演 艾玛·沃森
+ i, I- I6 Q. R( _' `9 U
  |% j; L) N+ e2 f6 g, O: L' c  MTV电影奖 最佳吻戏(提名) 艾玛·沃森 / 丹·史蒂文斯7 g! n; `. f) q8 ~+ @
8 g5 I. T7 C' ]; K" d
  MTV电影奖 最佳银幕组合(提名) 卢克·伊万斯 / 乔什·加德
7 u- t: o( h  @, u" g9 X1 X4 g. R
2 m2 e& R- P: V0 @! u$ h1 r7 h* {! v9 }! u: G8 R

' M( b1 g2 l! _6 \
% B2 q) @. x7 `$ ^1 |. eVideo+ L% I7 W! G" ^3 D* w/ F$ j
ID                                       : 15 F. X7 d% T- `/ X; ]/ K
Format                                   : AVC
$ p; u5 Z9 y/ h% \! [2 Q8 X+ eFormat/Info                              : Advanced Video Codec) r  t7 S, o  @" O- V+ a: V
Format profile                           : High@L4.1
2 i8 x' I! v, l! BFormat settings, CABAC                   : Yes# I% y9 W1 Z$ X1 q$ p/ f$ I4 X2 b
Format settings, ReFrames                : 4 frames; Q0 y3 m0 r1 F4 J( \
Codec ID                                 : avc1% r% y3 x5 C; a4 p
Codec ID/Info                            : Advanced Video Coding1 O: }% \9 Q/ Q
Duration                                 : 2h 4mn9 z2 Q+ ~8 W8 c$ K% z/ k
Bit rate                                 : 4 500 Kbps
2 \$ M2 W; t6 Z: x, F8 ZWidth                                    : 1 920 pixels* ~, [/ L$ z  s* y! J- G# v
Height                                   : 800 pixels' G0 E* D2 \+ e8 T# e$ K
Display aspect ratio                     : 2.40:15 l) `# Z9 k. i* b1 S
Frame rate mode                          : Constant6 D1 M! s' Y9 W) k& `( t" C9 m
Frame rate                               : 25.000 fps, }# V# z( o; I2 ]  `0 j
Color space                              : YUV
2 m# C0 p* W) {# x" ]4 tChroma subsampling                       : 4:2:0
1 }7 o# Y8 g5 e+ W; ~Bit depth                                : 8 bits
- a+ P7 W7 j0 E* ^7 yScan type                                : Progressive1 t. Q& k- y4 k; W; A6 I9 f& l
Bits/(Pixel*Frame)                       : 0.117
% I* l" O3 ]8 b1 NStream size                              : 3.92 GiB (95%)1 `' b% o7 l$ M" K' E6 X. A2 @8 H
Title                                    : Beauty.and.the.Beast.2017.1080p.HC.WEBRip.x264.AAC2.0-STUTTERSHIT/ J3 d3 z2 G+ |/ s, ?9 @& h3 `2 l) l
Writing library                          : x264 core 148 r2597M e86f3a1
; w) s/ k! j8 u/ }, e. e3 lEncoding settings                        : cabac=1 / ref=4 / deblock=1:0:0 / analyse=0x3:0x113 / me=umh / subme=8 / psy=1 / psy_rd=1.00:0.00 / mixed_ref=1 / me_range=16 / chroma_me=1 / trellis=1 / 8x8dct=1 / cqm=0 / deadzone=21,11 / fast_pskip=1 / chroma_qp_offset=-2 / threads=40 / lookahead_threads=6 / sliced_threads=0 / nr=0 / decimate=1 / interlaced=0 / bluray_compat=0 / constrained_intra=0 / bframes=3 / b_pyramid=2 / b_adapt=2 / b_bias=0 / direct=3 / weightb=1 / open_gop=0 / weightp=2 / keyint=250 / keyint_min=25 / scenecut=40 / intra_refresh=0 / rc_lookahead=50 / rc=abr / mbtree=1 / bitrate=4500 / ratetol=1.0 / qcomp=0.60 / qpmin=0 / qpmax=69 / qpstep=4 / ip_ratio=1.40 / aq=1:1.004 C- I5 k1 Y* ?0 ?5 J! _
0 l3 Y: H# w1 A2 ?
Audio6 m1 f1 p( o  N, E: I; E
ID                                       : 2
( |( o  Y4 f, Z9 i9 OFormat                                   : AAC
- ]! l: Z0 r* P9 B5 K8 G6 E+ N- bFormat/Info                              : Advanced Audio Codec) G( Z2 e: F( {! W- Q( j3 }
Format profile                           : LC2 H; R9 j$ J/ b% p
Codec ID                                 : 407 Q7 q! F2 O# n2 b
Duration                                 : 2h 4mn
; L9 N4 W4 Y- e. U0 y- ZDuration_LastFrame                       : 32ms9 R5 H2 v& e9 p" n2 E
Bit rate mode                            : Constant
! O- a6 i* F, Q! dBit rate                                 : 224 Kbps+ b7 ~( P+ E! v+ x% B# S  i$ a2 D
Channel(s)                               : 2 channels
0 n" }" j% a. A, O+ jChannel positions                        : Front: L R* a9 x' ?) Z1 r1 q8 v& {( e& P# T: j
Sampling rate                            : 48.0 KHz$ ~% N& X$ r  v: x, ]$ i
Frame rate                               : 46.875 fps (1024 spf)
5 L1 \5 L6 Y6 r! A6 Z5 W: BCompression mode                         : Lossy
/ @" i# D4 R7 T) v0 u. n' }& JStream size                              : 199 MiB (5%)
1 J" T$ v, c, aTitle                                    : Beauty.and.the.Beast.2017.1080p.HC.WEBRip.x264.AAC2.0-STUTTERSHIT" z( w, t2 k$ W7 s! |$ E3 P
Default                                  : Yes
7 l8 D0 _) n- l; K; w  ?1 h1 ZAlternate group                          : 13 B7 b4 z2 z$ ]/ f# r
1.png

美女與野獸 MKV.torrent

82.99 KB, 下載次數: 1315

尚未簽到

發表於 2017-5-19 23:04:06 | 顯示全部樓層
絕對的好貼!謝謝啊!逐字逐圖地看完這個帖子以後,我的心久久不能平靜,感恩啊!

尚未簽到

發表於 2017-5-20 13:44:58 | 顯示全部樓層
這個我收藏了!謝謝分享!WK的資源越來越豐富,這少不了大大的辛勞!

尚未簽到

發表於 2017-5-20 14:47:15 來自手機 | 顯示全部樓層
偶像^^小生一直都在關注你的原創!小生對你之仰慕如滔滔江水連綿不絕!

尚未簽到

發表於 2017-5-20 16:46:51 | 顯示全部樓層
很讚的文章,謝謝咯!相信WK因為有你而更加精彩!

尚未簽到

發表於 2017-5-20 19:12:17 | 顯示全部樓層
感謝大大的辛勞分享!我會繼續在WK關注大大的文章!

尚未簽到

發表於 2017-5-21 01:08:27 來自手機 | 顯示全部樓層
感謝大大的辛勞分享!我會繼續在WK關注大大的文章!

尚未簽到

發表於 2017-5-21 14:24:37 | 顯示全部樓層
這個我收藏了!謝謝分享!WK的資源越來越豐富,這少不了大大的辛勞!

尚未簽到

發表於 2017-5-21 15:18:29 | 顯示全部樓層
偶像^^小生一直都在關注你的原創!小生對你之仰慕如滔滔江水連綿不絕!

尚未簽到

發表於 2017-5-21 17:40:15 來自手機 | 顯示全部樓層
感謝大大的辛勞分享!我會繼續在WK關注大大的文章!

回復樓主 親!! 現在是淩晨!妳失眠啦?餓啦?通宵加班?還是想WK啦?

 分享同時學會感恩,一句感謝的話語,就是最大的支持!  歡迎交流討論
您需要登錄後才可以回帖 登錄 | 立即注册

本版積分規則


c重要聲明:本論壇是以即時上載言論的方式運作,WK論壇對所有言論的真實性、立場及版權等,不負任何法律責任。而一切言論只代表發佈者個人意見,並非本網站之立場,讀者及用戶務必自行判斷內容之真實性。 由於本論壇受到「即時上載言論」運作方式所規限,故不能完全監察所有言論,若讀者及用戶發現有內容出現「真實性、立場及版權」等問題,請聯絡我們:info@waikeung.net論壇有權刪除任何言論(刪除前或不會作事先警告及通知)| SiteMap[網站地圖]

發表新帖 返回頂部