WK綜合論壇, WK综合论坛

查看:28833 回復:25 發表於 2017-5-21 17:40:15
本主題由 212love 於 2017-5-21 09:58 解除高亮
累計簽到︰1328 天
連續簽到︰1 天
發表於 2017-5-19 23:03:07 | 顯示全部樓層 |閱讀模式

美女與野獸 Beauty.and.the.Beast, 2017.[MKV / 4.12G] 内含中字幕 [複製鏈接]

影視分享
分類: 電影
題材: 愛情 
地區: 美國 
語言: 英语 
格式: MKV 
年份: 2017
資源: BT资源

" ~# _) W. B9 k  v- y1 f! p( Q8 n◎译  名 美女与野兽- r6 a0 \: Y" ~' y) I6 I
* h5 W( s' e& |
◎片  名 Beauty and the Beast
6 o) p, m2 G, v( t- @( t% a# h8 `6 |0 V4 h9 k
◎年  代 2017
' N6 P5 Y, K3 r/ C+ p5 ?! G7 D
! N; J0 G3 Y8 @9 ~! ]◎产  地 美国
- A+ y4 _& D7 c: p9 ?! h4 c0 \) Y, O' r2 ?+ E
◎类  别 爱情/奇幻/歌舞
8 p, P1 M* F5 q  J8 Q
4 ^, V. ?4 y2 W) s, m! h◎语  言 英语2 w9 m) z/ ?$ t0 f; `2 b
8 K) Q0 K9 g, ~9 @4 P; z
◎上映日期 2017-03-17(中国大陆)/2017-03-17(美国), R8 b( Q9 w/ m( \0 c7 J
' K. y9 b" m7 h  g
◎IMDb评分  7.7/10 from 99,319 users
5 ^* ]& H3 {1 e
3 n; b/ r; x; ?, x: U% R3 x◎IMDb链接  http://www.imdb.com/title/tt2771200/5 W( J5 w) P1 r. |

3 ~; c  J; U7 K; I/ _- A7 P◎豆瓣评分 7.4/10 from 112,850 users! P0 P0 i7 P2 w: e; {

" g$ C9 P5 m1 Z  @◎豆瓣链接 https://movie.douban.com/subject/25900945/
, ?1 Q* G8 v1 e/ L$ [# K$ T/ E0 Z/ Q
◎BT之家整理 http://www.btbtt.co' }/ f/ ~4 Q9 w! z% e' ]( f3 y+ q0 M% u
" M2 E, W+ o1 L& ^; f/ E7 \
◎片  长 130分钟3 G- }1 {9 ~+ s& y
* B8 X5 ~3 Y7 a, i, x* b1 V
◎导  演 比尔·康顿 Bill Condon
! Y$ D% }( f, Y% M  m$ H
' s5 f5 d8 H8 B! J5 F* ]0 N5 j◎主  演 艾玛·沃森 Emma Watson& r! V* ]! d0 I+ D# f0 p

% j# D; ]' X. s2 |, F      丹·史蒂文斯 Dan Stevens0 G/ R% j" d# C$ P
8 K! \4 n4 L2 s$ Y, ?& ~) H
      卢克·伊万斯 Luke Evans
8 J( H. u6 s' M5 l! C5 X5 ~6 h
. O' j& R6 ]+ M, M& }      凯文·克莱恩 Kevin Kline8 r0 n# {2 ?8 l* h# W/ y" h

% x3 g! u# J; k$ d6 O: u+ S$ |      乔什·盖德 Josh Gad
& {, H' [" V4 u, l( Y* W) X, o# k- Q- ^4 h8 |
      伊万·麦克格雷格 Ewan McGregor- a3 B+ ~) x( C# }- Q

$ {, S3 z3 b5 w9 S* U6 ]0 |      伊恩·麦克莱恩 Ian McKellen6 p$ @6 N* C9 m  G4 I2 l  z( T

, }( O/ w5 f% S* f$ K      艾玛·汤普森 Emma Thompson
& j4 w, J( D) E/ @/ j! t+ Z
6 ]: ?% C' f0 ~  b! S      斯坦利·图齐 Stanley Tucci+ T) @2 L0 u7 @

8 q" e* @6 E5 D3 i2 B      古古·姆巴塔-劳 Gugu Mbatha-Raw
9 k7 t. \7 U2 x' }# J& e, L& |1 Z8 D8 y" w1 H! r; a  k6 p$ d1 b
      奥德拉·麦当娜 Audra McDonald. R( P& @9 \  R; }

+ h' \7 N' ~. }2 S( e      内森·麦克 Nathan Mack# p+ p$ I! O. Y, A% {* X( R3 [
& `. Y. u( ]  _/ v
      哈蒂·莫拉汉 Hattie Morahan! _* `0 R" p% C3 R0 ~& ]" k

3 H: [# ?# M9 [: Z# t      迈克尔·吉普森 Michael Jibson
, M. s. l/ u4 T5 J" V' Z+ V6 M6 ]% _' F+ a0 M4 r* [& d- f6 r6 r: ]
      水野索诺娅 Sonoya Mizuno) L, D' {: a& |6 q; N" L& _1 t
& m' P  G, A( }" R0 H# h7 Y9 V2 v
      亨利·加勒特 Henry Garrett% X; Q5 e7 ^+ R, T+ r! I( f
% C/ B2 `1 o, `- X
      戴尔·布兰斯顿 Dale Branston  S2 ?- ]' a. i* x" O1 y! h$ @" X4 [2 w' C
8 W4 v. Q3 [* M& I

5 Y  ^- ]$ W5 e  F+ }) M# P: V* L9 i$ B* Q3 N' ~
2 g5 j2 Y+ H) E: `9 O
◎简  介
. F6 `; B( z% z: j4 `* F4 Z; z- a/ v: L7 R* c; ?

1 [& t8 E! ~& q; @
* t7 v1 {5 U- ~) |1 n) H# O( i9 G0 ^( c7 Y: i
  贝儿(艾玛·沃森 Emma Watson 饰)和小镇上的其他女孩不同,是一个热爱阅读和幻想的姑娘,孔武有力英俊强壮的加斯顿(卢克·伊万斯 Luke Evans 饰)发誓要娶贝儿为妻,但贝儿却一眼看穿了他的自私和虚伪,拒不从命。某日,贝儿的父亲莫里斯(凯文·克莱恩 Kevin Kline 饰)迷路误打误撞之下来到了一座荒凉破败的城堡中,那里居住着样貌可怖半人半兽的野兽(丹·史蒂文斯 Dan Stevens 饰)。" U  H5 c0 A' d
# v' `% U( O5 y* B" V' s" E; K
  因为偷摘了城堡里种植的玫瑰,莫里斯被野兽囚禁了起来,得知此消息的贝儿赶到城堡,要求和父亲作交换。就这样,贝儿开始了和野兽的同居生活。在会说话的茶壶太太(艾玛·汤普森 Emma Thompson 饰)、烛台卢米亚(伊万·麦克格雷格 Ewan McGregor 饰)和时钟葛士华(伊恩·麦克莱恩 Ian McKellen 饰)的照顾和帮助下,贝儿渐渐发现,野兽在丑陋的外表下,隐藏了一颗善良温柔的心。实际上,野兽的真实身份是一位王子,因受到了女巫的诅咒而沦落至此,而贝儿,是解除诅咒最后的,也是唯一的希望。
: t1 P# c9 ]# c) y, A& x" v+ ]% Q0 s0 P

: H3 Z  k3 W' U9 I# r+ G
8 d- @* K$ h, R9 G! J1 f3 F2 [
; F& z/ }: J, l) L4 ?) ?3 d◎获奖情况
; W* ^, B6 C0 F# Q5 Z! t" n1 `3 M  _: Z9 S/ @. S* y9 N! T: d  d: f) U
5 g" g3 ]* h: U+ \+ r: }0 t( I# q

" v6 g1 V; |: d8 H6 m8 w% A6 g+ A. e; i7 t) A; M
  第26届MTV电影奖  (2017), i- _  ]# t  S& s% g: j

' o7 }, l' a2 R8 q/ [8 p& B  MTV电影奖 年度电影4 I& s/ X& {: `/ E# ~
7 H6 I$ d7 O+ i2 t
  MTV电影奖 最佳表演 艾玛·沃森
. o0 W2 O) [, A
1 u6 Y, h) u9 W  MTV电影奖 最佳吻戏(提名) 艾玛·沃森 / 丹·史蒂文斯
% L# E: a8 s8 S1 u  y4 \9 |6 ~+ ^' m0 g/ G* p
  MTV电影奖 最佳银幕组合(提名) 卢克·伊万斯 / 乔什·加德
1 m* Q5 D1 [; y) @# o. ^+ T$ w" m( d' ]5 ~$ F! {
/ ~4 V% ~! S5 y' l+ Z
# _! r$ L6 J1 r, Q, Z# E
* _1 S% n2 E8 }6 p5 x0 H# R/ u4 g( o
Video
- Q. k& D  |5 }- r+ M3 z) U  oID                                       : 1, v4 q/ c4 }% p- g9 I6 m3 X. d
Format                                   : AVC$ H- _2 k6 {. A% r1 m
Format/Info                              : Advanced Video Codec( K. h4 M' A, }  G  c
Format profile                           : High@L4.11 ?% J; i! b: R% ?8 o( K) t; ]4 y) q
Format settings, CABAC                   : Yes; b! ^+ \/ d0 a" j: S$ ^
Format settings, ReFrames                : 4 frames
( m2 E# H& Q; _Codec ID                                 : avc1
5 U; y! A( t: F4 v' V$ \1 Z, FCodec ID/Info                            : Advanced Video Coding
2 F5 S( ?& y" N0 D0 q7 X4 UDuration                                 : 2h 4mn
. e+ n, d+ M0 o7 _Bit rate                                 : 4 500 Kbps: _) w8 V5 x+ D$ R
Width                                    : 1 920 pixels" X* K( _0 A9 ?
Height                                   : 800 pixels+ L$ {  M0 T/ G- f
Display aspect ratio                     : 2.40:1
( T( k7 X0 G/ W2 \- J; O1 L0 |Frame rate mode                          : Constant# u' A4 g& {6 ]
Frame rate                               : 25.000 fps3 T6 c7 A/ v5 ]% _, u3 w: n
Color space                              : YUV
  T9 |/ W8 L  V0 Y" p! _Chroma subsampling                       : 4:2:00 Y9 O5 e& u, T
Bit depth                                : 8 bits
' ?  G1 T* h1 j  \4 F- aScan type                                : Progressive
6 c2 f8 z, J1 [: e! MBits/(Pixel*Frame)                       : 0.117
$ r" C0 v/ u# W2 y2 t4 k  dStream size                              : 3.92 GiB (95%)! a+ ^7 h' [5 t- i/ v
Title                                    : Beauty.and.the.Beast.2017.1080p.HC.WEBRip.x264.AAC2.0-STUTTERSHIT! l4 Q$ m( R/ S5 L' w
Writing library                          : x264 core 148 r2597M e86f3a17 C, v+ p, \, ~2 i- W1 C9 n
Encoding settings                        : cabac=1 / ref=4 / deblock=1:0:0 / analyse=0x3:0x113 / me=umh / subme=8 / psy=1 / psy_rd=1.00:0.00 / mixed_ref=1 / me_range=16 / chroma_me=1 / trellis=1 / 8x8dct=1 / cqm=0 / deadzone=21,11 / fast_pskip=1 / chroma_qp_offset=-2 / threads=40 / lookahead_threads=6 / sliced_threads=0 / nr=0 / decimate=1 / interlaced=0 / bluray_compat=0 / constrained_intra=0 / bframes=3 / b_pyramid=2 / b_adapt=2 / b_bias=0 / direct=3 / weightb=1 / open_gop=0 / weightp=2 / keyint=250 / keyint_min=25 / scenecut=40 / intra_refresh=0 / rc_lookahead=50 / rc=abr / mbtree=1 / bitrate=4500 / ratetol=1.0 / qcomp=0.60 / qpmin=0 / qpmax=69 / qpstep=4 / ip_ratio=1.40 / aq=1:1.00
4 d/ J+ X4 X, P  S% x% x3 ~$ ^3 d3 l- S+ t# Y
Audio
2 \. X7 }  g! u) V/ ?: gID                                       : 2( H2 |3 O1 d; S# f" {6 w- p
Format                                   : AAC; F3 E/ ~7 F( }4 @5 ^# F
Format/Info                              : Advanced Audio Codec
: P) i) d, s6 k+ h% M' h% \, GFormat profile                           : LC
2 t& @' X' b! ?8 ^Codec ID                                 : 40
1 h0 [* X9 N5 c5 R# [: hDuration                                 : 2h 4mn; k$ Z: W: ?- h6 G
Duration_LastFrame                       : 32ms
) o- M( |3 i: _9 H9 BBit rate mode                            : Constant
$ G1 Y5 M  I" |- JBit rate                                 : 224 Kbps
& X3 f/ R! M% x4 f3 ?2 W! E6 V: V, dChannel(s)                               : 2 channels" l6 H0 u8 r6 M) E( L
Channel positions                        : Front: L R3 P1 |( s. J" @8 U
Sampling rate                            : 48.0 KHz* L9 k, m, G0 b7 D5 w2 n& ?! ?
Frame rate                               : 46.875 fps (1024 spf). p& y& H9 o$ {1 b& n
Compression mode                         : Lossy
. `6 C( ?% [' K3 c! @Stream size                              : 199 MiB (5%)
( ~6 R( q# T% i2 Q: {Title                                    : Beauty.and.the.Beast.2017.1080p.HC.WEBRip.x264.AAC2.0-STUTTERSHIT
7 C! y4 _4 _5 wDefault                                  : Yes  l1 _0 D8 ^$ w: V9 u9 y
Alternate group                          : 1
1 G. r9 ~  q# C: g) D( W 1.png

美女與野獸 MKV.torrent

82.99 KB, 下載次數: 1315

尚未簽到

發表於 2017-5-19 23:04:06 | 顯示全部樓層
絕對的好貼!謝謝啊!逐字逐圖地看完這個帖子以後,我的心久久不能平靜,感恩啊!

尚未簽到

發表於 2017-5-20 13:44:58 | 顯示全部樓層
這個我收藏了!謝謝分享!WK的資源越來越豐富,這少不了大大的辛勞!

尚未簽到

發表於 2017-5-20 14:47:15 來自手機 | 顯示全部樓層
偶像^^小生一直都在關注你的原創!小生對你之仰慕如滔滔江水連綿不絕!

尚未簽到

發表於 2017-5-20 16:46:51 | 顯示全部樓層
很讚的文章,謝謝咯!相信WK因為有你而更加精彩!

尚未簽到

發表於 2017-5-20 19:12:17 | 顯示全部樓層
感謝大大的辛勞分享!我會繼續在WK關注大大的文章!

尚未簽到

發表於 2017-5-21 01:08:27 來自手機 | 顯示全部樓層
感謝大大的辛勞分享!我會繼續在WK關注大大的文章!

尚未簽到

發表於 2017-5-21 14:24:37 | 顯示全部樓層
這個我收藏了!謝謝分享!WK的資源越來越豐富,這少不了大大的辛勞!

尚未簽到

發表於 2017-5-21 15:18:29 | 顯示全部樓層
偶像^^小生一直都在關注你的原創!小生對你之仰慕如滔滔江水連綿不絕!

尚未簽到

發表於 2017-5-21 17:40:15 來自手機 | 顯示全部樓層
感謝大大的辛勞分享!我會繼續在WK關注大大的文章!

回復樓主 親!! 現在是淩晨!妳失眠啦?餓啦?通宵加班?還是想WK啦?

 分享同時學會感恩,一句感謝的話語,就是最大的支持!  歡迎交流討論
您需要登錄後才可以回帖 登錄 | 立即注册

本版積分規則

c重要聲明:本論壇是以即時上載言論的方式運作,WK論壇對所有言論的真實性、立場及版權等,不負任何法律責任。而一切言論只代表發佈者個人意見,並非本網站之立場,讀者及用戶務必自行判斷內容之真實性。 由於本論壇受到「即時上載言論」運作方式所規限,故不能完全監察所有言論,若讀者及用戶發現有內容出現「真實性、立場及版權」等問題,請聯絡我們:info@waikeung.net論壇有權刪除任何言論(刪除前或不會作事先警告及通知)| SiteMap[網站地圖]

發表新帖 返回頂部