WK綜合論壇, WK综合论坛

查看:28742 回復:25 發表於 2017-5-21 17:40:15
本主題由 212love 於 2017-5-21 09:58 解除高亮
累計簽到︰1083 天
連續簽到︰10 天
發表於 2017-5-19 23:03:07 | 顯示全部樓層 |閱讀模式

美女與野獸 Beauty.and.the.Beast, 2017.[MKV / 4.12G] 内含中字幕 [複製鏈接]

影視分享
分類: 電影
題材: 愛情 
地區: 美國 
語言: 英语 
格式: MKV 
年份: 2017
資源: BT资源

- c9 Q/ D: m! D) b# P◎译  名 美女与野兽
0 j% {9 b2 W' J7 r! Y1 Q
+ s) s: i7 Q% J( \! P  Q◎片  名 Beauty and the Beast+ w8 H/ ~9 t/ i3 u$ N: u4 {# h

& X0 g# N6 w* n) {5 `& M, |; ?◎年  代 2017
9 w$ w. p5 [0 ^
) Q7 ^3 X7 J% m◎产  地 美国
  d$ H- f1 K/ U2 K$ o
7 S" ]4 d) k2 Y$ Y$ O0 w$ N◎类  别 爱情/奇幻/歌舞8 K. l2 q' }5 X/ c: l  Y

) x! X9 W/ \3 ^9 i1 @& z- E) G◎语  言 英语5 S5 i  T4 @7 G. \: F# `
! h3 O% A4 U4 J  H
◎上映日期 2017-03-17(中国大陆)/2017-03-17(美国)
/ a  v/ f( u) L& @/ [7 ?8 f: i$ `' d' P" Q; P
◎IMDb评分  7.7/10 from 99,319 users9 ?5 i+ l) J1 z
* b: w5 T) Z- }
◎IMDb链接  http://www.imdb.com/title/tt2771200/( v; Q, w$ O: `

& ~; o1 x5 \$ f. \7 d. W◎豆瓣评分 7.4/10 from 112,850 users, ^' N5 _! \6 O  C

6 g! F0 O8 q- \" K◎豆瓣链接 https://movie.douban.com/subject/25900945/
7 M2 `* D  A" d% J0 P0 s
) M# H. N8 A5 ]- k; W◎BT之家整理 http://www.btbtt.co' F$ ^" K: a9 f9 \8 o
' Z: }6 }( y. t" Q2 Y+ K7 n
◎片  长 130分钟
$ N8 P1 j# t- w: i, B& J% U' }& _
◎导  演 比尔·康顿 Bill Condon% o4 h# Z4 N' c- ^7 V
- k9 d, V& e3 H$ Z* \! a- @
◎主  演 艾玛·沃森 Emma Watson
3 j' B! B2 m6 A! c( b1 k8 {# L" Q& x" }, G* ?/ p; j6 }7 R) l
      丹·史蒂文斯 Dan Stevens; y1 x( Q; m( ~& r! H( K, K) t1 C

! O; a" q5 k" S2 q      卢克·伊万斯 Luke Evans
2 @8 z/ Y7 m. U# g% P  i, V' ?+ [) C2 X5 x( I
      凯文·克莱恩 Kevin Kline
2 i2 G) \; v* x0 \1 o0 E; ]6 n! Y1 q* T( |
      乔什·盖德 Josh Gad+ M$ H7 P* M; _" M
6 u' D- F* y1 S; R9 ]- O
      伊万·麦克格雷格 Ewan McGregor- r9 ^4 x: I, t4 b/ L3 @

$ p* K  u+ s+ J$ O, u7 Z      伊恩·麦克莱恩 Ian McKellen7 e. ?2 f. A# p  C/ r- r3 D" D

- v; w; A- P; B; q' x5 g, c2 s      艾玛·汤普森 Emma Thompson' t( w+ G7 \: T' l* t% |

0 Z( W2 Z) h3 |- m% s      斯坦利·图齐 Stanley Tucci  x. ^' _; V9 x8 K
  u% h. [0 b0 i& Q& E
      古古·姆巴塔-劳 Gugu Mbatha-Raw6 \* }! n. E. G: b7 I0 Y! d4 W

# d+ I) c, @* U  [' I% P      奥德拉·麦当娜 Audra McDonald
7 r! _: L3 H6 j. q  N! B; B/ t
' I% s4 I2 v. C3 s: h      内森·麦克 Nathan Mack+ w6 f$ N6 s/ x2 \
- Y& E$ M* W) P* A2 s$ l
      哈蒂·莫拉汉 Hattie Morahan6 l  \) l1 n' p% R0 _8 p- p- N

' F6 ?% C1 {2 i+ I3 h      迈克尔·吉普森 Michael Jibson% \7 u. h# U% |' E% i  x
5 Y# K7 t, e% b: W4 ~/ _; n
      水野索诺娅 Sonoya Mizuno3 W# o4 J  e9 P! n7 ]
1 M4 i6 g/ |0 _2 o) S2 }& f
      亨利·加勒特 Henry Garrett
* T5 H& E) V- Y5 B+ t0 |" p4 W6 K( {
4 t6 ~" o* G1 ~) }# N/ o- |4 k. ]4 j+ i      戴尔·布兰斯顿 Dale Branston
  p- N$ n8 w8 S1 h/ x- }2 J8 z- R( ?' ?& _. V) d
5 \7 s2 N5 F) H9 ~, _, D- K
7 c  {9 A3 j8 N7 h% d
% j8 T3 q+ `1 ]0 F7 V& o
◎简  介- ]7 j7 N! m6 J3 a% y4 y

  K- K+ o  c! j5 w. R0 y1 M. D; _9 x) [1 b1 T  {/ E/ A% ?, D
, c1 z/ q- |) W. L

/ u- y0 c1 \$ ~. K/ q, q, y# ?% V  贝儿(艾玛·沃森 Emma Watson 饰)和小镇上的其他女孩不同,是一个热爱阅读和幻想的姑娘,孔武有力英俊强壮的加斯顿(卢克·伊万斯 Luke Evans 饰)发誓要娶贝儿为妻,但贝儿却一眼看穿了他的自私和虚伪,拒不从命。某日,贝儿的父亲莫里斯(凯文·克莱恩 Kevin Kline 饰)迷路误打误撞之下来到了一座荒凉破败的城堡中,那里居住着样貌可怖半人半兽的野兽(丹·史蒂文斯 Dan Stevens 饰)。
+ P3 P% Z2 X, M+ o& m" ~
; G) Y) `" D9 d+ N1 ~5 Y4 P  因为偷摘了城堡里种植的玫瑰,莫里斯被野兽囚禁了起来,得知此消息的贝儿赶到城堡,要求和父亲作交换。就这样,贝儿开始了和野兽的同居生活。在会说话的茶壶太太(艾玛·汤普森 Emma Thompson 饰)、烛台卢米亚(伊万·麦克格雷格 Ewan McGregor 饰)和时钟葛士华(伊恩·麦克莱恩 Ian McKellen 饰)的照顾和帮助下,贝儿渐渐发现,野兽在丑陋的外表下,隐藏了一颗善良温柔的心。实际上,野兽的真实身份是一位王子,因受到了女巫的诅咒而沦落至此,而贝儿,是解除诅咒最后的,也是唯一的希望。
/ O# s6 ^+ q, l
% I" R8 X7 `# {' [
# @( W3 ^9 s4 A8 M$ a1 H3 [  s6 v2 ~4 j7 x

& I5 w) H* O1 N) R- i◎获奖情况
" l$ s6 R! C# u# ?  R" r% d( f2 i& }; w& ]; N2 |

( I: B3 t: v7 Z' d" _* p
; r% D$ P- O' N  e2 N8 J; O; N
3 b( Q8 n5 D- N" y3 g  第26届MTV电影奖  (2017)
) n4 Q$ y0 d. c0 e/ G- N
! `# J, u8 [6 O, z  MTV电影奖 年度电影
2 S* N4 A# J# [" Z" Z) S9 Z8 N, J1 \, q. a$ ~2 A
  MTV电影奖 最佳表演 艾玛·沃森0 b' N6 @$ i$ Y. T3 k

0 x7 {+ b( p) S  MTV电影奖 最佳吻戏(提名) 艾玛·沃森 / 丹·史蒂文斯$ Q, m9 Q+ B) k4 r' `. R$ C& m

8 o2 R4 w# I. {* U+ `* a  MTV电影奖 最佳银幕组合(提名) 卢克·伊万斯 / 乔什·加德
0 H, `) D* t3 W' v+ U: P5 \7 b$ s1 Q

9 y9 _; b& C7 X& T1 ]1 T5 Z1 ~$ @9 q' g
, b& ^4 @( J- S9 F  j
Video8 J3 x' r0 Z+ W* C" ^) j  b
ID                                       : 13 F3 b  m2 g! V) [7 ~6 l
Format                                   : AVC
" n! [, `5 g& l! n/ n; w: O: WFormat/Info                              : Advanced Video Codec2 v/ J' ~) _$ ^3 J
Format profile                           : High@L4.1$ x, |1 h- u* x7 O( W# s$ @
Format settings, CABAC                   : Yes
/ h3 d; H$ t2 P1 n: E- a* P7 DFormat settings, ReFrames                : 4 frames
# j% _) I+ b! e, G) TCodec ID                                 : avc18 A, S" ]1 @+ E( N' Q
Codec ID/Info                            : Advanced Video Coding
2 R- y7 P# |1 u& ~Duration                                 : 2h 4mn
% k" t/ @, Z7 I- q. OBit rate                                 : 4 500 Kbps! @  e8 \' W; J8 ]3 ]" A+ M- h
Width                                    : 1 920 pixels" I4 }- [7 S1 E  B0 R: Y2 V
Height                                   : 800 pixels) Z/ o% w8 L5 U; \; w' U
Display aspect ratio                     : 2.40:1# o) ?% @; c. B
Frame rate mode                          : Constant
& i, m: b8 c, m# P. g+ ?+ IFrame rate                               : 25.000 fps
# Q* n' |2 K) U+ sColor space                              : YUV4 I2 S/ H- i: b" t7 k' A
Chroma subsampling                       : 4:2:0
8 |0 c) I1 c- I- y  u( z$ PBit depth                                : 8 bits2 B" b% K7 O; \! k  K
Scan type                                : Progressive8 p; r3 @8 k) D6 w% C
Bits/(Pixel*Frame)                       : 0.117
; L# O" `1 q7 X3 ^3 V$ f& w- HStream size                              : 3.92 GiB (95%)
5 ~' A6 Q8 u4 G) R" H: P7 GTitle                                    : Beauty.and.the.Beast.2017.1080p.HC.WEBRip.x264.AAC2.0-STUTTERSHIT
0 Y0 `1 v! s0 M, R5 tWriting library                          : x264 core 148 r2597M e86f3a1
7 y6 r; e) K% J4 k# f6 a7 TEncoding settings                        : cabac=1 / ref=4 / deblock=1:0:0 / analyse=0x3:0x113 / me=umh / subme=8 / psy=1 / psy_rd=1.00:0.00 / mixed_ref=1 / me_range=16 / chroma_me=1 / trellis=1 / 8x8dct=1 / cqm=0 / deadzone=21,11 / fast_pskip=1 / chroma_qp_offset=-2 / threads=40 / lookahead_threads=6 / sliced_threads=0 / nr=0 / decimate=1 / interlaced=0 / bluray_compat=0 / constrained_intra=0 / bframes=3 / b_pyramid=2 / b_adapt=2 / b_bias=0 / direct=3 / weightb=1 / open_gop=0 / weightp=2 / keyint=250 / keyint_min=25 / scenecut=40 / intra_refresh=0 / rc_lookahead=50 / rc=abr / mbtree=1 / bitrate=4500 / ratetol=1.0 / qcomp=0.60 / qpmin=0 / qpmax=69 / qpstep=4 / ip_ratio=1.40 / aq=1:1.00
( ~8 `1 U" z7 i& i4 p
( a" [8 T, f. }+ i3 e! f* aAudio& R& u% G" k* H2 k, R
ID                                       : 2
$ P' V* t0 ^& v1 r, PFormat                                   : AAC
+ O1 w) V" N# ~- S; D1 QFormat/Info                              : Advanced Audio Codec
  Q! B( v/ k4 y5 x# X) rFormat profile                           : LC
9 B, @( q* ]: G7 xCodec ID                                 : 40
6 D- t: B5 J' G6 `" IDuration                                 : 2h 4mn  {; e! t4 q$ Q* h. E5 j% ]
Duration_LastFrame                       : 32ms
* S3 U5 a8 z  A' X4 Y5 [1 KBit rate mode                            : Constant
7 @! J' w+ S- fBit rate                                 : 224 Kbps
) |8 [+ f- ]0 W, V5 }; M) _Channel(s)                               : 2 channels
2 q) r( O! s* J% R2 u+ p! V5 M: gChannel positions                        : Front: L R* z& Z# H. a$ G
Sampling rate                            : 48.0 KHz
  N0 X8 `. D" k4 V3 ?. t+ CFrame rate                               : 46.875 fps (1024 spf)$ e2 N2 @7 S+ l
Compression mode                         : Lossy) P! E2 {0 y: v3 S2 w; E2 a
Stream size                              : 199 MiB (5%)  H  S1 w+ f$ b) s0 T2 p
Title                                    : Beauty.and.the.Beast.2017.1080p.HC.WEBRip.x264.AAC2.0-STUTTERSHIT$ g. ?% i- c  K( ^- }" O
Default                                  : Yes
2 ^( f7 V% {2 ]# B+ E# S! S% IAlternate group                          : 1
  {3 Q0 Y0 w1 G 1.png

美女與野獸 MKV.torrent

82.99 KB, 下載次數: 1314

尚未簽到

發表於 2017-5-19 23:04:06 | 顯示全部樓層
絕對的好貼!謝謝啊!逐字逐圖地看完這個帖子以後,我的心久久不能平靜,感恩啊!

尚未簽到

發表於 2017-5-20 13:44:58 | 顯示全部樓層
這個我收藏了!謝謝分享!WK的資源越來越豐富,這少不了大大的辛勞!

尚未簽到

發表於 2017-5-20 14:47:15 來自手機 | 顯示全部樓層
偶像^^小生一直都在關注你的原創!小生對你之仰慕如滔滔江水連綿不絕!

尚未簽到

發表於 2017-5-20 16:46:51 | 顯示全部樓層
很讚的文章,謝謝咯!相信WK因為有你而更加精彩!

尚未簽到

發表於 2017-5-20 19:12:17 | 顯示全部樓層
感謝大大的辛勞分享!我會繼續在WK關注大大的文章!

尚未簽到

發表於 2017-5-21 01:08:27 來自手機 | 顯示全部樓層
感謝大大的辛勞分享!我會繼續在WK關注大大的文章!

尚未簽到

發表於 2017-5-21 14:24:37 | 顯示全部樓層
這個我收藏了!謝謝分享!WK的資源越來越豐富,這少不了大大的辛勞!

尚未簽到

發表於 2017-5-21 15:18:29 | 顯示全部樓層
偶像^^小生一直都在關注你的原創!小生對你之仰慕如滔滔江水連綿不絕!

尚未簽到

發表於 2017-5-21 17:40:15 來自手機 | 顯示全部樓層
感謝大大的辛勞分享!我會繼續在WK關注大大的文章!

回復樓主 親!! 早上好! 心底有WK、心情就會飛翔,心中要個希望、笑容就會清爽!

 分享同時學會感恩,一句感謝的話語,就是最大的支持!  歡迎交流討論
您需要登錄後才可以回帖 登錄 | 立即注册

本版積分規則


c重要聲明:本論壇是以即時上載言論的方式運作,WK論壇對所有言論的真實性、立場及版權等,不負任何法律責任。而一切言論只代表發佈者個人意見,並非本網站之立場,讀者及用戶務必自行判斷內容之真實性。 由於本論壇受到「即時上載言論」運作方式所規限,故不能完全監察所有言論,若讀者及用戶發現有內容出現「真實性、立場及版權」等問題,請聯絡我們:info@waikeung.net論壇有權刪除任何言論(刪除前或不會作事先警告及通知 )。

發表新帖 返回頂部