WK綜合論壇, WK综合论坛

查看:28857 回復:25 發表於 2017-5-21 17:40:15
累計簽到︰1381 天
連續簽到︰10 天
發表於 2017-5-19 23:03:07 | 顯示全部樓層 |閱讀模式

美女與野獸 Beauty.and.the.Beast, 2017.[MKV / 4.12G] 内含中字幕 [複製鏈接]

影視分享
分類: 電影
題材: 愛情 
地區: 美國 
語言: 英语 
格式: MKV 
年份: 2017
資源: BT资源

1 b7 z0 R) ~( S) d# S' X◎译  名 美女与野兽% e" m' H# s! w' Z( s9 v( ^
0 W* U* _, X- `$ q
◎片  名 Beauty and the Beast
& F8 {/ I- n; B, w+ x# B* o1 P5 L  Q: k
◎年  代 20170 O% V4 i7 B# f. C# @9 z3 o' r
& z" R; B( d8 G1 D! s: g6 w
◎产  地 美国
  p: c1 q: U, }& ^
8 _. I8 |2 a( b7 r0 |4 z" N! x◎类  别 爱情/奇幻/歌舞
0 D) E# M' H* D! h# R! ^) d' G) s9 P* f5 \
◎语  言 英语
/ _( j# _4 Y! h! @8 Q' s4 _2 q5 C* q) @
◎上映日期 2017-03-17(中国大陆)/2017-03-17(美国)) D( h( ~. F3 N
% i4 l9 O% o, u
◎IMDb评分  7.7/10 from 99,319 users
* j) Z+ W3 F5 p+ d# k4 _; G3 o* m' b% K) O8 K
◎IMDb链接  http://www.imdb.com/title/tt2771200/
3 m; e& v7 W( d9 {+ D: U$ U( x% w- M1 F
; C! O3 x, t, H◎豆瓣评分 7.4/10 from 112,850 users" [$ D+ d# z# |" Y

% {4 |8 A8 I6 B- |2 i% V◎豆瓣链接 https://movie.douban.com/subject/25900945/
, n1 I& _; `( R- D& C4 S# N
) \: K- H0 {8 U5 C) Y- ]◎BT之家整理 http://www.btbtt.co
& z" u; t; \% ?! i, S' I1 I, y) i' n5 q- K0 e; s
◎片  长 130分钟
; j& u: j. b2 [* n# y' @% N5 B
◎导  演 比尔·康顿 Bill Condon" g2 w+ y2 [$ r

# z- C6 `# f$ {◎主  演 艾玛·沃森 Emma Watson( u# u) m/ ]: \) w3 Y

, O' Z  e/ s1 \" n7 ~! h0 _      丹·史蒂文斯 Dan Stevens
& A7 r- ~8 Z" S$ x+ w. a7 S/ j
  V5 B. v* w; _& Q' s3 x' A      卢克·伊万斯 Luke Evans
4 P8 [" A& M) Z; a- z  v- r2 b! t0 U0 X# G
      凯文·克莱恩 Kevin Kline
' k: r  H/ _7 H$ s
+ Y# v1 w: `6 x, i+ j- V( V      乔什·盖德 Josh Gad8 r  J' c! y" g4 l

7 h$ ]; A/ k- ~, Z9 _. \      伊万·麦克格雷格 Ewan McGregor* E  I7 u. n6 e3 e7 B" W- k/ t6 H9 P

; I- W* h" T+ ~: e5 n      伊恩·麦克莱恩 Ian McKellen$ V" M5 ~2 ^3 }2 V

+ s8 c6 T# [) l/ j& n* t      艾玛·汤普森 Emma Thompson8 C! u, `: f' O) ~/ Y/ L0 r8 b" M
. E5 F( j! B. P& Z
      斯坦利·图齐 Stanley Tucci, |4 Q' N: S- v" x; {  d8 J$ l

& }1 M2 M# G  }* i; d* F8 D      古古·姆巴塔-劳 Gugu Mbatha-Raw
9 g7 g  H1 H( i" @: _. C, n1 k: |& S: _! V
      奥德拉·麦当娜 Audra McDonald
+ A8 S3 J( N( n6 m/ G
/ c0 u( h! W8 X% j; R/ s+ [* d      内森·麦克 Nathan Mack
* W1 c# `) L( T* \5 v9 @3 g- m1 ?$ I# v# j2 A) f3 z; C, @
      哈蒂·莫拉汉 Hattie Morahan5 w+ }" |& c# u3 k# @( X
2 v7 ]9 U$ }- R" I- H+ L
      迈克尔·吉普森 Michael Jibson1 W4 I" b$ r' ], L. S

3 ~) K0 N5 Q% F7 R6 X      水野索诺娅 Sonoya Mizuno# v7 J6 ^4 _) K: j1 t! g

9 k& D6 Y$ M" A' T. M      亨利·加勒特 Henry Garrett; T4 y; {% G' d/ I. m5 }

, q- \/ W+ `  M) D! {5 M      戴尔·布兰斯顿 Dale Branston
: N5 ^. B# b4 ^9 U9 ~0 r- e
" t+ d/ g3 _" X% h  B+ f
0 }+ {$ T' c2 V/ h  c
( b, I: {$ c) w- j) F6 B7 U# h, Z0 J
◎简  介
- S" E/ C; z1 z" |. g3 e) m+ C# F
" ?4 k/ U0 T; n8 c$ o1 p- Y$ q; y) n3 N7 u* w, m

( w. O7 y+ Z* G0 y
; Y# U9 M; J( i  贝儿(艾玛·沃森 Emma Watson 饰)和小镇上的其他女孩不同,是一个热爱阅读和幻想的姑娘,孔武有力英俊强壮的加斯顿(卢克·伊万斯 Luke Evans 饰)发誓要娶贝儿为妻,但贝儿却一眼看穿了他的自私和虚伪,拒不从命。某日,贝儿的父亲莫里斯(凯文·克莱恩 Kevin Kline 饰)迷路误打误撞之下来到了一座荒凉破败的城堡中,那里居住着样貌可怖半人半兽的野兽(丹·史蒂文斯 Dan Stevens 饰)。+ \8 _, t% E$ m: @+ c

4 d& A3 g/ [8 v+ X: F2 w9 H" y  因为偷摘了城堡里种植的玫瑰,莫里斯被野兽囚禁了起来,得知此消息的贝儿赶到城堡,要求和父亲作交换。就这样,贝儿开始了和野兽的同居生活。在会说话的茶壶太太(艾玛·汤普森 Emma Thompson 饰)、烛台卢米亚(伊万·麦克格雷格 Ewan McGregor 饰)和时钟葛士华(伊恩·麦克莱恩 Ian McKellen 饰)的照顾和帮助下,贝儿渐渐发现,野兽在丑陋的外表下,隐藏了一颗善良温柔的心。实际上,野兽的真实身份是一位王子,因受到了女巫的诅咒而沦落至此,而贝儿,是解除诅咒最后的,也是唯一的希望。
1 N: E  P& |6 w8 C! t, {" B9 C+ Y- M
9 R. A$ @& C: b. f5 |
1 G" [6 F' K( X: U( {) d
2 R6 ~' U# K/ v/ O! \3 x" A6 v0 v7 L$ S3 \+ r
◎获奖情况" Q" y6 _+ @. I' n, K3 q8 H, l: z/ p
9 \& n$ ]+ F' W* N* `
* a6 x2 Q7 o3 K- Y' a+ Y
5 X' @9 a6 m" u0 K0 l6 X

: j) [, f8 T* G5 O: b  第26届MTV电影奖  (2017)2 D+ r/ Q5 p; }5 J
: F- u) a5 x9 V+ j: C2 h( Y
  MTV电影奖 年度电影
# b5 p) s. Q  `+ h) ]2 B! ]2 f
1 l: _& c4 p! u  MTV电影奖 最佳表演 艾玛·沃森
0 T# U3 }$ m" J0 A7 b! ?. _/ M. @. Y
  MTV电影奖 最佳吻戏(提名) 艾玛·沃森 / 丹·史蒂文斯3 t$ K1 R3 m  u

+ W3 s7 }6 h9 X, ~0 q6 i* P: F% p  MTV电影奖 最佳银幕组合(提名) 卢克·伊万斯 / 乔什·加德! h2 F' u' m5 B9 Q/ C
5 E; B1 u) P  ]% V; q. F; d8 h

1 D) P+ n, L9 q; b: U& I: S& D) e9 |; i8 N! M- D
) ^6 V0 c) B0 ~" x; T
Video
% v7 j) c# ^' wID                                       : 1- O7 z, a) O* S; O0 y
Format                                   : AVC
* v; A2 \: R- X1 TFormat/Info                              : Advanced Video Codec7 l7 \  `3 F' F2 x# N+ V
Format profile                           : High@L4.1
  e- @, T9 C5 M: Z( uFormat settings, CABAC                   : Yes. I& D- r+ q0 w9 c
Format settings, ReFrames                : 4 frames/ K3 B2 D9 J% R. E$ `
Codec ID                                 : avc1
( _. j0 ^9 S" D' A  @3 p8 |Codec ID/Info                            : Advanced Video Coding
2 f  X$ d# P; r  WDuration                                 : 2h 4mn
& o3 {( h0 {  W5 c" ]$ t5 ABit rate                                 : 4 500 Kbps5 p( x2 i4 ?" A! Q" F
Width                                    : 1 920 pixels
5 `! W# g4 Q8 r" ?3 E. VHeight                                   : 800 pixels
2 E$ F+ `" j1 |* {5 {2 }Display aspect ratio                     : 2.40:1
- L0 b$ _5 ]$ Z; P9 C- t* N( r# _, oFrame rate mode                          : Constant
+ W% w; s! O  M' V8 B: R5 M3 A& }Frame rate                               : 25.000 fps
/ I# Z* ^: f. u" MColor space                              : YUV
  ~& J4 i! @  A: k1 ?Chroma subsampling                       : 4:2:0# s$ I6 K& W8 [9 G( I" ?
Bit depth                                : 8 bits
* @( u! h3 y3 h- d8 SScan type                                : Progressive3 r3 K1 j/ q& D9 {: `
Bits/(Pixel*Frame)                       : 0.117
0 Q2 }- Z  z5 A! D6 x0 ~( \Stream size                              : 3.92 GiB (95%)" _) q0 |1 Z9 R' T- p
Title                                    : Beauty.and.the.Beast.2017.1080p.HC.WEBRip.x264.AAC2.0-STUTTERSHIT; @3 r7 R. W3 n4 J. ]
Writing library                          : x264 core 148 r2597M e86f3a1
* p* [1 e+ O* oEncoding settings                        : cabac=1 / ref=4 / deblock=1:0:0 / analyse=0x3:0x113 / me=umh / subme=8 / psy=1 / psy_rd=1.00:0.00 / mixed_ref=1 / me_range=16 / chroma_me=1 / trellis=1 / 8x8dct=1 / cqm=0 / deadzone=21,11 / fast_pskip=1 / chroma_qp_offset=-2 / threads=40 / lookahead_threads=6 / sliced_threads=0 / nr=0 / decimate=1 / interlaced=0 / bluray_compat=0 / constrained_intra=0 / bframes=3 / b_pyramid=2 / b_adapt=2 / b_bias=0 / direct=3 / weightb=1 / open_gop=0 / weightp=2 / keyint=250 / keyint_min=25 / scenecut=40 / intra_refresh=0 / rc_lookahead=50 / rc=abr / mbtree=1 / bitrate=4500 / ratetol=1.0 / qcomp=0.60 / qpmin=0 / qpmax=69 / qpstep=4 / ip_ratio=1.40 / aq=1:1.00  h5 a% j  f- t( z& u0 c. v  z

/ c6 W3 S2 V2 r7 _* L2 ^Audio3 b4 \/ s4 y5 n+ E' U/ \6 [
ID                                       : 2
1 J" r( N9 W' k: K3 X1 CFormat                                   : AAC/ x+ E% S% c/ r7 t
Format/Info                              : Advanced Audio Codec2 w* |# a  H% }/ q8 f2 S
Format profile                           : LC; a% Z; O$ S6 E2 Y$ G
Codec ID                                 : 40
- _- A$ o0 I8 g+ z. lDuration                                 : 2h 4mn) R* L* C0 `/ k1 y; {4 k
Duration_LastFrame                       : 32ms0 k0 a' Z3 }5 o
Bit rate mode                            : Constant: r7 E* G$ a9 S# O/ n* f
Bit rate                                 : 224 Kbps. F) I+ @: V9 X) |9 M
Channel(s)                               : 2 channels; K7 z6 \1 D# b! I( e
Channel positions                        : Front: L R. H" y2 p) j' b% i* k. k
Sampling rate                            : 48.0 KHz% c3 A) ?- ?0 o( |
Frame rate                               : 46.875 fps (1024 spf)3 ]; z6 V' Y( `- c8 J0 D
Compression mode                         : Lossy
1 F/ J! M' {0 w: w. r' XStream size                              : 199 MiB (5%)
5 K  Q2 ]' }4 j; y3 iTitle                                    : Beauty.and.the.Beast.2017.1080p.HC.WEBRip.x264.AAC2.0-STUTTERSHIT
9 }* u2 [# s% }$ a1 [# UDefault                                  : Yes8 S0 P' q4 q" H- _
Alternate group                          : 1
8 k+ R! Z5 D8 V5 ]: g7 [ 1.png

美女與野獸 MKV.torrent

82.99 KB, 下載次數: 1315

尚未簽到

發表於 2017-5-19 23:04:06 | 顯示全部樓層
絕對的好貼!謝謝啊!逐字逐圖地看完這個帖子以後,我的心久久不能平靜,感恩啊!

尚未簽到

發表於 2017-5-20 13:44:58 | 顯示全部樓層
這個我收藏了!謝謝分享!WK的資源越來越豐富,這少不了大大的辛勞!

尚未簽到

發表於 2017-5-20 14:47:15 來自手機 | 顯示全部樓層
偶像^^小生一直都在關注你的原創!小生對你之仰慕如滔滔江水連綿不絕!

尚未簽到

發表於 2017-5-20 16:46:51 | 顯示全部樓層
很讚的文章,謝謝咯!相信WK因為有你而更加精彩!

尚未簽到

發表於 2017-5-20 19:12:17 | 顯示全部樓層
感謝大大的辛勞分享!我會繼續在WK關注大大的文章!

尚未簽到

發表於 2017-5-21 01:08:27 來自手機 | 顯示全部樓層
感謝大大的辛勞分享!我會繼續在WK關注大大的文章!

尚未簽到

發表於 2017-5-21 14:24:37 | 顯示全部樓層
這個我收藏了!謝謝分享!WK的資源越來越豐富,這少不了大大的辛勞!

尚未簽到

發表於 2017-5-21 15:18:29 | 顯示全部樓層
偶像^^小生一直都在關注你的原創!小生對你之仰慕如滔滔江水連綿不絕!

尚未簽到

發表於 2017-5-21 17:40:15 來自手機 | 顯示全部樓層
感謝大大的辛勞分享!我會繼續在WK關注大大的文章!

回復樓主 親!! 下午好,中午養足了精神嗎?讓我們一起渡過下午茶時間,WK有您更精彩!

 分享同時學會感恩,一句感謝的話語,就是最大的支持!  歡迎交流討論
您需要登錄後才可以回帖 登錄 | 立即注册

本版積分規則

c重要聲明:本論壇是以即時上載言論的方式運作,WK論壇對所有言論的真實性、立場及版權等,不負任何法律責任。而一切言論只代表發佈者個人意見,並非本網站之立場,讀者及用戶務必自行判斷內容之真實性。 由於本論壇受到「即時上載言論」運作方式所規限,故不能完全監察所有言論,若讀者及用戶發現有內容出現「真實性、立場及版權」等問題,請聯絡我們:info@waikeung.net論壇有權刪除任何言論(刪除前或不會作事先警告及通知)| SiteMap[網站地圖]

發表新帖 返回頂部