WK綜合論壇, WK综合论坛

查看:28789 回復:25 發表於 2017-5-21 17:40:15
本主題由 212love 於 2017-5-21 09:58 解除高亮
累計簽到︰1192 天
連續簽到︰1 天
發表於 2017-5-19 23:03:07 | 顯示全部樓層 |閱讀模式

美女與野獸 Beauty.and.the.Beast, 2017.[MKV / 4.12G] 内含中字幕 [複製鏈接]

影視分享
分類: 電影
題材: 愛情 
地區: 美國 
語言: 英语 
格式: MKV 
年份: 2017
資源: BT资源

3 T# ]  r$ ]% k# o2 `9 R◎译  名 美女与野兽
; U: k: n) V$ n5 h4 S' j* b2 A
& e, Y5 ~3 v. ?% I3 v◎片  名 Beauty and the Beast' p) `- M! g/ v- s
6 b* w  A& e' |2 L0 [" ~1 G
◎年  代 2017: `/ ^0 c5 w( r" L) U, j

* @% r. Q% q# j& h◎产  地 美国
1 Z1 }; w9 U3 S9 N' m+ J
7 x$ d: \' X0 L( W. h9 k' [# E  K◎类  别 爱情/奇幻/歌舞, ]6 r. p' D8 i6 e9 ?  A
) r7 p2 ^* Q3 m. K2 A* V
◎语  言 英语- s1 q! a1 z0 K/ E" n; D+ Q! S& n
) }2 Z+ Y- F5 ^' n+ I
◎上映日期 2017-03-17(中国大陆)/2017-03-17(美国)/ O# K9 V& ~5 Q4 n' o
/ q0 H6 q8 D  L* J: {9 a
◎IMDb评分  7.7/10 from 99,319 users8 l0 d9 }2 U5 Z" t1 f+ N" i
+ T2 }1 p/ E3 [- Y+ N2 J
◎IMDb链接  http://www.imdb.com/title/tt2771200/5 |8 {/ O* d4 s* |0 r' n

7 Y) @) e* G! j/ t, T' Z7 ?- D: D◎豆瓣评分 7.4/10 from 112,850 users
# V1 g+ o4 p  i3 E( n7 M0 e- K
' h. @& u, a( Y: |$ \◎豆瓣链接 https://movie.douban.com/subject/25900945/
  |1 c6 M" ~# e  p8 \% t- O
7 A5 ^! v2 u4 @) r+ H0 t◎BT之家整理 http://www.btbtt.co: ^/ {5 I$ ?; y/ ?8 b1 `/ k
9 {* Q* _0 ~+ g
◎片  长 130分钟7 \1 [' M! `( W* f7 f1 e% _- l

" M/ W5 D# X1 f: m) l9 ~◎导  演 比尔·康顿 Bill Condon
' F% m$ f( B$ ], v1 d2 Z% O) L4 c* |* o* O5 s
◎主  演 艾玛·沃森 Emma Watson
# h: \+ D; Q- j& k: {. P. F) [/ Y" K8 q1 \8 J0 k* b) _7 I
      丹·史蒂文斯 Dan Stevens  t2 j$ @9 F8 }5 W" u0 E7 U( C, t4 F
* O+ l( p1 a& f& F" s1 U
      卢克·伊万斯 Luke Evans
# q" l6 B8 @' q  `
* t  p/ X& O! H* _! C) T      凯文·克莱恩 Kevin Kline
" }. l- c9 X, `+ _6 }
) O/ o) k# d  C7 _* e. x      乔什·盖德 Josh Gad/ u* W" d6 H$ m7 c# \) S" A

# C1 d% [& W9 b      伊万·麦克格雷格 Ewan McGregor
5 {0 |7 r. o4 N8 S: R) d4 F
/ l1 d1 c% \. A6 h/ }0 t3 _; ~      伊恩·麦克莱恩 Ian McKellen
* h. j& G# {+ r/ b& ~" U9 v4 e3 @/ Q! r! t. P/ o
      艾玛·汤普森 Emma Thompson: U5 M5 f: e% h! c/ X, {
. j9 u2 t6 t+ n" E8 P% [- E5 g3 G2 I
      斯坦利·图齐 Stanley Tucci
  O& n1 r! y" m1 E+ M3 {  u; p9 Y) b1 I+ }3 {
      古古·姆巴塔-劳 Gugu Mbatha-Raw
$ \' |+ r0 l. w6 `2 l# W. w7 u0 |( v* c; s' `' |! D
      奥德拉·麦当娜 Audra McDonald
' V  h: A9 W8 w% K
  H# }6 ?( z. h      内森·麦克 Nathan Mack( H1 S- ]/ g  ^. P

! O" ?6 d. @8 z  o& e7 c8 b) u      哈蒂·莫拉汉 Hattie Morahan
) e5 u: Y; t- a6 ?
4 i, J+ A+ C5 B      迈克尔·吉普森 Michael Jibson
1 S- Q+ R4 x# _$ z) K- R& f7 W  I" P6 I' f, I0 U! D
      水野索诺娅 Sonoya Mizuno
' ^: K9 [/ t( l/ a" |; C' y* o6 n" X' p! Y: o
      亨利·加勒特 Henry Garrett2 z- e/ ?" g, O. X* _

8 A& A  t. q* ^: e9 B0 x% j      戴尔·布兰斯顿 Dale Branston
0 W3 ^8 k* _, {% W4 k) N/ N0 {

' d- _* Z- B1 G) [& ?# Z3 n. }: i$ m$ p& X6 `; [9 r$ Q1 _

' i% J; Y! r8 }' h◎简  介. S4 w8 G/ \2 I! Z2 ~

% |  R9 |* O* l# E' S. b
7 y+ A2 U$ w8 @- _
. I4 s) ~+ ]. {5 m
; b, O  t% K( M  贝儿(艾玛·沃森 Emma Watson 饰)和小镇上的其他女孩不同,是一个热爱阅读和幻想的姑娘,孔武有力英俊强壮的加斯顿(卢克·伊万斯 Luke Evans 饰)发誓要娶贝儿为妻,但贝儿却一眼看穿了他的自私和虚伪,拒不从命。某日,贝儿的父亲莫里斯(凯文·克莱恩 Kevin Kline 饰)迷路误打误撞之下来到了一座荒凉破败的城堡中,那里居住着样貌可怖半人半兽的野兽(丹·史蒂文斯 Dan Stevens 饰)。
5 f5 ~# j. H. a+ X0 D
! T' s( w: N: Q: F- N  因为偷摘了城堡里种植的玫瑰,莫里斯被野兽囚禁了起来,得知此消息的贝儿赶到城堡,要求和父亲作交换。就这样,贝儿开始了和野兽的同居生活。在会说话的茶壶太太(艾玛·汤普森 Emma Thompson 饰)、烛台卢米亚(伊万·麦克格雷格 Ewan McGregor 饰)和时钟葛士华(伊恩·麦克莱恩 Ian McKellen 饰)的照顾和帮助下,贝儿渐渐发现,野兽在丑陋的外表下,隐藏了一颗善良温柔的心。实际上,野兽的真实身份是一位王子,因受到了女巫的诅咒而沦落至此,而贝儿,是解除诅咒最后的,也是唯一的希望。" a0 m" i) c* q; n5 `% v
% I/ G1 `9 V# Z* ^3 L) \

/ n! h  z0 A6 y! r4 M- L0 B" z: M) q7 }9 F* S4 m  [8 [- a2 _3 }; T
# F. L  O% O. c
◎获奖情况
( S" \/ D( T6 O" i- r9 F) R5 p, u! x
' Z6 y5 ^3 D+ ^. N( \+ {
" e, {$ u& A" Q% g" P, ~

9 y( ^3 k3 k. \+ ~; x! w+ Q- K  B  第26届MTV电影奖  (2017)6 }+ k% f' m: s5 Y. w8 e7 P
+ T1 P' J& o) b
  MTV电影奖 年度电影
5 u( \- |9 T7 I  @5 n8 U; \$ q
& y1 @2 Q  ]' q  MTV电影奖 最佳表演 艾玛·沃森
. y! Z0 V- M, J" ]" O7 u4 C7 Y% f5 @0 U
  MTV电影奖 最佳吻戏(提名) 艾玛·沃森 / 丹·史蒂文斯, B( V" f* W* k

4 {$ m: k3 Z/ P5 B' [) [  MTV电影奖 最佳银幕组合(提名) 卢克·伊万斯 / 乔什·加德
+ H0 B+ m! d1 U3 z" i3 d+ p" M7 L" V
0 I) y5 b* Q5 U# }# }' k. @& Y
2 P8 V- v- I! E7 s

: i" _& b, [" b( [% aVideo
( k6 e! N2 j( c/ TID                                       : 1
, R. U* |$ F' G, vFormat                                   : AVC
2 Q, O1 n5 U$ S& N1 [- w$ n8 [Format/Info                              : Advanced Video Codec7 J2 X+ t* _0 X0 d+ i
Format profile                           : High@L4.1
- Q+ p4 k0 X% Y- {7 C9 L- kFormat settings, CABAC                   : Yes/ m9 M; z( H+ x$ _) w. m1 W% C; I2 G
Format settings, ReFrames                : 4 frames
' D  @- S2 @; P& TCodec ID                                 : avc1
3 H9 Q2 S0 G5 x4 k  I# LCodec ID/Info                            : Advanced Video Coding
/ W5 j6 h) T# S1 ~( s2 D# ADuration                                 : 2h 4mn7 P3 K/ A8 n6 z3 p
Bit rate                                 : 4 500 Kbps& Q4 v* [$ d0 O8 |
Width                                    : 1 920 pixels
# @* q7 w- l/ l) L: e0 r7 E  RHeight                                   : 800 pixels& F2 l& A7 l+ _; h& N
Display aspect ratio                     : 2.40:1! K& d* {& d2 ^7 G
Frame rate mode                          : Constant! _8 |+ E& C6 {) w6 V
Frame rate                               : 25.000 fps
( U* ~1 v0 L: i7 F+ ZColor space                              : YUV% O. r% D5 l9 a' b
Chroma subsampling                       : 4:2:00 V+ u/ ?( |/ A! Z+ N: c
Bit depth                                : 8 bits" K- u- w, M8 g: Y/ w9 i9 u' H: _
Scan type                                : Progressive
) d* ]. d' a( @/ bBits/(Pixel*Frame)                       : 0.1177 J$ G9 ]1 p3 f% M' |
Stream size                              : 3.92 GiB (95%)
4 Y; O  V" h' O5 y9 u& l5 X$ \Title                                    : Beauty.and.the.Beast.2017.1080p.HC.WEBRip.x264.AAC2.0-STUTTERSHIT
. @  I! d3 B; v% jWriting library                          : x264 core 148 r2597M e86f3a14 I5 L- n2 Z5 A
Encoding settings                        : cabac=1 / ref=4 / deblock=1:0:0 / analyse=0x3:0x113 / me=umh / subme=8 / psy=1 / psy_rd=1.00:0.00 / mixed_ref=1 / me_range=16 / chroma_me=1 / trellis=1 / 8x8dct=1 / cqm=0 / deadzone=21,11 / fast_pskip=1 / chroma_qp_offset=-2 / threads=40 / lookahead_threads=6 / sliced_threads=0 / nr=0 / decimate=1 / interlaced=0 / bluray_compat=0 / constrained_intra=0 / bframes=3 / b_pyramid=2 / b_adapt=2 / b_bias=0 / direct=3 / weightb=1 / open_gop=0 / weightp=2 / keyint=250 / keyint_min=25 / scenecut=40 / intra_refresh=0 / rc_lookahead=50 / rc=abr / mbtree=1 / bitrate=4500 / ratetol=1.0 / qcomp=0.60 / qpmin=0 / qpmax=69 / qpstep=4 / ip_ratio=1.40 / aq=1:1.008 u1 [! K# @* s5 S; D8 C. e8 k
& c8 U# N# N6 e& J5 J0 K
Audio  h- D2 _+ b/ o/ o
ID                                       : 2
  ~" a. U- m( ?Format                                   : AAC
. Q5 Q6 Z) |; M( u+ t2 J! _Format/Info                              : Advanced Audio Codec8 a# x4 z" D- O! ?4 p
Format profile                           : LC- W& I( B6 N; V1 k& c
Codec ID                                 : 40
: `) p4 k. _, U, S1 R; rDuration                                 : 2h 4mn
: t+ x/ N+ ]6 q; fDuration_LastFrame                       : 32ms# B+ O3 P0 T* g% q# P! R% _3 F
Bit rate mode                            : Constant3 A) Y( v7 [+ q
Bit rate                                 : 224 Kbps
. }: C" Y8 C8 B) V1 B0 F- S' i, o# cChannel(s)                               : 2 channels6 y$ w2 ~" R* I& Y% V. f1 |$ A, ~( s$ }
Channel positions                        : Front: L R
2 f! n7 K- P% L6 x7 C4 L, e/ VSampling rate                            : 48.0 KHz- P  o# L4 _: }
Frame rate                               : 46.875 fps (1024 spf)
- l5 t$ M; _& M" m4 y6 P3 }Compression mode                         : Lossy
9 i' P1 N; ]% N& r& JStream size                              : 199 MiB (5%): i7 S; y( ^0 G
Title                                    : Beauty.and.the.Beast.2017.1080p.HC.WEBRip.x264.AAC2.0-STUTTERSHIT- d2 g' _$ v- H. _7 p( E8 t, u( h
Default                                  : Yes
& |% k* ^: q( y7 p: {# GAlternate group                          : 1' \: j- d: I* H7 A1 a) Q+ s: u
1.png

美女與野獸 MKV.torrent

82.99 KB, 下載次數: 1314

尚未簽到

發表於 2017-5-19 23:04:06 | 顯示全部樓層
絕對的好貼!謝謝啊!逐字逐圖地看完這個帖子以後,我的心久久不能平靜,感恩啊!

尚未簽到

發表於 2017-5-20 13:44:58 | 顯示全部樓層
這個我收藏了!謝謝分享!WK的資源越來越豐富,這少不了大大的辛勞!

尚未簽到

發表於 2017-5-20 14:47:15 來自手機 | 顯示全部樓層
偶像^^小生一直都在關注你的原創!小生對你之仰慕如滔滔江水連綿不絕!

尚未簽到

發表於 2017-5-20 16:46:51 | 顯示全部樓層
很讚的文章,謝謝咯!相信WK因為有你而更加精彩!

尚未簽到

發表於 2017-5-20 19:12:17 | 顯示全部樓層
感謝大大的辛勞分享!我會繼續在WK關注大大的文章!

尚未簽到

發表於 2017-5-21 01:08:27 來自手機 | 顯示全部樓層
感謝大大的辛勞分享!我會繼續在WK關注大大的文章!

尚未簽到

發表於 2017-5-21 14:24:37 | 顯示全部樓層
這個我收藏了!謝謝分享!WK的資源越來越豐富,這少不了大大的辛勞!

尚未簽到

發表於 2017-5-21 15:18:29 | 顯示全部樓層
偶像^^小生一直都在關注你的原創!小生對你之仰慕如滔滔江水連綿不絕!

尚未簽到

發表於 2017-5-21 17:40:15 來自手機 | 顯示全部樓層
感謝大大的辛勞分享!我會繼續在WK關注大大的文章!

回復樓主 親!! 現在是淩晨!妳失眠啦?餓啦?通宵加班?還是想WK啦?

 分享同時學會感恩,一句感謝的話語,就是最大的支持!  歡迎交流討論
您需要登錄後才可以回帖 登錄 | 立即注册

本版積分規則


c重要聲明:本論壇是以即時上載言論的方式運作,WK論壇對所有言論的真實性、立場及版權等,不負任何法律責任。而一切言論只代表發佈者個人意見,並非本網站之立場,讀者及用戶務必自行判斷內容之真實性。 由於本論壇受到「即時上載言論」運作方式所規限,故不能完全監察所有言論,若讀者及用戶發現有內容出現「真實性、立場及版權」等問題,請聯絡我們:info@waikeung.net論壇有權刪除任何言論(刪除前或不會作事先警告及通知 )。

發表新帖 返回頂部