WK綜合論壇, WK综合论坛

查看:7504 回復:13 發表於 2017-10-16 14:23:41
本主題由 212love 於 2017-10-14 10:30 解除高亮
累計簽到︰1409 天
連續簽到︰6 天
發表於 2017-10-12 12:24:18 | 顯示全部樓層 |閱讀模式

卑鄙的我3 Despicable.Me.3.2017,[MKV/3.88G] 國英雙語 [複製鏈接]

影視分享
分類: 電影
題材: 喜劇 冒險 动画 
地區: 美國 
語言: 國語 英语 
格式: MKV 
年份: 2017
資源: BT资源
1.jpg 5 D: ]1 i  h! U8 R
◎译  名 神偷奶爸3/卑鄙的我3/坏蛋奖门人3(港)/神偷奶爸3之小小兵 4 x( ]4 `5 v* ]  x( I. X: w* z4 E
◎片  名 Despicable Me 3
' w6 C# R/ v5 E◎年  代 2017
* Y. H. |2 ]( r% E' }2 ?  u◎产  地 美国 + W8 X" w) L9 ]! s2 m; D. [
◎类  别 喜剧/动画/冒险 , i! J8 f9 T( R$ `8 U
◎语  言   国语/英语
( [8 A$ n$ c$ V# {% X; [4 A◎上映日期 2017-06-14(安锡动画电影节)/2017-06-30(美国)/2017-07-07(中国大陆)
; y# g. Y7 s0 V. _+ L◎IMDb评分  6.3/10 from 37,021 users
3 j' \8 {9 z4 K◎IMDb链接  http://www.imdb.com/title/tt3469046/ 2 K& Y3 J: u- Q1 X. u& J/ C
◎豆瓣评分 6.9/10 from 95,783 users
- L) T, g) H+ \6 y* F3 u◎豆瓣链接   https://movie.douban.com/subject/25812712/
& U6 n8 e+ Y1 G( W. P◎片  长 90分钟 / }3 F0 \$ \$ N9 X
◎导  演 凯·巴达 Kyle Balda / 皮艾·柯芬 Pierre Coffin / 埃里克·吉伦 Eric Guillon ) W1 [  `; j; B: B6 [1 b
◎主  演 史蒂夫·卡瑞 Steve Carell 9 Z2 M: J0 L! R7 Z" ^- `
克里斯汀·韦格 Kristen Wiig
: m5 u* k3 J" _6 ~- w崔·帕克 Trey Parker ! F6 K# h0 V" X
米兰达·卡斯格拉夫 Miranda Cosgrove 8 @6 V* A/ C7 Q7 U2 d
达纳·盖 Dana Gaier : g0 A1 W0 W5 @; y
内芙·沙雷 Nev Scharrel
% M5 l! {0 @" d! _) i* Z+ I皮艾·柯芬 Pierre Coffin # F+ W: f1 A2 W4 A, D
史蒂夫·库根 Steve Coogan * K4 a. D: p- Z( R: K
朱莉·安德鲁斯 Julie Andrews ! j# z' J: w* B
珍妮·斯蕾特 Jenny Slate
$ Y' M' E2 t2 N( ~, z迈克·贝亚蒂 Michael Beattie
  ?" `" W6 H0 }8 u安迪·尼曼 Andy Nyman
8 ^6 k! k% \% I- D" I阿德里安·奇斯卡托 Adrian Ciscato - T. `, Z5 M: K
布莱恩·T·德莱尼 Brian T. Delaney 3 Y$ A4 h# N" {( ]' I( K5 R
肯·道里欧 Ken Daurio , l# Z: N9 f  n7 ^$ j
9 F9 f6 ?' T$ M' M) T
◎简  介 * [& C' f2 @' y
+ c  t, u& k* U3 ]
     《神偷奶爸3》将延续前两部的温馨、搞笑风格,聚焦格鲁和露西的婚后生活,继续讲述格鲁和三个女儿的爆笑故事。“恶棍”奶爸格鲁将会如何对付大反派巴萨扎·布莱德,调皮可爱的小黄人们又会如何耍贱卖萌,疑让全球观众万分期待。该片配音也最大程度沿用前作阵容,史蒂夫·卡瑞继续为男主角格鲁配音,皮埃·柯芬也将继续为经典角色小黄人配音,而新角色巴萨扎·布莱德则由《南方公》主创元老崔·帕克为其配音。
! v  y  H( P' x6 X; U
2 K! K3 m( w0 q/ e: ?# yGeneral 5 V0 [! E* q+ Q& c
Format                         : Matroska
- H1 i' u2 e4 c8 V' UFormat version                 : Version 4 / Version 2
, [/ G& r6 l# @. }/ n, wFile size                      : 3.88 GiB 2 O2 s. n6 A: ?+ Z4 n
Duration                       : 1 h 29 min
# i6 L/ O( }6 Q- @3 |+ t0 OOverall bit rate               : 6 190 kb/s
, h4 H; B8 h7 z1 H7 ?0 `$ k; o0 JEncoded date                   : UTC 2017-10-08 03:47:39 : {6 a7 [0 [0 c- g
Writing application            : mkvmerge v7.1.0 ('Good Love') 32bit built on Jul 27 2014 12:59:18 " o2 |/ ~' s& N
Writing library                : libebml v1.3.0 + libmatroska v1.4.1
) T7 w7 {$ {8 P5 u. ?! c2 V* v0 z6 v7 f( y
Video 1 S: H: x; N& c1 ~% E5 Q! T
ID                             : 1 ( T  t( B. E3 K/ g3 H
Format                         : AVC : Z( X. j! H% b4 s6 D+ Q
Format/Info                    : Advanced Video Codec
# V5 V$ @, T$ ~  UFormat profile                 : High@L4 6 P5 }: x. D% U
Format settings, CABAC         : Yes
$ e, z" D) I& l: _$ P. J7 FFormat settings, ReFrames      : 4 frames
5 x5 x0 r6 h; ]6 U$ oCodec ID                       : V_MPEG4/ISO/AVC ) I. Y# S8 z. u9 z! O7 \
Duration                       : 1 h 29 min
, ]: K7 V, r; @2 Y, T( F- ]Bit rate                       : 6 000 kb/s 6 M) F. p) |2 ?
Width                          : 1 920 pixels
$ H6 r3 k# R( ?( S- eHeight                         : 1 080 pixels
2 a1 i# M2 r0 O  @9 ~Display aspect ratio           : 16:9 . R) L# G5 b8 k7 M
Frame rate mode                : Constant # d: `0 q% X* d! b
Frame rate                     : 23.976 (24000/1001) FPS
  g) d- q5 Y# N% l: U! G  C& _: ?2 g6 _Color space                    : YUV
8 p. [" b' H9 h' V* QChroma subsampling             : 4:2:0
' i4 N4 ]. G0 ~1 `; XBit depth                      : 8 bits ; ^2 l- n' f7 |% ~8 ^2 q) V" N
Scan type                      : Progressive 7 x2 K/ N* o2 {" @+ x  k& ]/ {
Bits/(Pixel*Frame)             : 0.121
0 T: V$ h, P& p% QStream size                    : 3.64 GiB (94%) 0 N7 m( n8 ]+ `) ~- N  P4 Y
Writing library                : x264()-core 129 - H.264/MPEG-4 . I3 ], s/ w7 D0 y6 q$ `
Default                        : Yes
5 X4 A5 t' }5 i/ E9 T, cForced                         : No 1 b( u  l$ L" l7 v2 B7 R8 J# w3 J
2 C* A  I5 c0 z0 g. r, h
Audio #1
8 G# V. i: Q8 h2 }7 Z3 }ID                             : 2
. s# i+ u; E- u& p: fFormat                         : AAC
5 [) m5 i/ L5 d9 K' F% Z- TFormat/Info                    : Advanced Audio Codec
- j* C- H, ]; K) M: q; _Format profile                 : LC 1 m/ S4 B& X/ R% ?! C4 |
Codec ID                       : A_AAC
* q! p3 R5 H  r. L! ?; YDuration                       : 1 h 29 min
* H8 s0 P& `+ r0 M3 m7 B) g7 oBit rate                       : 192 kb/s
$ M, `4 ?. ^. \& I: g+ d  k9 s# HChannel(s)                     : 2 channels + n8 A- A% M% z  \) i; G5 V
Channel positions              : Front: L R 4 V9 \' v9 B/ R! O( L; [. e  ]. q
Sampling rate                  : 44.1 kHz   Z& A# U  |& j+ V+ y) D7 _
Frame rate                     : 43.066 FPS (1024 spf) # W4 H8 ?, ^! r/ O9 c
Compression mode               : Lossy   j( k" J, k( l! m7 j9 i3 D
Stream size                    : 122 MiB (3%)
, V( m4 E; j: dLanguage                       : English
2 Q1 `" h" I8 @& xDefault                        : Yes * A+ K& H5 T/ _; ?+ q; k. @
Forced                         : No 4 C! {: p  y+ N: `$ e1 d& G" d$ n: L

" W: a/ Z- a; x  ^! s" q* yAudio #2 " W0 _! u, Z6 O! f2 w" I' W. u/ g
ID                             : 3 6 c2 t, A( ?) I, X! |9 g9 P- t( L
Format                         : AAC 1 {7 ?& g& }, i" d- g# _" i* P) r
Format/Info                    : Advanced Audio Codec 1 a8 E0 b% S) \4 ~
Format profile                 : LC
# I4 Y$ |4 G  I" y6 aCodec ID                       : A_AAC 4 q: u4 j. p$ T! @/ p
Duration                       : 1 h 29 min 2 `3 f& ]0 s6 C* B0 |5 I
Bit rate                       : 192 kb/s 1 q' R! H4 x; E7 E) }% u
Channel(s)                     : 2 channels " W! z" o% J+ q: z8 R9 f- a* D
Channel positions              : Front: L R
& M- G! |/ V3 d1 N% [0 ^Sampling rate                  : 44.1 kHz ! m. H9 T: I5 S/ D
Frame rate                     : 43.066 FPS (1024 spf)
0 e) _- `# n1 m1 a7 h# ICompression mode               : Lossy 5 U3 R3 y) }; E# I( m0 G
Stream size                    : 122 MiB (3%)
* ~4 c+ ^. o- {7 b  }! WLanguage                       : English ' H& k& f( k+ e, L% G" K. m
Default                        : No
% F0 j6 u" n& D9 iForced                         : No $ Y+ p2 G/ Q/ K
2.jpg % C6 a4 }. o" x1 |- V8 p8 A2 o' E

' R+ R# `+ U/ o9 P 3.jpg
& s# g& @( Q2 m1 f

' x% N7 Z- T; }5 k  Q# k3 Y 4.jpg
# b: M. e: I: c
0 \$ E) R* x4 }+ l/ k7 o' ]
5.jpg
& O# F' O+ \* w
- u/ }; J7 `. [3 w+ R# r
卑鄙的我3. MKV.torrent (21.35 KB, 下載次數: 95)

尚未簽到

發表於 2017-10-12 12:25:23 | 顯示全部樓層
感謝大大的辛勞分享!我會繼續在WK關注大大的文章!

尚未簽到

發表於 2017-10-12 16:22:07 來自手機 | 顯示全部樓層
偶像^^小生一直都在關注你的原創!小生對你之仰慕如滔滔江水連綿不絕!

尚未簽到

發表於 2017-10-12 16:22:10 | 顯示全部樓層
這個我收藏了!謝謝分享!WK的資源越來越豐富,這少不了大大的辛勞!

尚未簽到

發表於 2017-10-13 18:34:34 | 顯示全部樓層
偶像^^小生一直都在關注你的原創!小生對你之仰慕如滔滔江水連綿不絕!

尚未簽到

發表於 2017-10-14 16:30:06 來自手機 | 顯示全部樓層
偶像^^小生一直都在關注你的原創!小生對你之仰慕如滔滔江水連綿不絕!

尚未簽到

發表於 2017-10-15 00:59:15 | 顯示全部樓層
精妙絕倫的精品,感謝啊!期待你更多更好的創作哦!

尚未簽到

發表於 2017-10-15 13:19:09 來自手機 | 顯示全部樓層
精妙絕倫的精品,感謝啊!期待你更多更好的創作哦!

尚未簽到

發表於 2017-10-15 17:21:48 | 顯示全部樓層
偶像^^小生一直都在關注你的原創!小生對你之仰慕如滔滔江水連綿不絕!

尚未簽到

發表於 2017-10-16 14:23:41 | 顯示全部樓層
偶像^^小生一直都在關注你的原創!小生對你之仰慕如滔滔江水連綿不絕!

回復樓主 親!! 現在是淩晨!妳失眠啦?餓啦?通宵加班?還是想WK啦?

 分享同時學會感恩,一句感謝的話語,就是最大的支持!  歡迎交流討論
您需要登錄後才可以回帖 登錄 | 立即注册

本版積分規則

c重要聲明:本論壇是以即時上載言論的方式運作,WK論壇對所有言論的真實性、立場及版權等,不負任何法律責任。而一切言論只代表發佈者個人意見,並非本網站之立場,讀者及用戶務必自行判斷內容之真實性。 由於本論壇受到「即時上載言論」運作方式所規限,故不能完全監察所有言論,若讀者及用戶發現有內容出現「真實性、立場及版權」等問題,請聯絡我們:info@waikeung.net論壇有權刪除任何言論(刪除前或不會作事先警告及通知)| SiteMap[網站地圖]

發表新帖 返回頂部