WK綜合論壇, WK综合论坛

查看:7221 回復:13 發表於 2017-10-16 14:23:41
本主題由 212love 於 2017-10-14 10:30 解除高亮
累計簽到︰1163 天
連續簽到︰8 天
發表於 2017-10-12 12:24:18 | 顯示全部樓層 |閱讀模式

卑鄙的我3 Despicable.Me.3.2017,[MKV/3.88G] 國英雙語 [複製鏈接]

影視分享
分類: 電影
題材: 喜劇 冒險 动画 
地區: 美國 
語言: 國語 英语 
格式: MKV 
年份: 2017
資源: BT资源
1.jpg
5 L( @( A+ ^9 P) m' s◎译  名 神偷奶爸3/卑鄙的我3/坏蛋奖门人3(港)/神偷奶爸3之小小兵
0 R; W8 r) s( ]' V( U◎片  名 Despicable Me 3
' D( @: j6 |/ h7 X' o! X◎年  代 2017 & @7 i& x% ]' U2 R" m
◎产  地 美国
- t: J2 ~7 X' R1 }4 ^3 `5 l◎类  别 喜剧/动画/冒险 8 I" ^8 z! L; f' j
◎语  言   国语/英语 8 {: `, B2 }8 Z$ R
◎上映日期 2017-06-14(安锡动画电影节)/2017-06-30(美国)/2017-07-07(中国大陆) $ ^: T& U" x3 f7 b
◎IMDb评分  6.3/10 from 37,021 users
6 `; O7 r% p& l3 i/ U◎IMDb链接  http://www.imdb.com/title/tt3469046/
( W( L) B- H( a& \, H# n. z◎豆瓣评分 6.9/10 from 95,783 users " c) X) j1 {& y" X1 Y$ Z! m
◎豆瓣链接   https://movie.douban.com/subject/25812712/ & O" P7 q; Y6 `* _/ @6 ?
◎片  长 90分钟 ; y6 t; H- i# w
◎导  演 凯·巴达 Kyle Balda / 皮艾·柯芬 Pierre Coffin / 埃里克·吉伦 Eric Guillon
' D& ~( i3 [% H# y1 Q# h/ C% s◎主  演 史蒂夫·卡瑞 Steve Carell 1 g1 Q8 t. r2 H5 [8 X$ ^8 j
克里斯汀·韦格 Kristen Wiig
4 U% P# F' S0 m; {' w9 w3 E4 L崔·帕克 Trey Parker
" |0 g+ f; ]' L% ]9 Q+ R  ?米兰达·卡斯格拉夫 Miranda Cosgrove 6 b! Y# x4 O4 h& ~9 `$ q
达纳·盖 Dana Gaier
* q! Y. N' F9 B  b6 P7 _" G内芙·沙雷 Nev Scharrel
+ t% P+ N+ G: X- b皮艾·柯芬 Pierre Coffin   G' k5 x% J2 j% Y' V0 g) u
史蒂夫·库根 Steve Coogan 6 G5 X1 L/ ^' u( q
朱莉·安德鲁斯 Julie Andrews 1 \, [* l! e) S7 Y1 f# ?
珍妮·斯蕾特 Jenny Slate " V; G" B' t* p. M- c2 h0 `& @. t8 o
迈克·贝亚蒂 Michael Beattie " i1 b0 e2 S" d/ U
安迪·尼曼 Andy Nyman
8 u) @1 c+ Y  D2 Q3 T* d阿德里安·奇斯卡托 Adrian Ciscato
: n9 X5 _2 ^3 j7 o3 R' F布莱恩·T·德莱尼 Brian T. Delaney
, F7 ~! I0 X6 f$ r9 t肯·道里欧 Ken Daurio - ]6 r1 ^' V( m
* X* @+ k0 w3 d! }( }7 W
◎简  介
1 a: _$ o4 h' Z5 J& y( J4 x9 `( o- y2 X
     《神偷奶爸3》将延续前两部的温馨、搞笑风格,聚焦格鲁和露西的婚后生活,继续讲述格鲁和三个女儿的爆笑故事。“恶棍”奶爸格鲁将会如何对付大反派巴萨扎·布莱德,调皮可爱的小黄人们又会如何耍贱卖萌,疑让全球观众万分期待。该片配音也最大程度沿用前作阵容,史蒂夫·卡瑞继续为男主角格鲁配音,皮埃·柯芬也将继续为经典角色小黄人配音,而新角色巴萨扎·布莱德则由《南方公》主创元老崔·帕克为其配音。
' ?9 I; J; [1 i1 R7 u
4 g7 O6 ]; p6 }* h) CGeneral 4 `( y& D& v' g9 o+ K: T  S- V) B
Format                         : Matroska 1 B& c8 y# Z7 Y/ w
Format version                 : Version 4 / Version 2 ( b+ ]1 [* f' j( R/ z
File size                      : 3.88 GiB : T1 x/ h  K& x
Duration                       : 1 h 29 min 5 v+ F' P6 A! U, q) H& Y9 g
Overall bit rate               : 6 190 kb/s ' T" _* B2 J& ]8 f- j
Encoded date                   : UTC 2017-10-08 03:47:39 2 A( U$ d# @: m$ E
Writing application            : mkvmerge v7.1.0 ('Good Love') 32bit built on Jul 27 2014 12:59:18
, W( m3 P1 f" z* ~- pWriting library                : libebml v1.3.0 + libmatroska v1.4.1
. l$ k; W8 p0 Z7 m6 @' h& L' Q1 i2 e
Video % v; `/ q7 o/ y- e0 D# z9 e; \
ID                             : 1
+ c( T" Y, k! @9 V& L5 FFormat                         : AVC
8 l) T% h0 q/ i% ?8 P# R% m8 F! iFormat/Info                    : Advanced Video Codec
5 p' x8 Z% ~' }Format profile                 : High@L4
  X6 S" L/ G' a- L# c" U% \Format settings, CABAC         : Yes 2 N9 {3 J: W7 j1 o
Format settings, ReFrames      : 4 frames
" |' y' c, S% _" H7 c1 C% pCodec ID                       : V_MPEG4/ISO/AVC & y9 a0 t( [$ s1 I  g% {+ W
Duration                       : 1 h 29 min . [6 u' ?: |0 z1 d) W
Bit rate                       : 6 000 kb/s 7 L/ A2 O+ V" n  D# P% I1 y, \4 A& h
Width                          : 1 920 pixels
- C1 n5 S/ u6 A2 X  U/ uHeight                         : 1 080 pixels
5 f. J  l( ?% M: V1 q& q, wDisplay aspect ratio           : 16:9 7 g, j1 }5 N, N! E, f/ l
Frame rate mode                : Constant & w+ b% L' j- p& C
Frame rate                     : 23.976 (24000/1001) FPS 9 k" c* K$ J, W$ K! ?1 ~
Color space                    : YUV ( t7 b$ }  r( ~4 ~
Chroma subsampling             : 4:2:0
' z( V% T  u' K! sBit depth                      : 8 bits 3 j$ y' K7 ?' V) V) n& m
Scan type                      : Progressive " B$ y/ d, N- s* B1 j; U# o
Bits/(Pixel*Frame)             : 0.121 ! E1 J; N% \9 i) d5 C
Stream size                    : 3.64 GiB (94%) 1 k$ `* x$ v" f3 C3 V' Y
Writing library                : x264()-core 129 - H.264/MPEG-4
2 M" r3 g8 y- G2 {" H4 X7 y: FDefault                        : Yes
  P! h/ Q- ?: i  Z& JForced                         : No
6 w7 F/ @( K) Z5 V$ s4 e3 ^2 o$ v- r
Audio #1 2 C: g: ^7 l/ a% I0 y/ `, d
ID                             : 2
) F7 }0 {/ L8 lFormat                         : AAC
. }. g  `- x" V4 IFormat/Info                    : Advanced Audio Codec
8 a$ E! D9 ^( J3 u( ]8 K- v3 M  m2 r  [Format profile                 : LC
( |# w, P  L! C" n' }9 C( b1 LCodec ID                       : A_AAC
2 m6 x1 J# o" H9 y0 v9 ZDuration                       : 1 h 29 min
: x  E. D" h0 Z9 D% B+ h  i  |" hBit rate                       : 192 kb/s $ f& ?0 g+ ]' M- y& Z
Channel(s)                     : 2 channels - S1 b3 X( ?) J6 J
Channel positions              : Front: L R
1 w+ ]+ _- b' k$ |7 B: J* C# T& S% _3 FSampling rate                  : 44.1 kHz ; k7 k7 A2 C- O% F- S  u# y
Frame rate                     : 43.066 FPS (1024 spf)
8 q. T% N0 E, |; E  ?! q' D5 M5 [Compression mode               : Lossy 1 i* ?& Y+ r2 t3 |' N
Stream size                    : 122 MiB (3%) 0 O! F! F' i1 [8 K7 M
Language                       : English 1 s8 c' a2 ^# ^
Default                        : Yes " u, ?, |7 O% |8 w& M
Forced                         : No 0 X: |- x! s3 Q8 J# O

  Y( Z* m/ f: z+ `) |5 \# jAudio #2
, F8 g+ T' |' Q9 l: B$ c; R, @ID                             : 3
0 |1 V: b& r; t1 G$ @: |Format                         : AAC
* g9 Z; a9 r2 ?7 Z  zFormat/Info                    : Advanced Audio Codec
3 [3 i- x8 Y/ iFormat profile                 : LC
  H7 R5 @5 k% I9 S. ZCodec ID                       : A_AAC 1 U/ o2 [3 @" N* a
Duration                       : 1 h 29 min $ x0 ^' M, F. ?7 m) m2 d
Bit rate                       : 192 kb/s
3 Z! Y$ S0 P6 y, F% b( ^9 d  FChannel(s)                     : 2 channels
2 F) u3 Q9 c$ f! B0 N1 {& L# cChannel positions              : Front: L R
( G9 O: H% v$ G# mSampling rate                  : 44.1 kHz - D  v" j1 r% u, G5 o$ @" V
Frame rate                     : 43.066 FPS (1024 spf) 6 @: G+ W& @1 J5 l, U4 @4 n
Compression mode               : Lossy
3 k9 \/ [% f; m2 n5 F; NStream size                    : 122 MiB (3%) 4 f8 f1 D) L# w
Language                       : English + g/ O5 s: a# F, H/ v
Default                        : No 9 e( B/ _1 `1 @
Forced                         : No 8 e( R: v" \2 H. N2 S7 }$ _
2.jpg * |+ c$ ~  U5 E( R& g

% T/ b9 M7 G5 [8 W9 I" ^0 a 3.jpg 4 J3 y2 {- y4 B
3 A) _0 o5 B2 S7 S/ e, G3 b
4.jpg 3 h; N, j6 x. a6 O/ h$ B

) k7 W2 _! S. ?  N 5.jpg
" k# q2 X* v" p, F4 q2 _% B2 e

9 O' a5 C* {; z' }. n! G( H& w 卑鄙的我3. MKV.torrent (21.35 KB, 下載次數: 95)

尚未簽到

發表於 2017-10-12 12:25:23 | 顯示全部樓層
感謝大大的辛勞分享!我會繼續在WK關注大大的文章!

尚未簽到

發表於 2017-10-12 16:22:07 來自手機 | 顯示全部樓層
偶像^^小生一直都在關注你的原創!小生對你之仰慕如滔滔江水連綿不絕!

尚未簽到

發表於 2017-10-12 16:22:10 | 顯示全部樓層
這個我收藏了!謝謝分享!WK的資源越來越豐富,這少不了大大的辛勞!

尚未簽到

發表於 2017-10-13 18:34:34 | 顯示全部樓層
偶像^^小生一直都在關注你的原創!小生對你之仰慕如滔滔江水連綿不絕!

尚未簽到

發表於 2017-10-14 16:30:06 來自手機 | 顯示全部樓層
偶像^^小生一直都在關注你的原創!小生對你之仰慕如滔滔江水連綿不絕!

尚未簽到

發表於 2017-10-15 00:59:15 | 顯示全部樓層
精妙絕倫的精品,感謝啊!期待你更多更好的創作哦!

尚未簽到

發表於 2017-10-15 13:19:09 來自手機 | 顯示全部樓層
精妙絕倫的精品,感謝啊!期待你更多更好的創作哦!

尚未簽到

發表於 2017-10-15 17:21:48 | 顯示全部樓層
偶像^^小生一直都在關注你的原創!小生對你之仰慕如滔滔江水連綿不絕!

尚未簽到

發表於 2017-10-16 14:23:41 | 顯示全部樓層
偶像^^小生一直都在關注你的原創!小生對你之仰慕如滔滔江水連綿不絕!

回復樓主 親!! 早上好! 心底有WK、心情就會飛翔,心中要個希望、笑容就會清爽!

 分享同時學會感恩,一句感謝的話語,就是最大的支持!  歡迎交流討論
您需要登錄後才可以回帖 登錄 | 立即注册

本版積分規則


c重要聲明:本論壇是以即時上載言論的方式運作,WK論壇對所有言論的真實性、立場及版權等,不負任何法律責任。而一切言論只代表發佈者個人意見,並非本網站之立場,讀者及用戶務必自行判斷內容之真實性。 由於本論壇受到「即時上載言論」運作方式所規限,故不能完全監察所有言論,若讀者及用戶發現有內容出現「真實性、立場及版權」等問題,請聯絡我們:info@waikeung.net論壇有權刪除任何言論(刪除前或不會作事先警告及通知 )。

發表新帖 返回頂部