WK綜合論壇, WK综合论坛

查看:7345 回復:13 發表於 2017-10-16 14:23:41
本主題由 212love 於 2017-10-14 10:30 解除高亮
累計簽到︰1243 天
連續簽到︰4 天
發表於 2017-10-12 12:24:18 | 顯示全部樓層 |閱讀模式

卑鄙的我3 Despicable.Me.3.2017,[MKV/3.88G] 國英雙語 [複製鏈接]

影視分享
分類: 電影
題材: 喜劇 冒險 动画 
地區: 美國 
語言: 國語 英语 
格式: MKV 
年份: 2017
資源: BT资源
1.jpg
3 @" u% H$ j$ p4 l3 j7 b◎译  名 神偷奶爸3/卑鄙的我3/坏蛋奖门人3(港)/神偷奶爸3之小小兵
# [7 I. U, p8 f◎片  名 Despicable Me 3 % a1 T5 O6 s3 n; e& C
◎年  代 2017 2 ^& i% o: [6 o6 v0 @7 f  Q0 J
◎产  地 美国
( a/ ]( K4 z+ n# r" Q◎类  别 喜剧/动画/冒险
5 N6 l5 r* X, ]( M1 |% T/ \◎语  言   国语/英语 % ?. X% }( _/ a
◎上映日期 2017-06-14(安锡动画电影节)/2017-06-30(美国)/2017-07-07(中国大陆)
! P0 C" W0 s# P$ I◎IMDb评分  6.3/10 from 37,021 users
' e) F: w) k) s5 e0 s◎IMDb链接  http://www.imdb.com/title/tt3469046/ 3 C" M* D5 h, u% p) G6 _
◎豆瓣评分 6.9/10 from 95,783 users 1 _, ^+ Q( }7 @6 i) {0 |9 y. |
◎豆瓣链接   https://movie.douban.com/subject/25812712/ 9 C$ ~  \3 @4 ], i2 B; ?& W8 I  u3 K
◎片  长 90分钟 $ g: ]1 Y" [6 d0 |1 z
◎导  演 凯·巴达 Kyle Balda / 皮艾·柯芬 Pierre Coffin / 埃里克·吉伦 Eric Guillon
9 I7 _  z- i2 w5 Z' y" B( N◎主  演 史蒂夫·卡瑞 Steve Carell
: g2 P+ v% q$ m: p1 G克里斯汀·韦格 Kristen Wiig
( U( \& i. _* ^/ Y7 t: B+ R7 K0 O崔·帕克 Trey Parker
' s. T9 ?+ ?3 }, X5 R( c米兰达·卡斯格拉夫 Miranda Cosgrove
, n! L% I/ ?9 r/ N4 Z: {3 f9 |达纳·盖 Dana Gaier 0 {: K% X% l6 h+ i' f$ w
内芙·沙雷 Nev Scharrel
, v6 Z( M; h7 i! }  M: T皮艾·柯芬 Pierre Coffin 8 t' f# t3 _9 b9 L: T
史蒂夫·库根 Steve Coogan
1 Z( \1 J1 X/ E7 w& W朱莉·安德鲁斯 Julie Andrews
3 q- q4 m4 `1 r; l! q* W: M珍妮·斯蕾特 Jenny Slate $ p: N! P8 p; \0 p8 I2 f( d
迈克·贝亚蒂 Michael Beattie ; r1 `4 n7 a; |/ F8 n( L
安迪·尼曼 Andy Nyman
. i9 X4 m0 D# i1 L* h2 q阿德里安·奇斯卡托 Adrian Ciscato % f# o9 H5 H, x, G
布莱恩·T·德莱尼 Brian T. Delaney
  H3 j3 n! R( O. ]肯·道里欧 Ken Daurio & {/ d& Z, S' ~; S; C( G. {
9 j/ z% b. w- e! M6 b) ~8 S
◎简  介 $ E+ b1 o0 e% Q% I

/ k0 [7 O& x% t2 D" i2 M     《神偷奶爸3》将延续前两部的温馨、搞笑风格,聚焦格鲁和露西的婚后生活,继续讲述格鲁和三个女儿的爆笑故事。“恶棍”奶爸格鲁将会如何对付大反派巴萨扎·布莱德,调皮可爱的小黄人们又会如何耍贱卖萌,疑让全球观众万分期待。该片配音也最大程度沿用前作阵容,史蒂夫·卡瑞继续为男主角格鲁配音,皮埃·柯芬也将继续为经典角色小黄人配音,而新角色巴萨扎·布莱德则由《南方公》主创元老崔·帕克为其配音。 . h, P! Z' Q0 g, T$ @! `$ f
/ H* a$ E/ l# F
General & x% H5 T  X/ o% U0 }) s
Format                         : Matroska 0 T0 \# \/ M; M& b
Format version                 : Version 4 / Version 2
! w* o$ w7 c* Q' r& n) S: V& BFile size                      : 3.88 GiB
3 K' Y& w5 y- |, g& hDuration                       : 1 h 29 min
2 b+ F& `+ k/ n4 u( P; nOverall bit rate               : 6 190 kb/s
$ M. D% e4 d- A' j! JEncoded date                   : UTC 2017-10-08 03:47:39
0 U( G! Q# r6 D% `) \Writing application            : mkvmerge v7.1.0 ('Good Love') 32bit built on Jul 27 2014 12:59:18
8 h  m) K' _1 }Writing library                : libebml v1.3.0 + libmatroska v1.4.1
: P9 v" K6 H' `: v" F9 j  r. F3 ?
Video
$ z0 v& c! a: wID                             : 1 - f4 p3 C$ B( J3 O
Format                         : AVC
. v/ Y" q& I, e. wFormat/Info                    : Advanced Video Codec , `. u) }6 f1 {) D1 ?0 B4 k2 Q
Format profile                 : High@L4
! q4 \7 f. ?) S* b, N% A$ `Format settings, CABAC         : Yes 0 ~& c; k; m' b/ `' [6 K$ s5 M
Format settings, ReFrames      : 4 frames
0 K' q3 X, A, Z& Q8 z: [2 V6 MCodec ID                       : V_MPEG4/ISO/AVC
8 x6 O" v; J  w7 Y) U  b! CDuration                       : 1 h 29 min
3 p% M3 e) f/ g% L1 nBit rate                       : 6 000 kb/s . W1 i( c6 U: `) g2 h% G( A
Width                          : 1 920 pixels $ ^, X0 P4 |. Y) a
Height                         : 1 080 pixels
5 ?' j; ~7 Y9 P6 p* B: t5 H0 a- uDisplay aspect ratio           : 16:9 + l9 r# f/ |8 a+ e7 L- z
Frame rate mode                : Constant , y7 B3 R- O* l6 J3 c2 ~. B8 b
Frame rate                     : 23.976 (24000/1001) FPS , R" X- A3 G& ?0 }
Color space                    : YUV
4 o4 Y. Q) Z9 |Chroma subsampling             : 4:2:0
6 V% ]& r( s* i/ D. }' kBit depth                      : 8 bits ) X' w- C& X" Q* M1 e: V
Scan type                      : Progressive
4 f8 W' Q& \7 _9 N7 b; J1 RBits/(Pixel*Frame)             : 0.121
: _; v; l2 h3 O: aStream size                    : 3.64 GiB (94%) $ P5 E" Y9 g! X
Writing library                : x264()-core 129 - H.264/MPEG-4
8 h2 m- U2 a0 i& W# g4 u% pDefault                        : Yes 1 e0 Y8 |# Z% Q, ~4 E, G
Forced                         : No . `' M$ q1 n, |8 \" W0 @$ |! r

& |) |5 N+ a  F9 `- pAudio #1
& L- D9 g" ^1 R7 F3 ~" p" vID                             : 2
" v4 k" m% h. Y# `' b, Y: D& B0 kFormat                         : AAC $ v% A' K* P- O  O9 N
Format/Info                    : Advanced Audio Codec : `6 B' z; a% f" t! r; w
Format profile                 : LC
4 y1 `7 @0 d% W6 s: bCodec ID                       : A_AAC
# Z) H) l6 d" D( C8 ^Duration                       : 1 h 29 min
$ a; b- A( C  `7 U  a9 BBit rate                       : 192 kb/s , ~! ]8 C1 V. a+ s3 q3 p- T/ ?
Channel(s)                     : 2 channels . m3 }3 Y; l  j' P- j
Channel positions              : Front: L R
3 t% g9 {7 R0 i1 O" j. T9 n, FSampling rate                  : 44.1 kHz . i3 f9 v6 `9 |/ J, K5 ]& q# C: Y
Frame rate                     : 43.066 FPS (1024 spf) . }. S4 A$ T& D0 ?) n' C8 o
Compression mode               : Lossy 4 b8 h8 A4 U% B: |
Stream size                    : 122 MiB (3%)
8 V# X4 p0 H4 i6 ?6 tLanguage                       : English
$ N! Y  M  v$ {) m, ADefault                        : Yes / V- F0 Q1 i% [; i5 |
Forced                         : No 9 m& g$ O7 X7 t) V/ k! C  g
' i- x$ `8 V- ]" ?; c2 Q- q
Audio #2 ' M: ^1 g! ~- l! Y( O
ID                             : 3 - i. S# N# r) m
Format                         : AAC . i( W5 d, D  G9 E2 Y
Format/Info                    : Advanced Audio Codec
' x5 ^' Z, n# MFormat profile                 : LC ; x4 j/ I1 D( g
Codec ID                       : A_AAC
, z7 L3 U7 P7 d8 O* gDuration                       : 1 h 29 min
' f8 S# t' d  c$ k: ^( c% iBit rate                       : 192 kb/s
( j, e* Y) F- W1 x! g6 r0 M0 ?Channel(s)                     : 2 channels - u, Z% t; Y9 w3 b
Channel positions              : Front: L R 7 f& {! I+ \/ @2 l5 p
Sampling rate                  : 44.1 kHz 8 V$ {8 t6 G1 y$ _
Frame rate                     : 43.066 FPS (1024 spf)
' y; t9 @( K9 p$ ^Compression mode               : Lossy - l& u+ a6 ^+ N  d1 F3 C9 I, C
Stream size                    : 122 MiB (3%) " S! N0 Z  s* ~1 I6 U+ E7 k
Language                       : English ( d, ]- B7 S& d0 ]; m- w
Default                        : No / `: q7 G7 v; b5 W5 i
Forced                         : No
" I; D' g+ C8 c 2.jpg 3 j4 ]7 P0 p7 h
, z+ [5 E+ C$ k
3.jpg
' I+ b9 Z, {; n5 W. ?; t9 }

+ T# s8 {, R7 l  K6 w! L 4.jpg
; g1 Z- P' A; `- v

. a: A1 v4 E8 g$ u3 ^  K3 H7 m( _" ` 5.jpg
# l* j4 ?" P# U/ {+ h$ G

( ~% k# I) w8 M% t0 z4 Q 卑鄙的我3. MKV.torrent (21.35 KB, 下載次數: 95)

尚未簽到

發表於 2017-10-12 12:25:23 | 顯示全部樓層
感謝大大的辛勞分享!我會繼續在WK關注大大的文章!

尚未簽到

發表於 2017-10-12 16:22:07 來自手機 | 顯示全部樓層
偶像^^小生一直都在關注你的原創!小生對你之仰慕如滔滔江水連綿不絕!

尚未簽到

發表於 2017-10-12 16:22:10 | 顯示全部樓層
這個我收藏了!謝謝分享!WK的資源越來越豐富,這少不了大大的辛勞!

尚未簽到

發表於 2017-10-13 18:34:34 | 顯示全部樓層
偶像^^小生一直都在關注你的原創!小生對你之仰慕如滔滔江水連綿不絕!

尚未簽到

發表於 2017-10-14 16:30:06 來自手機 | 顯示全部樓層
偶像^^小生一直都在關注你的原創!小生對你之仰慕如滔滔江水連綿不絕!

尚未簽到

發表於 2017-10-15 00:59:15 | 顯示全部樓層
精妙絕倫的精品,感謝啊!期待你更多更好的創作哦!

尚未簽到

發表於 2017-10-15 13:19:09 來自手機 | 顯示全部樓層
精妙絕倫的精品,感謝啊!期待你更多更好的創作哦!

尚未簽到

發表於 2017-10-15 17:21:48 | 顯示全部樓層
偶像^^小生一直都在關注你的原創!小生對你之仰慕如滔滔江水連綿不絕!

尚未簽到

發表於 2017-10-16 14:23:41 | 顯示全部樓層
偶像^^小生一直都在關注你的原創!小生對你之仰慕如滔滔江水連綿不絕!

回復樓主 親!! 下午好,中午養足了精神嗎?讓我們一起渡過下午茶時間,WK有您更精彩!

 分享同時學會感恩,一句感謝的話語,就是最大的支持!  歡迎交流討論
您需要登錄後才可以回帖 登錄 | 立即注册

本版積分規則


c重要聲明:本論壇是以即時上載言論的方式運作,WK論壇對所有言論的真實性、立場及版權等,不負任何法律責任。而一切言論只代表發佈者個人意見,並非本網站之立場,讀者及用戶務必自行判斷內容之真實性。 由於本論壇受到「即時上載言論」運作方式所規限,故不能完全監察所有言論,若讀者及用戶發現有內容出現「真實性、立場及版權」等問題,請聯絡我們:info@waikeung.net論壇有權刪除任何言論(刪除前或不會作事先警告及通知 )。

發表新帖 返回頂部