WK綜合論壇, WK综合论坛

查看:9758 回復:15 發表於 2017-10-16 11:37:23
本主題由 212love 於 2017-10-14 10:31 解除高亮
累計簽到︰1409 天
連續簽到︰6 天
發表於 2017-10-12 13:28:12 | 顯示全部樓層 |閱讀模式

破·局 Peace Breaker 2017,[MKV/4.69G] 國語/中英雙字幕 [複製鏈接]

影視分享
分類: 電影
題材: 動作 犯罪 
地區: 中港台 
語言: 國語 中英字幕 
格式: MKV 
年份: 2017
資源: BT资源
1.jpg & {& L' A+ Q8 v* ]9 d  \% B
译  名 肇事者/走到尽头/Peace Breaker
  K7 t* I8 y$ \# E◎片  名 破·局 5 {3 n9 r7 }' a: V2 v  u* q
◎年  代 2017 # b2 L+ m) _. ]. f
◎产  地 中国大陆 , ]+ }% @4 ~7 M1 U+ ~# t
◎类  别 动作/犯罪 9 N/ @4 L  ^. ~& z3 l: \
◎语  言 语普通话
" D2 A4 [  X3 r& `2 u◎上映日期 2017-08-17(中国大陆)
8 q5 N! O. j4 Z4 Q7 [* n◎IMDb评分  6.6/10 from 9 users 5 }3 |5 P5 o8 Y4 s8 t: h! @2 S3 [9 L6 p3 n6 _
◎IMDb链接  http://www.imdb.com/title/tt7180392/ : [+ y- L: V/ ?, Z8 ]2 R
◎豆瓣评分 6.8/10 from 10,528 users " c" I5 {3 x/ ^8 w. y& a0 F' ^
◎豆瓣链接 https://movie.douban.com/subject/26760160/
! J/ K5 y" y1 M/ H3 u& |1 L◎片  长 112分钟
. M' P& k/ f3 E$ b◎导  演 连奕琦 Yi-chi Lien   }9 N  M2 E. }8 X
◎主  演 郭富城 Aaron Kwok ' e+ s& @. W: T4 Z
王千源 Qianyuan Wang 9 F) @% L  ~( j9 R8 u1 K- ~% x
刘涛 Tao Liu 9 m9 ]0 ]" I+ O8 _+ P3 i. v/ a
余皑磊 Ailei Yu ) I) w- i4 {; b
冯嘉怡 Jiayi Feng 9 s; J& g. ^8 P0 H) W' ]9 o
郑凯 Kai Zheng
( a3 _! M  U$ }; a+ @$ ~. ~* Y6 ~- g) Z& p

* v" g. I( S& X' X/ }/ w: b◎简  介
9 }/ S1 D# W& _" [, ^' e2 b, L* P2 L3 r0 I/ L# _8 \1 Q
' Q2 h3 [" s; e' i
这是高见翔警官生命中最艰难的一天:母亲去世,工作遇阻,还在奔丧时意外撞死了一个人。他本以为可以瞒天过海,没想到一个惊天阴谋在前方等待,令他身陷迷局...... 8 A" F& a7 E0 H4 m+ a( `  A
. G% l; b& ^$ M+ o
General ! ~/ W* e+ U! n+ ^  U9 \% H& R% G, S' l
Format                         : MPEG-4   Y$ U- D0 Z# {9 x/ }; q
Format profile                 : Base Media
, z  p/ P9 Q1 FCodec ID                       : isom (isom/avc1)
5 S8 }' @# P1 MFile size                      : 4.69 GiB ! D% f7 m; ?# k7 T' ]3 W
Duration                       : 1 h 52 min , r" D- m5 E- y& U; j
Overall bit rate mode          : Variable ' C+ W% w3 g; \) e0 g7 t' [
Overall bit rate               : 5 983 kb/s
4 B* U: y# ^7 g2 W5 v, F5 mEncoded date                   : UTC 2017-09-29 10:10:56
% g4 v- M$ `" ~) lTagged date                    : UTC 2017-09-29 10:10:56 ! G0 c7 Z8 B1 z' P. @; I
Copyright                      : PPTV-2.4.0.(20,20)[1]
+ }' X( @) B5 h3 J" H* H1 E( F
5 I1 w1 W4 k3 I& Z0 g" z1 AVideo
; d5 Q" k/ ^) Z/ v4 BID                             : 1 2 j9 ]1 z: V# V& c8 ~* d
Format                         : AVC 4 ~7 z: p8 r2 k6 A
Format/Info                    : Advanced Video Codec ' l4 e/ g) C: Z% c* {# n: i
Format profile                 : High@L4 5 g( A& h$ J& o0 Y) x- Y4 {- x) [
Format settings, CABAC         : Yes   h3 Q7 X: }2 H) B% n) e- N+ Z/ ]% j
Format settings, ReFrames      : 4 frames
  N* \5 C& d! G( @Codec ID                       : avc1
2 g4 d2 v/ G6 N9 N  w2 yCodec ID/Info                  : Advanced Video Coding
2 X* Q$ J) X  N- P9 w$ y! BDuration                       : 1 h 52 min
9 ?# w1 c2 q+ o5 ?% cBit rate                       : 6 000 kb/s & I. E6 t" a6 R
Maximum bit rate               : 13.6 Mb/s % H: [. Y! D+ `1 C7 H/ }
Width                          : 1 920 pixels 0 @: \. C/ p7 W
Height                         : 1 080 pixels
7 }( [8 m, b7 {: F; UDisplay aspect ratio           : 16:9
  C% p6 k; g, U: hFrame rate mode                : Constant
/ S& f$ s0 T! c0 \' XFrame rate                     : 24.000 FPS
, {$ m" w6 x4 Y/ Z6 z4 t6 o1 s; DColor space                    : YUV % _% }( W$ t1 L, C+ P+ @0 P+ E* f
Chroma subsampling             : 4:2:0
  N5 p7 C6 Q8 R; n% {Bit depth                      : 8 bits
# g+ s' b# g- u4 UScan type                      : Progressive & c' b0 N1 h! R' }! k9 r
Bits/(Pixel*Frame)             : 0.121 : q- [' h: C" e: y
Stream size                    : 4.54 GiB (97%) 0 `! b; L& g& }' {' l' x( G! f! Z/ h
Title                          : VideoByEZMediaEditor
# p' e: O- T3 G$ s1 g+ cWriting library                : x264()-core 129 - H.264/MPEG-4 $ R+ l3 O" D9 ?  e; j
Encoding settings              : cabac=1 / ref=4 / deblock=1:0:0 / analyse=0x3:0x133 / me=umh / subme=9 / psy=1 / psy_rd=0.00:0.00 / mixed_ref=1 / me_range=24 / chroma_me=1 / trellis=2 / 8x8dct=1 / cqm=0 / deadzone=21,11 / fast_pskip=0 / chroma_qp_offset=0 / threads=40 / lookahead_threads=6 / sliced_threads=0 / nr=0 / decimate=1 / interlaced=0 / bluray_compat=0 / constrained_intra=0 / bframes=4 / b_pyramid=2 / b_adapt=0 / b_bias=0 / direct=3 / weightb=1 / open_gop=0 / weightp=2 / keyint=240 / keyint_min=24 / scenecut=40 / intra_refresh=0 / rc_lookahead=60 / rc=abr / mbtree=1 / bitrate=6000 / ratetol=1.0 / qcomp=0.60 / qpmin=0 / qpmax=69 / qpstep=4 / vbv_maxrate=12000 / vbv_bufsize=6000 / nal_hrd=none / ip_ratio=1.40 / aq=1:1.00
9 W4 u8 t) N6 Q% e- t$ p/ }Encoded date                   : UTC 2017-09-29 10:10:56 . }# F3 s. r4 M% K/ q) F
Tagged date                    : UTC 2017-09-29 10:11:48 8 D6 S% p- b( v1 U
9 z9 {$ {) f# i$ X4 |$ X) O
Audio
2 f+ @: `) g, p! g' A; K$ sID                             : 2 * \; I$ |+ I1 J9 ~2 m0 X0 |4 p
Format                         : AAC
. E$ c6 y( ]+ ?1 J  W( Y# gFormat/Info                    : Advanced Audio Codec
1 F2 A' r; H: M' t) R0 f: ?" s+ JFormat profile                 : LC
0 f4 M. D+ F' Z. D" RCodec ID                       : 40
7 x2 l" S0 j+ M$ A. V% @Duration                       : 1 h 52 min 2 L* _) @/ O4 Y9 Z
Bit rate mode                  : Variable   d2 N3 w2 a8 ~( j
Bit rate                       : 192 kb/s ! F. w* F5 e" S1 h2 j
Maximum bit rate               : 198 kb/s , O! l* Q8 j9 ^4 ~, [' X: C, t
Channel(s)                     : 2 channels
) D. C) a' X6 E8 fChannel positions              : Front: L R
+ ~( B5 U, u" N% `Sampling rate                  : 44.1 kHz   Z9 m0 v" r. k$ m  Y: F
Frame rate                     : 43.066 FPS (1024 spf) 6 X. J; g4 ^& ~1 s. R
Compression mode               : Lossy 7 u4 d& C$ e# s7 O: M
Stream size                    : 152 MiB (3%)
; w; z  y! x% P' v# A& x: q) LTitle                          : Audio1-English . y0 R& A$ u* k8 t  S! _. b
Language                       : English
& c3 H, d( b! |Encoded date                   : UTC 2017-09-29 10:11:39 $ g+ L- M7 Q9 _7 ]+ E# ~
Tagged date                    : UTC 2017-09-29 10:11:48
- \* u  z6 a, |- D' I$ }* E9 T
( P& N  w6 G/ \7 N# Z
2.jpg
# @2 \" {/ m1 R! z& m& a

2 ~  L* p8 e" S5 }& s 3.jpg % j6 L$ i2 b  x, d. O; b
9 m0 B4 `$ S5 G: ^8 Y% {6 m
4.jpg ; v0 [- g- p5 h5 Q1 V# @9 A

) ?+ x# B! \8 U, t! ^  S

名偵探柯南 劇場版 MP4.torrent

20.73 KB, 下載次數: 468

尚未簽到

發表於 2017-10-12 13:29:13 | 顯示全部樓層
這個我收藏了!謝謝分享!WK的資源越來越豐富,這少不了大大的辛勞!

尚未簽到

發表於 2017-10-12 13:29:17 | 顯示全部樓層
很讚的文章,謝謝咯!相信WK因為有你而更加精彩!

尚未簽到

發表於 2017-10-12 17:18:33 | 顯示全部樓層
這個我收藏了!謝謝分享!WK的資源越來越豐富,這少不了大大的辛勞!
累計簽到︰203 天
連續簽到︰2 天
發表於 2017-10-13 21:23:11 | 顯示全部樓層
偶像^^小生一直都在關注你的原創!小生對你之仰慕如滔滔江水連綿不絕!

尚未簽到

發表於 2017-10-14 17:22:15 | 顯示全部樓層
感謝大大的辛勞分享!我會繼續在WK關注大大的文章!

尚未簽到

發表於 2017-10-14 17:22:18 | 顯示全部樓層
偶像^^小生一直都在關注你的原創!小生對你之仰慕如滔滔江水連綿不絕!

尚未簽到

發表於 2017-10-15 01:45:45 | 顯示全部樓層
偶像^^小生一直都在關注你的原創!小生對你之仰慕如滔滔江水連綿不絕!

尚未簽到

發表於 2017-10-15 14:09:54 | 顯示全部樓層
精妙絕倫的精品,感謝啊!期待你更多更好的創作哦!

尚未簽到

發表於 2017-10-16 11:37:23 | 顯示全部樓層
很讚的文章,謝謝咯!相信WK因為有你而更加精彩!

回復樓主 親!! 現在是淩晨!妳失眠啦?餓啦?通宵加班?還是想WK啦?

 分享同時學會感恩,一句感謝的話語,就是最大的支持!  歡迎交流討論
您需要登錄後才可以回帖 登錄 | 立即注册

本版積分規則

c重要聲明:本論壇是以即時上載言論的方式運作,WK論壇對所有言論的真實性、立場及版權等,不負任何法律責任。而一切言論只代表發佈者個人意見,並非本網站之立場,讀者及用戶務必自行判斷內容之真實性。 由於本論壇受到「即時上載言論」運作方式所規限,故不能完全監察所有言論,若讀者及用戶發現有內容出現「真實性、立場及版權」等問題,請聯絡我們:info@waikeung.net論壇有權刪除任何言論(刪除前或不會作事先警告及通知)| SiteMap[網站地圖]

發表新帖 返回頂部