WK綜合論壇, WK综合论坛

查看:9457 回復:15 發表於 2017-10-16 11:37:23
本主題由 212love 於 2017-10-14 10:31 解除高亮
累計簽到︰1163 天
連續簽到︰8 天
發表於 2017-10-12 13:28:12 | 顯示全部樓層 |閱讀模式

破·局 Peace Breaker 2017,[MKV/4.69G] 國語/中英雙字幕 [複製鏈接]

影視分享
分類: 電影
題材: 動作 犯罪 
地區: 中港台 
語言: 國語 中英字幕 
格式: MKV 
年份: 2017
資源: BT资源
1.jpg & E. E$ }0 }4 w4 x9 t# A
译  名 肇事者/走到尽头/Peace Breaker
) c8 r8 G! u" I) K- V◎片  名 破·局
1 ~' R, n7 R" C- l( K◎年  代 2017 . o+ t; L7 ~' F
◎产  地 中国大陆 , b. U- y0 |# w% W- x. P5 c
◎类  别 动作/犯罪
& _  L( R. F7 A* a! |/ `◎语  言 语普通话 5 D- M8 O- P* i$ V7 o" Z: f% ~
◎上映日期 2017-08-17(中国大陆)
9 P; T4 C+ y* V- Y* l2 H7 r! B5 o/ f◎IMDb评分  6.6/10 from 9 users 2 V  A1 Z  H) Z$ B1 _2 {! D
◎IMDb链接  http://www.imdb.com/title/tt7180392/
6 Y1 k" e8 o4 c7 ]$ _◎豆瓣评分 6.8/10 from 10,528 users
$ `3 {9 d+ I! Y4 e9 Y. W◎豆瓣链接 https://movie.douban.com/subject/26760160/
4 V! M3 y1 o/ T" W- b8 P  j◎片  长 112分钟 , V9 J, N; K9 U# `8 T% f
◎导  演 连奕琦 Yi-chi Lien 5 M7 Z* Z0 W& ^+ s9 N
◎主  演 郭富城 Aaron Kwok
* j1 d$ S6 y- _: j王千源 Qianyuan Wang
4 q8 ^/ T6 B0 O7 w% p刘涛 Tao Liu + X$ G6 M3 Q4 |" m
余皑磊 Ailei Yu ; m  U* b; |) |' b# F2 |2 B
冯嘉怡 Jiayi Feng ( K: ~; g" ?/ Q5 L' d2 Z
郑凯 Kai Zheng 2 v- x% Q" M" u3 C0 R

# W# O7 t$ a. d$ a
: k5 l0 {0 g& a" }, d6 z◎简  介 * M, }! v" U- M' R) @" T

% [! j) A% V2 }8 e+ v/ V, |: w( `7 C! J) s' q8 d2 z0 |
这是高见翔警官生命中最艰难的一天:母亲去世,工作遇阻,还在奔丧时意外撞死了一个人。他本以为可以瞒天过海,没想到一个惊天阴谋在前方等待,令他身陷迷局...... . @7 P$ R$ i9 Q) f, a
0 ?. R8 z, m8 k) k2 v6 Q) _1 Z: O
General - [: z) g0 F5 U% |4 r7 [6 |4 p7 [
Format                         : MPEG-4 ! Y/ v! ~. f) H
Format profile                 : Base Media : ?8 j& _- M& b# O6 f/ G
Codec ID                       : isom (isom/avc1)
+ n( V* J2 L8 I$ E) z' dFile size                      : 4.69 GiB   M" t4 q! N7 Z. q
Duration                       : 1 h 52 min , Z' l' d7 z/ y% ]
Overall bit rate mode          : Variable
7 c9 h' T5 u: H* o0 R; j% U# wOverall bit rate               : 5 983 kb/s   r+ L& |6 z. v, W" s
Encoded date                   : UTC 2017-09-29 10:10:56
, O4 R# `: S- u+ c3 V9 h/ ^4 vTagged date                    : UTC 2017-09-29 10:10:56
& \. t  N0 W" L2 ~6 t2 `/ oCopyright                      : PPTV-2.4.0.(20,20)[1] , ~0 a8 h7 e9 c' n: U5 h# A

' L7 w" |$ p1 i" p  }$ `& [Video $ p4 S& ^# O; R# J( u* T
ID                             : 1
1 E) H& P+ F8 s4 t/ ~Format                         : AVC
3 L# W. |" W5 F* C+ n/ y- }7 ZFormat/Info                    : Advanced Video Codec 7 b) d3 V# G" j- b- p2 E+ [
Format profile                 : High@L4
3 i2 q; i. s5 h% G) S" c5 JFormat settings, CABAC         : Yes , M7 W# q5 F7 x# f: i! s
Format settings, ReFrames      : 4 frames : v3 H8 {+ i! }/ x& u
Codec ID                       : avc1 ! |) P! L) A' c3 [& k
Codec ID/Info                  : Advanced Video Coding + y3 T9 [( f1 S& [& \
Duration                       : 1 h 52 min & k7 F& h3 K! i
Bit rate                       : 6 000 kb/s # R9 Y5 A+ R+ L* S: Y) \+ w
Maximum bit rate               : 13.6 Mb/s 9 v- F; G" B3 K8 o, r8 e" E; @
Width                          : 1 920 pixels , `) P. ?2 `3 k" o7 a) @
Height                         : 1 080 pixels 5 L: [2 G8 k* e4 N3 C
Display aspect ratio           : 16:9 , }9 {9 M9 }$ a1 g2 W$ ]& v; y4 N: J
Frame rate mode                : Constant
( {! F% W) D4 {Frame rate                     : 24.000 FPS 9 p: z- J- O3 t$ R
Color space                    : YUV
2 e3 D$ g% o9 kChroma subsampling             : 4:2:0 & d2 A2 ^+ z6 \8 k8 D
Bit depth                      : 8 bits
  u7 Z+ o/ E$ ?& q6 Y& CScan type                      : Progressive ' t: t$ ]( \( I7 y  m$ g: Z  y; b5 t
Bits/(Pixel*Frame)             : 0.121
7 Z# |4 E# ^# lStream size                    : 4.54 GiB (97%) : X- {# T2 n2 a  s$ G
Title                          : VideoByEZMediaEditor
3 o, {- ~7 Z$ b8 dWriting library                : x264()-core 129 - H.264/MPEG-4 / j; i+ ~% r) O1 {7 X% p# [
Encoding settings              : cabac=1 / ref=4 / deblock=1:0:0 / analyse=0x3:0x133 / me=umh / subme=9 / psy=1 / psy_rd=0.00:0.00 / mixed_ref=1 / me_range=24 / chroma_me=1 / trellis=2 / 8x8dct=1 / cqm=0 / deadzone=21,11 / fast_pskip=0 / chroma_qp_offset=0 / threads=40 / lookahead_threads=6 / sliced_threads=0 / nr=0 / decimate=1 / interlaced=0 / bluray_compat=0 / constrained_intra=0 / bframes=4 / b_pyramid=2 / b_adapt=0 / b_bias=0 / direct=3 / weightb=1 / open_gop=0 / weightp=2 / keyint=240 / keyint_min=24 / scenecut=40 / intra_refresh=0 / rc_lookahead=60 / rc=abr / mbtree=1 / bitrate=6000 / ratetol=1.0 / qcomp=0.60 / qpmin=0 / qpmax=69 / qpstep=4 / vbv_maxrate=12000 / vbv_bufsize=6000 / nal_hrd=none / ip_ratio=1.40 / aq=1:1.00 1 M5 |5 G. k; Z
Encoded date                   : UTC 2017-09-29 10:10:56
/ i9 E% _+ l7 T* ]! u/ M; e6 K* r9 P3 LTagged date                    : UTC 2017-09-29 10:11:48
  T/ K+ g" c# Q6 }* O; m
8 G5 T& q1 J! M1 v8 c) l0 MAudio
! x  a. c) \& p# w( Y7 {1 DID                             : 2
) c5 O$ ~$ }  C" ^+ L9 j/ E1 rFormat                         : AAC " J/ ]) F1 r+ `! l8 F( B  M. j3 A5 m
Format/Info                    : Advanced Audio Codec
! H5 y: {" j5 C  i8 W* Q' x* X8 AFormat profile                 : LC
' G8 F* Y+ `& t. `+ w/ CCodec ID                       : 40
7 H; f4 X. b  _" kDuration                       : 1 h 52 min : f0 T! n: c  T4 S1 V! j) Z
Bit rate mode                  : Variable 5 T9 d. u7 M) @8 L" H2 u
Bit rate                       : 192 kb/s
: F: [6 A8 y$ K# t4 ?Maximum bit rate               : 198 kb/s
6 f8 g5 j) S6 u4 ~( B1 D' C8 SChannel(s)                     : 2 channels
2 c" c, k. f6 M# P' j3 QChannel positions              : Front: L R
5 A7 m' F9 O* H4 _, u- DSampling rate                  : 44.1 kHz
  f: H0 P# |$ ^) c5 @/ rFrame rate                     : 43.066 FPS (1024 spf) : Z, _$ w- b  a  e- {8 f, h
Compression mode               : Lossy 8 E9 ~2 n. I9 n& x* J: c8 |
Stream size                    : 152 MiB (3%)
3 H$ m% i! b0 X) \Title                          : Audio1-English ! N$ X  y6 n$ a& H
Language                       : English : A3 C7 O6 K. \+ ~. V9 J
Encoded date                   : UTC 2017-09-29 10:11:39
  F) v2 @# U) A3 u) y; K5 lTagged date                    : UTC 2017-09-29 10:11:48
( c  c* B. ?, i2 u* U3 i" D
. j: \) \0 P, l0 u* `8 m2 [( V
2.jpg , x. u& c: W* x
. ]) X! z$ s' F! g
3.jpg * _7 p6 o+ _* V( Y4 M
( d3 {$ [4 p# G
4.jpg : H2 @( X9 g4 O
: [3 L) l, @; j! A. F

名偵探柯南 劇場版 MP4.torrent

20.73 KB, 下載次數: 466

尚未簽到

發表於 2017-10-12 13:29:13 | 顯示全部樓層
這個我收藏了!謝謝分享!WK的資源越來越豐富,這少不了大大的辛勞!

尚未簽到

發表於 2017-10-12 13:29:17 | 顯示全部樓層
很讚的文章,謝謝咯!相信WK因為有你而更加精彩!

尚未簽到

發表於 2017-10-12 17:18:33 | 顯示全部樓層
這個我收藏了!謝謝分享!WK的資源越來越豐富,這少不了大大的辛勞!
累計簽到︰62 天
連續簽到︰1 天
發表於 2017-10-13 21:23:11 | 顯示全部樓層
偶像^^小生一直都在關注你的原創!小生對你之仰慕如滔滔江水連綿不絕!

尚未簽到

發表於 2017-10-14 17:22:15 | 顯示全部樓層
感謝大大的辛勞分享!我會繼續在WK關注大大的文章!

尚未簽到

發表於 2017-10-14 17:22:18 | 顯示全部樓層
偶像^^小生一直都在關注你的原創!小生對你之仰慕如滔滔江水連綿不絕!

尚未簽到

發表於 2017-10-15 01:45:45 | 顯示全部樓層
偶像^^小生一直都在關注你的原創!小生對你之仰慕如滔滔江水連綿不絕!

尚未簽到

發表於 2017-10-15 14:09:54 | 顯示全部樓層
精妙絕倫的精品,感謝啊!期待你更多更好的創作哦!

尚未簽到

發表於 2017-10-16 11:37:23 | 顯示全部樓層
很讚的文章,謝謝咯!相信WK因為有你而更加精彩!

回復樓主 親!! 早上好! 心底有WK、心情就會飛翔,心中要個希望、笑容就會清爽!

 分享同時學會感恩,一句感謝的話語,就是最大的支持!  歡迎交流討論
您需要登錄後才可以回帖 登錄 | 立即注册

本版積分規則


c重要聲明:本論壇是以即時上載言論的方式運作,WK論壇對所有言論的真實性、立場及版權等,不負任何法律責任。而一切言論只代表發佈者個人意見,並非本網站之立場,讀者及用戶務必自行判斷內容之真實性。 由於本論壇受到「即時上載言論」運作方式所規限,故不能完全監察所有言論,若讀者及用戶發現有內容出現「真實性、立場及版權」等問題,請聯絡我們:info@waikeung.net論壇有權刪除任何言論(刪除前或不會作事先警告及通知 )。

發表新帖 返回頂部