WK綜合論壇, WK综合论坛

查看:9560 回復:15 發表於 2017-10-16 11:37:23
本主題由 212love 於 2017-10-14 10:31 解除高亮
累計簽到︰1243 天
連續簽到︰4 天
發表於 2017-10-12 13:28:12 | 顯示全部樓層 |閱讀模式

破·局 Peace Breaker 2017,[MKV/4.69G] 國語/中英雙字幕 [複製鏈接]

影視分享
分類: 電影
題材: 動作 犯罪 
地區: 中港台 
語言: 國語 中英字幕 
格式: MKV 
年份: 2017
資源: BT资源
1.jpg
" e8 A. f$ ^# S: y6 Q: E! R8 G译  名 肇事者/走到尽头/Peace Breaker
5 _& l+ A, ~/ l) C5 V◎片  名 破·局 + R" [& L  i! a2 a, o
◎年  代 2017 $ G! _9 G) d/ n8 o# ~
◎产  地 中国大陆 " X! o. H5 t0 X- q
◎类  别 动作/犯罪 7 C) B  j& T& e- M2 ?' s. j4 ~
◎语  言 语普通话 8 J4 E: w% f" S0 Q+ h
◎上映日期 2017-08-17(中国大陆)
+ y* Z' z$ M7 h5 V( j! [5 d◎IMDb评分  6.6/10 from 9 users $ D9 u; Q  I0 S# c7 b, h+ ]
◎IMDb链接  http://www.imdb.com/title/tt7180392/ ) P4 b+ O5 U1 ], l. e
◎豆瓣评分 6.8/10 from 10,528 users
5 o2 J: W2 a0 o3 r◎豆瓣链接 https://movie.douban.com/subject/26760160/ ( G% T. }* d0 i
◎片  长 112分钟 % [+ l' }  B& v- N- K" q
◎导  演 连奕琦 Yi-chi Lien 1 v9 l5 Y* z" h- B
◎主  演 郭富城 Aaron Kwok
0 T2 r2 Z: z- F& p+ N; F王千源 Qianyuan Wang
9 K3 c* J) t3 l7 p: n1 a刘涛 Tao Liu ' |! Z+ j, v1 ^( l2 P
余皑磊 Ailei Yu
+ y5 {- n2 m3 w6 E6 L冯嘉怡 Jiayi Feng
/ E& S; K+ `. n# g9 V2 c郑凯 Kai Zheng
' T# y. u6 ]0 {6 V
) u' o- s: P3 H; Y9 @% F* _4 J0 [( h: I* y- q  |$ @1 U- Q
◎简  介
" L! a$ ?/ E& z8 u- K8 M6 ~
& s  A! v& b. G+ [# N2 J
2 ^( G; Z0 p/ p+ r+ Y& Q这是高见翔警官生命中最艰难的一天:母亲去世,工作遇阻,还在奔丧时意外撞死了一个人。他本以为可以瞒天过海,没想到一个惊天阴谋在前方等待,令他身陷迷局...... 5 D0 d  N& @6 B' A+ l
  h- ?1 `* t( l+ n5 M/ M
General
! Q  ^# n, X% L/ V$ |% NFormat                         : MPEG-4 $ }0 N% W& X: T6 B1 i# R5 u
Format profile                 : Base Media
4 H& g2 b$ Z) lCodec ID                       : isom (isom/avc1)
" n. ^4 ~' h$ \5 \) gFile size                      : 4.69 GiB
) a4 V" R) x2 S9 p: |! M& P3 kDuration                       : 1 h 52 min
2 M( C6 f! t6 U, D2 A# ^Overall bit rate mode          : Variable
2 T0 h! E* n0 `" F4 u2 wOverall bit rate               : 5 983 kb/s
# X6 t* z6 A6 \; t& `Encoded date                   : UTC 2017-09-29 10:10:56 8 @, m- p" g- m- @6 H1 j: S: D
Tagged date                    : UTC 2017-09-29 10:10:56 5 }/ m4 p" ]* Z3 m; U5 `; T" E( @
Copyright                      : PPTV-2.4.0.(20,20)[1]
& t9 G7 Q! c5 y) g4 o
: @2 l" Y  Z) u7 nVideo
. Q0 d' W7 h# U' f4 fID                             : 1 $ ~0 V4 _, @4 L2 w0 d
Format                         : AVC
+ v1 ^' S* r2 ]$ C6 pFormat/Info                    : Advanced Video Codec
- g! d; G6 E2 F# YFormat profile                 : High@L4
# L" r3 |0 n+ ]0 f4 SFormat settings, CABAC         : Yes
1 ?+ _8 |" ^" y* HFormat settings, ReFrames      : 4 frames / k* M- U6 ]) K1 z: }7 i( ~6 d
Codec ID                       : avc1 / |; u2 e5 T/ I3 B+ q( y) F
Codec ID/Info                  : Advanced Video Coding 5 B1 I9 `: x# r
Duration                       : 1 h 52 min
# J+ r! ~, X% H2 v# i5 [# EBit rate                       : 6 000 kb/s
. q  D4 x7 U  zMaximum bit rate               : 13.6 Mb/s
7 \, \$ D6 ?; x* a: I. {Width                          : 1 920 pixels
2 K8 E+ Y2 q) \2 ]: m2 y: _) p: _Height                         : 1 080 pixels ) V! ]! b% u' I$ M8 n/ Q
Display aspect ratio           : 16:9 $ p4 O1 f' a# F3 O5 A: O0 l
Frame rate mode                : Constant ) m- [- {. R- D: t8 O
Frame rate                     : 24.000 FPS
/ U7 Y5 H9 K& w1 @3 i: _Color space                    : YUV # v+ ]7 A, {* s3 q. Q5 H  N! j
Chroma subsampling             : 4:2:0
* e) H- z, |, q  f9 LBit depth                      : 8 bits
% V) B. r/ `6 q, }, ?! NScan type                      : Progressive ' o& K) t- E6 E6 T" u9 X
Bits/(Pixel*Frame)             : 0.121
+ n+ @9 C( [* VStream size                    : 4.54 GiB (97%) 3 p+ S+ Y( b: v1 @# X5 \6 c
Title                          : VideoByEZMediaEditor
. w: V3 U) F! g6 I" m3 BWriting library                : x264()-core 129 - H.264/MPEG-4
* I5 I* R! S- Z' c5 G+ l. P7 Z" MEncoding settings              : cabac=1 / ref=4 / deblock=1:0:0 / analyse=0x3:0x133 / me=umh / subme=9 / psy=1 / psy_rd=0.00:0.00 / mixed_ref=1 / me_range=24 / chroma_me=1 / trellis=2 / 8x8dct=1 / cqm=0 / deadzone=21,11 / fast_pskip=0 / chroma_qp_offset=0 / threads=40 / lookahead_threads=6 / sliced_threads=0 / nr=0 / decimate=1 / interlaced=0 / bluray_compat=0 / constrained_intra=0 / bframes=4 / b_pyramid=2 / b_adapt=0 / b_bias=0 / direct=3 / weightb=1 / open_gop=0 / weightp=2 / keyint=240 / keyint_min=24 / scenecut=40 / intra_refresh=0 / rc_lookahead=60 / rc=abr / mbtree=1 / bitrate=6000 / ratetol=1.0 / qcomp=0.60 / qpmin=0 / qpmax=69 / qpstep=4 / vbv_maxrate=12000 / vbv_bufsize=6000 / nal_hrd=none / ip_ratio=1.40 / aq=1:1.00 ; O* l) M4 r* d6 F: T1 P- E) D
Encoded date                   : UTC 2017-09-29 10:10:56
- O- y2 X) m9 d# qTagged date                    : UTC 2017-09-29 10:11:48
% G; V3 e/ p# w  K
7 Y# s  h9 k8 s3 S9 cAudio
& c" y* C1 w6 Q5 i9 ]/ K# f0 rID                             : 2
! V/ t+ C0 j& m) cFormat                         : AAC + G9 b2 C  Z7 o3 ^2 t$ y2 `
Format/Info                    : Advanced Audio Codec
) {" O2 {$ a% w8 D! J8 K# xFormat profile                 : LC $ ?8 _% V9 P9 H: Q$ F8 i
Codec ID                       : 40
/ ^- U$ k* A( oDuration                       : 1 h 52 min 1 F3 N  W! D4 [1 `9 Q) M
Bit rate mode                  : Variable / Y* V2 _! z3 {" m, B$ a7 c: [) i
Bit rate                       : 192 kb/s
- _# A3 h  B; h+ d( j% V9 Y. O5 CMaximum bit rate               : 198 kb/s 9 j7 K6 ^+ w: {3 r( k
Channel(s)                     : 2 channels
, t7 i7 g, n# G6 o9 ^9 V; nChannel positions              : Front: L R + p$ @1 i* f+ D5 q8 `) K% ]0 g: H
Sampling rate                  : 44.1 kHz 7 B2 ?2 J9 m1 A2 R; ?# X9 ~! O
Frame rate                     : 43.066 FPS (1024 spf)
% H  I* c: Z5 E* G' S8 CCompression mode               : Lossy % W# H# V4 m9 T, J
Stream size                    : 152 MiB (3%)
; f. Y( g4 q* l% q# O9 UTitle                          : Audio1-English + x% v* ~* O- ^( \) B. K
Language                       : English
. i9 H3 F% j3 J1 r: R9 f9 G9 LEncoded date                   : UTC 2017-09-29 10:11:39
$ i' H/ M, D( OTagged date                    : UTC 2017-09-29 10:11:48 + F9 T4 ~; [- m+ s1 ?$ C" i

& d0 x* i7 p: P+ x& ]4 D" Q1 v 2.jpg
5 h4 n3 C% d$ H) |& a8 `* m
9 b  z9 \0 S9 P* p1 P$ x
3.jpg
& ^. Q! g* K( h$ e: m! D/ f  D! K

$ T1 o9 s7 y, F4 d7 D 4.jpg % L. L3 b+ ^' y

$ B$ B$ P& y! Q7 l& D2 q2 G

名偵探柯南 劇場版 MP4.torrent

20.73 KB, 下載次數: 468

尚未簽到

發表於 2017-10-12 13:29:13 | 顯示全部樓層
這個我收藏了!謝謝分享!WK的資源越來越豐富,這少不了大大的辛勞!

尚未簽到

發表於 2017-10-12 13:29:17 | 顯示全部樓層
很讚的文章,謝謝咯!相信WK因為有你而更加精彩!

尚未簽到

發表於 2017-10-12 17:18:33 | 顯示全部樓層
這個我收藏了!謝謝分享!WK的資源越來越豐富,這少不了大大的辛勞!
累計簽到︰124 天
連續簽到︰2 天
發表於 2017-10-13 21:23:11 | 顯示全部樓層
偶像^^小生一直都在關注你的原創!小生對你之仰慕如滔滔江水連綿不絕!

尚未簽到

發表於 2017-10-14 17:22:15 | 顯示全部樓層
感謝大大的辛勞分享!我會繼續在WK關注大大的文章!

尚未簽到

發表於 2017-10-14 17:22:18 | 顯示全部樓層
偶像^^小生一直都在關注你的原創!小生對你之仰慕如滔滔江水連綿不絕!

尚未簽到

發表於 2017-10-15 01:45:45 | 顯示全部樓層
偶像^^小生一直都在關注你的原創!小生對你之仰慕如滔滔江水連綿不絕!

尚未簽到

發表於 2017-10-15 14:09:54 | 顯示全部樓層
精妙絕倫的精品,感謝啊!期待你更多更好的創作哦!

尚未簽到

發表於 2017-10-16 11:37:23 | 顯示全部樓層
很讚的文章,謝謝咯!相信WK因為有你而更加精彩!

回復樓主 親!! 下午好,中午養足了精神嗎?讓我們一起渡過下午茶時間,WK有您更精彩!

 分享同時學會感恩,一句感謝的話語,就是最大的支持!  歡迎交流討論
您需要登錄後才可以回帖 登錄 | 立即注册

本版積分規則


c重要聲明:本論壇是以即時上載言論的方式運作,WK論壇對所有言論的真實性、立場及版權等,不負任何法律責任。而一切言論只代表發佈者個人意見,並非本網站之立場,讀者及用戶務必自行判斷內容之真實性。 由於本論壇受到「即時上載言論」運作方式所規限,故不能完全監察所有言論,若讀者及用戶發現有內容出現「真實性、立場及版權」等問題,請聯絡我們:info@waikeung.net論壇有權刪除任何言論(刪除前或不會作事先警告及通知 )。

發表新帖 返回頂部