WK綜合論壇, WK综合论坛

查看:12306 回復:18 發表於 5 天前
本主題由 212love 於 7 天前 解除高亮
累計簽到︰1192 天
連續簽到︰1 天
發表於 2017-11-14 12:24:13 | 顯示全部樓層 |閱讀模式

無目標地區 The.Driftless.Area, 2016 [MKV / 8.15G] [複製鏈接]

影視分享
分類: 電影
題材: 愛情 劇情 喜劇 懸疑 
地區: 加拿大 美國 
語言: 英语 
格式: MKV 
年份: 2016
資源: BT资源
1.jpg
& V$ C. N6 \8 w1 v9 b; F1 b+ b
; D- P. f, D8 B1 f" N◎译  名 目标地区
2 Q; w$ m2 `; h# f◎片  名 The Driftless Area3 Y4 ]- J- d- |& s" M! F+ d
◎年  代 2015  M! F9 |; q& x5 h0 S7 A7 z
◎产  地 加拿大/美国; S  ?1 Z# F4 x
◎类  别 剧情/喜剧/爱情/悬疑
  ]+ t$ w9 g6 U9 G◎语  言 英语
. d/ H* w9 w# C( Y) N◎上映日期 2016-04-26(美国); V1 |: Y6 F/ v% J. E, I
◎IMDb评分  5.3/10 from 1,376 users: \: z' g7 y7 `1 d. T
◎IMDb链接  http://www.imdb.com/title/tt3687304/
. J- V1 T; v2 n6 K: A◎豆瓣评分 5.8/10 from 249 users
1 a2 S# H- E; X: F$ c# S4 Z◎豆瓣链接 https://movie.douban.com/subject/25889987/
: `! t1 A5 h8 w  O4 u  v5 S3 U) M' F◎片  长 95分钟, u' S2 i9 I  d& O
◎导  演 Zachary Sluser% e( ~3 ]- i$ n  o# g
◎主  演 安东·利钦 Anton Yelchin( i7 F; d6 U/ r; `6 r8 S
      佐伊·丹斯切 Zooey Deschanel7 {. j# A5 V% B. F) J
      约翰·浩克斯 John Hawkes% I& _/ [* V1 U" \
      阿莉雅·肖卡特 Alia Shawkat
; g3 J4 L3 A& {, l      弗兰克·兰格拉 Frank Langella
9 Z) ^! c- y$ R: Y; [      塞伦·希德 Ciarán Hinds
3 n  o3 d" Y" ?+ j/ S; s      奥布瑞·普拉扎 Aubrey Plaza8 Q/ Z9 G+ r" }( s
      Gary Hetherington
8 ?6 r2 E7 g" w
* Z1 v& z3 K7 \% I' w6 N( u◎简  介+ t" J" M. [; d7 ]; C, D5 X3 F

& k3 C4 t( d, ~  一位酒吧服务生在父母去世后回到他的故乡,发现自己陷入危险处境,跟一个神秘女子和一个恶人产生了纠葛。% K5 w- `: w0 Q$ g

4 O: M& A3 Z+ F1 E* @Video8 c8 }4 h& I" D
ID                                       : 14 u7 E/ n; g* c! f( n, J& Y: g
Format                                   : AVC& a3 {: ~8 {9 C# v  Y/ {
Format/Info                              : Advanced Video Codec
* l: S/ Y( v  r, sFormat profile                           : High@L4
% ~5 J& Q( a4 Q2 ]  }0 mFormat settings                          : CABAC / 4 Ref Frames
( T6 g5 L2 X0 i  y4 K5 SFormat settings, CABAC                   : Yes
) w. S2 Y) f6 L; x! Z( NFormat settings, ReFrames                : 4 frames
5 A; h+ s) C. V7 V' K$ ACodec ID                                 : V_MPEG4/ISO/AVC
/ q9 n4 m5 o3 r1 Y* K& kDuration                                 : 1 h 35 min/ J( x0 o/ V1 J/ h( O
Bit rate mode                            : Variable
' V. w* Y& `0 A! y* H. ~7 \' Y  PBit rate                                 : 11.6 Mb/s6 g$ K- A2 g/ Q. t5 T& z  L
Maximum bit rate                         : 15.0 Mb/s
5 }3 n1 y* u4 y) I' b% EWidth                                    : 1 920 pixels" G  n, G7 @8 l4 p
Height                                   : 800 pixels: f- q2 K7 r6 ^
Display aspect ratio                     : 2.40:1: c3 T- a, G& Q, `  R
Frame rate mode                          : Constant
; @; H* y4 P% }. ZFrame rate                               : 23.976 (24000/1001) FPS6 Q7 O% H7 i+ D/ O1 k0 I" }2 w
Color space                              : YUV
9 S$ a7 [5 J7 D0 d# Q& }2 u' G* pChroma subsampling                       : 4:2:0
& c6 p7 l' N  @Bit depth                                : 8 bits7 \$ z: H- K) x3 [% d5 C( C
Scan type                                : Progressive
$ i1 F2 R" G* k) t5 y* v. D& RBits/(Pixel*Frame)                       : 0.314
6 U# p' K) I5 h$ ?- e/ vStream size                              : 7.73 GiB (95%)
. d) m, F6 x+ X+ ZWriting library                          : x264 core 148 r2623 d5b23749 {) c* d( K: ?/ I% o# j! X
Encoding settings                        : cabac=1 / ref=4 / deblock=1:-1:-1 / analyse=0x3:0x133 / me=umh / subme=9 / psy=1 / psy_rd=1.00:0.15 / mixed_ref=1 / me_range=24 / chroma_me=1 / trellis=2 / 8x8dct=1 / cqm=0 / deadzone=21,11 / fast_pskip=1 / chroma_qp_offset=-3 / threads=25 / lookahead_threads=4 / sliced_threads=0 / nr=150 / decimate=1 / interlaced=0 / bluray_compat=0 / constrained_intra=0 / bframes=8 / b_pyramid=2 / b_adapt=2 / b_bias=0 / direct=3 / weightb=1 / open_gop=0 / weightp=2 / keyint=120 / keyint_min=61 / scenecut=0 / intra_refresh=0 / rc_lookahead=120 / rc=crf / mbtree=1 / crf=18.0 / qcomp=0.60 / qpmin=0 / qpmax=69 / qpstep=4 / vbv_maxrate=15000 / vbv_bufsize=31250 / crf_max=0.0 / nal_hrd=vbr / filler=0 / ip_ratio=1.40 / aq=3:1.00$ N% o% ~6 S7 Q  M0 q
Default                                  : Yes
3 o# @- C$ p/ S. E7 @3 iForced                                   : No  U: L1 Z" @+ F! \& F" f
Color range                              : Limited5 _) @; T/ Y6 ^; N- \1 u
Color primaries                          : BT.709
% Q* b( x8 F6 l2 _9 ETransfer characteristics                 : BT.709
) F  L! x/ T/ U& N  AMatrix coefficients                      : BT.709
( e% }" i" ]7 V# V  j. A+ ]4 }
! Z/ Z  M! J: E( _Audio
5 K3 C. ]- M- w$ n" {ID                                       : 2
, ?5 C8 V6 m- W+ p7 pFormat                                   : E-AC-3! p1 B2 D6 [  u. `3 A7 f; s% ?" N
Format/Info                              : Enhanced Audio Coding 34 V5 ^7 A& o5 f$ \) I
Codec ID                                 : A_EAC3
. [; q4 f. a* j5 V4 P! sDuration                                 : 1 h 35 min# Y+ x2 @/ g. E
Bit rate mode                            : Constant
, H' P. \8 v' r* f9 a- n$ zBit rate                                 : 640 kb/s4 n: I" g2 J" y
Channel(s)                               : 6 channels  r& x6 T& a0 b9 [/ _$ I
Channel positions                        : Front: L C R, Side: L R, LFE% I  Q3 _1 Y' F. n$ w7 c
Sampling rate                            : 48.0 kHz
( Y" I8 O. V9 M( O1 F" }Frame rate                               : 187.500 FPS (256 SPF)" \0 H! u) f! C3 A
Compression mode                         : Lossy3 g" U9 A& A* H5 I" {3 L) m* F
Stream size                              : 438 MiB (5%)
1 j2 c! k7 w# u0 [" D: YLanguage                                 : English! [9 m% f0 @/ P/ F
Service kind                             : Complete Main
+ `# c( L% y# j9 ]" KDefault                                  : Yes; p; j$ ^8 b/ t& f) f
Forced                                   : No1 e- |8 t4 q- z( {3 K

2 J  i+ k- q: _2 S, J  `Text4 S; s; G5 R! F: `
ID                                       : 3
( S+ K! ]" T8 z/ I& K  f; ^Format                                   : UTF-81 o: u5 Z- g& w
Codec ID                                 : S_TEXT/UTF8
0 Q  @" J* J/ K; O$ ~8 i3 w+ _Codec ID/Info                            : UTF-8 Plain Text
8 W! p; C% f# KDuration                                 : 1 h 34 min$ A$ D9 C1 i# ?' a/ D
Bit rate                                 : 50 b/s  ~9 Z' d$ Y* d! m. ]
Count of elements                        : 1452
, g( b7 b6 P8 S+ w- hStream size                              : 35.4 KiB (0%)
, [+ t4 ?5 m6 p6 o: S4 wLanguage                                 : English3 h( p  [  o& A$ U* ~/ m6 z
Default                                  : No
. y# w! l/ n/ r) ~2 v# lForced                                   : No

5 u7 b' P+ o8 ], s% G* w* D

無目標地區. MKV.torrent

82.08 KB, 下載次數: 734

尚未簽到

發表於 2017-11-14 12:25:12 | 顯示全部樓層
感謝大大的辛勞分享!我會繼續在WK關注大大的文章!

尚未簽到

發表於 2017-11-14 12:25:15 來自手機 | 顯示全部樓層
精妙絕倫的精品,感謝啊!期待你更多更好的創作哦!
累計簽到︰914 天
連續簽到︰2 天
發表於 2017-11-14 13:02:23 | 顯示全部樓層
感謝大大的辛勞分享!我會繼續在WK關注大大的文章!

尚未簽到

發表於 2017-11-14 15:46:28 | 顯示全部樓層
感謝大大的辛勞分享!我會繼續在WK關注大大的文章!

尚未簽到

發表於 2017-11-14 17:55:27 | 顯示全部樓層
很讚的文章,謝謝咯!相信WK因為有你而更加精彩!

尚未簽到

發表於 2017-11-15 19:43:14 | 顯示全部樓層
感謝大大的辛勞分享!我會繼續在WK關注大大的文章!

尚未簽到

發表於 2017-11-15 19:43:18 | 顯示全部樓層
這個我收藏了!謝謝分享!WK的資源越來越豐富,這少不了大大的辛勞!

尚未簽到

發表於 7 天前 | 顯示全部樓層
這個我收藏了!謝謝分享!WK的資源越來越豐富,這少不了大大的辛勞!

尚未簽到

發表於 5 天前 來自手機 | 顯示全部樓層
這個我收藏了!謝謝分享!WK的資源越來越豐富,這少不了大大的辛勞!

回復樓主 親!! 現在是淩晨!妳失眠啦?餓啦?通宵加班?還是想WK啦?

 分享同時學會感恩,一句感謝的話語,就是最大的支持!  歡迎交流討論
您需要登錄後才可以回帖 登錄 | 立即注册

本版積分規則


c重要聲明:本論壇是以即時上載言論的方式運作,WK論壇對所有言論的真實性、立場及版權等,不負任何法律責任。而一切言論只代表發佈者個人意見,並非本網站之立場,讀者及用戶務必自行判斷內容之真實性。 由於本論壇受到「即時上載言論」運作方式所規限,故不能完全監察所有言論,若讀者及用戶發現有內容出現「真實性、立場及版權」等問題,請聯絡我們:info@waikeung.net論壇有權刪除任何言論(刪除前或不會作事先警告及通知 )。

發表新帖 返回頂部