WK綜合論壇, WK综合论坛

查看:13071 回復:18 發表於 2017-11-18 09:22:47
累計簽到︰1522 天
連續簽到︰10 天
發表於 2017-11-14 12:24:13 | 顯示全部樓層 |閱讀模式

無目標地區 The.Driftless.Area, 2016 [MKV / 8.15G] [複製鏈接]

影視分享
分類: 電影
題材: 愛情 劇情 喜劇 懸疑 
地區: 加拿大 美國 
語言: 英语 
格式: MKV 
年份: 2016
資源: BT资源
1.jpg # C* i! t6 e+ C8 I0 j! h! n

' G, j0 D6 V$ ]◎译  名 目标地区8 o% N6 ?9 W) r' P+ ]7 X
◎片  名 The Driftless Area
* L. C9 p8 Q9 ?1 {' G◎年  代 2015& S+ _/ M1 d4 G/ B3 l) z
◎产  地 加拿大/美国
3 P' x1 c$ S5 B! F4 V4 S◎类  别 剧情/喜剧/爱情/悬疑8 Y0 T4 S% Y* w+ m  q
◎语  言 英语9 j2 V" Q9 g; L/ S& M
◎上映日期 2016-04-26(美国)( W+ v: @2 Y% H$ H: [7 X1 P4 J  }8 I
◎IMDb评分  5.3/10 from 1,376 users6 G  A$ s0 W3 H1 J4 [+ `
◎IMDb链接  http://www.imdb.com/title/tt3687304/. e; k  V. V- {0 k
◎豆瓣评分 5.8/10 from 249 users
- a% R* b% Z2 P4 K/ ]* X: x◎豆瓣链接 https://movie.douban.com/subject/25889987/- ^$ i# m. L+ o5 V7 }6 p* C) M, r
◎片  长 95分钟
' ]& r) |+ U( g, l. l◎导  演 Zachary Sluser" T7 @7 t0 P& b5 X' C+ q- L
◎主  演 安东·利钦 Anton Yelchin
8 w6 M' {! f( _* R      佐伊·丹斯切 Zooey Deschanel
9 Q& ?7 J( d- k+ z      约翰·浩克斯 John Hawkes) E7 ?4 D9 }6 x5 X
      阿莉雅·肖卡特 Alia Shawkat! ]! k1 t- e  U1 ]
      弗兰克·兰格拉 Frank Langella3 N5 B! N; a1 p& `! o  K% q
      塞伦·希德 Ciarán Hinds- K, x# I3 ?7 i+ K' |1 }
      奥布瑞·普拉扎 Aubrey Plaza9 _: @; s0 j' Q
      Gary Hetherington3 P. B! s1 L$ B7 p; I$ S

. I# l% H4 a8 K6 @◎简  介2 p: a& x3 l& X- @0 e# F

+ C: T. W5 G8 {0 o3 m* f7 V  一位酒吧服务生在父母去世后回到他的故乡,发现自己陷入危险处境,跟一个神秘女子和一个恶人产生了纠葛。. ?2 o3 a( J4 Q( N
. x- q3 W( T/ e) S# m& y
Video* D4 H! O# |1 a5 F6 a3 p
ID                                       : 1$ P: k5 R4 A7 K$ T' R
Format                                   : AVC
) `  ^% b- R' E0 f- |Format/Info                              : Advanced Video Codec
3 _8 {1 t& D) l) A! FFormat profile                           : High@L4
9 Q+ T/ @% w2 QFormat settings                          : CABAC / 4 Ref Frames0 G# C) Y$ d' I( z7 Z. y* x7 D; t) ]' R
Format settings, CABAC                   : Yes
. {: E, k+ a7 a6 Q/ xFormat settings, ReFrames                : 4 frames
" H0 ~1 B/ [" B  c: }9 i5 oCodec ID                                 : V_MPEG4/ISO/AVC' o' g7 o- G$ E' j) n9 w* Q
Duration                                 : 1 h 35 min: Q% K% d" _9 J1 U
Bit rate mode                            : Variable) [. z; D/ x/ ~6 n- r: V4 v
Bit rate                                 : 11.6 Mb/s- ?# y$ K& M: \+ f% s; _' O
Maximum bit rate                         : 15.0 Mb/s
" u9 S7 W8 d2 V, e. u5 V/ YWidth                                    : 1 920 pixels
7 C& U* h+ S9 Y1 c- c2 v+ e- kHeight                                   : 800 pixels: h3 X- {4 A# G; N# _
Display aspect ratio                     : 2.40:1
( p( i3 G( I+ K0 I: R- DFrame rate mode                          : Constant; V7 [+ i7 S+ t7 y' W
Frame rate                               : 23.976 (24000/1001) FPS# ?. m7 e3 d: u/ B/ H
Color space                              : YUV5 i. F4 X) \8 {/ Z, F! z
Chroma subsampling                       : 4:2:0
( q: {2 S' e# MBit depth                                : 8 bits6 M( Y3 c" ^9 b
Scan type                                : Progressive0 Z# q% g# A) T5 ^- \9 [+ ^7 t6 t
Bits/(Pixel*Frame)                       : 0.314
! |" B" z/ t$ n  mStream size                              : 7.73 GiB (95%)7 a$ L. T# K1 T
Writing library                          : x264 core 148 r2623 d5b2374$ }; _' m7 }: H: ~
Encoding settings                        : cabac=1 / ref=4 / deblock=1:-1:-1 / analyse=0x3:0x133 / me=umh / subme=9 / psy=1 / psy_rd=1.00:0.15 / mixed_ref=1 / me_range=24 / chroma_me=1 / trellis=2 / 8x8dct=1 / cqm=0 / deadzone=21,11 / fast_pskip=1 / chroma_qp_offset=-3 / threads=25 / lookahead_threads=4 / sliced_threads=0 / nr=150 / decimate=1 / interlaced=0 / bluray_compat=0 / constrained_intra=0 / bframes=8 / b_pyramid=2 / b_adapt=2 / b_bias=0 / direct=3 / weightb=1 / open_gop=0 / weightp=2 / keyint=120 / keyint_min=61 / scenecut=0 / intra_refresh=0 / rc_lookahead=120 / rc=crf / mbtree=1 / crf=18.0 / qcomp=0.60 / qpmin=0 / qpmax=69 / qpstep=4 / vbv_maxrate=15000 / vbv_bufsize=31250 / crf_max=0.0 / nal_hrd=vbr / filler=0 / ip_ratio=1.40 / aq=3:1.00
8 V  `- D9 s* r3 \* oDefault                                  : Yes
, Z) r! D1 s) v4 \Forced                                   : No' R( r' ?1 v- B! `1 V0 p
Color range                              : Limited1 G3 T. G4 x, L: s0 U1 B; y! I; x
Color primaries                          : BT.709
: T' d% Y. Y; O$ |9 PTransfer characteristics                 : BT.7092 e6 e! t4 L1 S$ ?; n1 _
Matrix coefficients                      : BT.709" {4 t2 w. x2 R9 [1 Q  `# g- n

" l2 I: x. W/ D& p  M  zAudio
0 [: V/ r( \) H3 rID                                       : 26 T/ _, F/ H( k- c/ P+ E6 D" y
Format                                   : E-AC-3( O4 G8 K7 Z, S* _( d
Format/Info                              : Enhanced Audio Coding 3
/ R' e3 F" |1 e+ fCodec ID                                 : A_EAC35 A8 [  }0 |0 A
Duration                                 : 1 h 35 min% S! R! D; ~) R+ u
Bit rate mode                            : Constant% b- U1 @0 o! D
Bit rate                                 : 640 kb/s4 P0 [2 R# D* g% h$ a7 T8 M, V+ s0 y
Channel(s)                               : 6 channels
- |) J1 {* x9 w2 I& ~# E# dChannel positions                        : Front: L C R, Side: L R, LFE
. a/ H6 F. j2 t2 OSampling rate                            : 48.0 kHz# K* `* m( D8 T7 s1 q
Frame rate                               : 187.500 FPS (256 SPF)
3 |# m. i! v. M5 T: `Compression mode                         : Lossy
. |1 u5 m# r. e$ }  h1 ?Stream size                              : 438 MiB (5%)
! a3 a- {: Y! `$ W2 z! lLanguage                                 : English# K" S* r+ Z* h* y8 _
Service kind                             : Complete Main
8 h/ h! z* C8 t4 zDefault                                  : Yes" [; C/ B/ X* {7 \1 w
Forced                                   : No3 P- P; L; _8 \5 p( b9 t- i
" Q; n7 |/ \3 h0 T$ x/ u7 a+ {
Text& g. ?1 a# G( F6 x/ E) m6 a" r. n
ID                                       : 3
# y) X5 Z  B1 \Format                                   : UTF-8" R# Q, _5 \: B0 D4 E( n7 o8 j6 C; h
Codec ID                                 : S_TEXT/UTF86 G& k) j. A" n
Codec ID/Info                            : UTF-8 Plain Text: N) B3 v4 r5 n4 Q) O0 M
Duration                                 : 1 h 34 min# d/ |  m; ~% W; O8 `4 N
Bit rate                                 : 50 b/s
1 }( t" ~/ r4 q/ V  nCount of elements                        : 14522 O" D+ {0 J4 i; o4 x5 j
Stream size                              : 35.4 KiB (0%)
' X% {$ E8 @% b2 O  [Language                                 : English
4 h& ]- s4 h9 R2 e( LDefault                                  : No; ~: i0 ?3 Y0 f  s& X% \/ V: |! f
Forced                                   : No

7 Z+ N: I8 g3 E, X1 i& C

無目標地區. MKV.torrent

82.08 KB, 下載次數: 734

尚未簽到

發表於 2017-11-14 12:25:12 | 顯示全部樓層
感謝大大的辛勞分享!我會繼續在WK關注大大的文章!

尚未簽到

發表於 2017-11-14 12:25:15 來自手機 | 顯示全部樓層
精妙絕倫的精品,感謝啊!期待你更多更好的創作哦!
累計簽到︰1136 天
連續簽到︰2 天
發表於 2017-11-14 13:02:23 | 顯示全部樓層
感謝大大的辛勞分享!我會繼續在WK關注大大的文章!

尚未簽到

發表於 2017-11-14 15:46:28 | 顯示全部樓層
感謝大大的辛勞分享!我會繼續在WK關注大大的文章!

尚未簽到

發表於 2017-11-14 17:55:27 | 顯示全部樓層
很讚的文章,謝謝咯!相信WK因為有你而更加精彩!

尚未簽到

發表於 2017-11-15 19:43:14 | 顯示全部樓層
感謝大大的辛勞分享!我會繼續在WK關注大大的文章!

尚未簽到

發表於 2017-11-15 19:43:18 | 顯示全部樓層
這個我收藏了!謝謝分享!WK的資源越來越豐富,這少不了大大的辛勞!

尚未簽到

發表於 2017-11-16 05:03:38 | 顯示全部樓層
這個我收藏了!謝謝分享!WK的資源越來越豐富,這少不了大大的辛勞!

尚未簽到

發表於 2017-11-18 09:22:47 來自手機 | 顯示全部樓層
這個我收藏了!謝謝分享!WK的資源越來越豐富,這少不了大大的辛勞!

回復樓主 親!! 下午好,中午養足了精神嗎?讓我們一起渡過下午茶時間,WK有您更精彩!

 分享同時學會感恩,一句感謝的話語,就是最大的支持!  歡迎交流討論
您需要登錄後才可以回帖 登錄 | 立即注册

本版積分規則

c重要聲明:本論壇是以即時上載言論的方式運作,WK論壇對所有言論的真實性、立場及版權等,不負任何法律責任。而一切言論只代表發佈者個人意見,並非本網站之立場,讀者及用戶務必自行判斷內容之真實性。 由於本論壇受到「即時上載言論」運作方式所規限,故不能完全監察所有言論,若讀者及用戶發現有內容出現「真實性、立場及版權」等問題,請聯絡我們:info@waikeung.net論壇有權刪除任何言論(刪除前或不會作事先警告及通知)| SiteMap[網站地圖]

發表新帖 返回頂部