WK綜合論壇, WK综合论坛

查看:12746 回復:18 發表於 2017-11-18 09:22:47
本主題由 212love 於 2017-11-16 13:09 解除高亮
累計簽到︰1354 天
連續簽到︰22 天
發表於 2017-11-14 12:24:13 | 顯示全部樓層 |閱讀模式

無目標地區 The.Driftless.Area, 2016 [MKV / 8.15G] [複製鏈接]

影視分享
分類: 電影
題材: 愛情 劇情 喜劇 懸疑 
地區: 加拿大 美國 
語言: 英语 
格式: MKV 
年份: 2016
資源: BT资源
1.jpg
  f$ O# A( S2 R3 ~
" n6 D8 H- W# J  x9 W  X$ E◎译  名 目标地区
4 d& v; u4 C* y, r+ V◎片  名 The Driftless Area6 j! d7 J2 {: e" i& f0 C
◎年  代 2015# O9 Z, B) i3 i- h" h- x$ [
◎产  地 加拿大/美国4 Y  G5 n9 i, K. U
◎类  别 剧情/喜剧/爱情/悬疑5 a- i$ Q% d6 z, j. C, o1 H
◎语  言 英语
0 P7 ?$ [- j% n: p, Y% h# O4 m◎上映日期 2016-04-26(美国)6 \  S- v7 K4 P" X$ A
◎IMDb评分  5.3/10 from 1,376 users
) r) u* N5 `; p; K$ m' q2 K; f% K◎IMDb链接  http://www.imdb.com/title/tt3687304/
: {. W% ]9 P7 }" K/ \+ [& {# {4 c3 m◎豆瓣评分 5.8/10 from 249 users
, u2 p: n* x  ^4 S◎豆瓣链接 https://movie.douban.com/subject/25889987/
/ k9 d6 E' @+ ~6 Y◎片  长 95分钟1 X* j6 n  @5 F4 X2 s2 N% P3 w
◎导  演 Zachary Sluser  U  Y+ }. U2 a5 }8 b* D4 A
◎主  演 安东·利钦 Anton Yelchin
8 z+ x( Z: V+ j6 v) H2 ~      佐伊·丹斯切 Zooey Deschanel" _# t' Q, \" Y" R/ r0 u4 f2 X2 c
      约翰·浩克斯 John Hawkes
3 J4 e3 t" h- v* u      阿莉雅·肖卡特 Alia Shawkat
6 T! v% l9 n7 X+ X  `      弗兰克·兰格拉 Frank Langella
4 M5 e) a( O0 }! k1 Y      塞伦·希德 Ciarán Hinds  u6 s  b% ~- J+ N) F  o9 ^
      奥布瑞·普拉扎 Aubrey Plaza: [9 n7 F* g7 a9 f0 G1 v/ W$ ~
      Gary Hetherington
8 `9 m6 W) J7 C. o$ j1 d1 ^9 u, `+ R0 n% N1 |
◎简  介9 }1 Z9 J% |" A, M" ]' }
5 [3 W* p! t- }3 l
  一位酒吧服务生在父母去世后回到他的故乡,发现自己陷入危险处境,跟一个神秘女子和一个恶人产生了纠葛。, F5 m3 x9 Z/ v# `' J" w
" N9 }3 l/ F3 u3 i& J" i
Video
) D2 [' B, y  @ID                                       : 1/ A& ]) I: M# P- t0 W
Format                                   : AVC
8 A2 A) k0 L1 i- VFormat/Info                              : Advanced Video Codec
! T2 q5 O" }! ^2 u% s- J6 t" s, pFormat profile                           : High@L4
! {  n6 V; ^! l+ }3 j8 ^+ wFormat settings                          : CABAC / 4 Ref Frames& D5 b5 W. q  f! d
Format settings, CABAC                   : Yes
8 C& b" a% f( ^! |  P8 n0 AFormat settings, ReFrames                : 4 frames  f6 B6 x7 j9 y! ^2 o
Codec ID                                 : V_MPEG4/ISO/AVC
4 U) @0 b+ `, I) iDuration                                 : 1 h 35 min
3 @2 A$ F( w1 O" o$ d! Q  p, tBit rate mode                            : Variable9 x0 N, b- _. `
Bit rate                                 : 11.6 Mb/s9 t3 b; }3 x3 A  e  w
Maximum bit rate                         : 15.0 Mb/s
5 |1 M' K4 V% o  g7 X2 I1 j- yWidth                                    : 1 920 pixels
5 t; Y/ d( f7 |Height                                   : 800 pixels
9 i/ |' j, J* U) J  s% LDisplay aspect ratio                     : 2.40:1% g" d5 Y$ l: h. ~) K: F: g: n
Frame rate mode                          : Constant# O! M" N, ^$ Y
Frame rate                               : 23.976 (24000/1001) FPS/ X5 i5 h# h7 g# I- M
Color space                              : YUV
$ p3 H8 w. q  ~  DChroma subsampling                       : 4:2:08 G( E8 T0 p1 C' Y
Bit depth                                : 8 bits1 Y: x$ |. t9 \0 _
Scan type                                : Progressive' I7 d3 R7 }( ~+ Y8 X
Bits/(Pixel*Frame)                       : 0.314- X4 N- ~; W" {0 o/ M
Stream size                              : 7.73 GiB (95%)) Z% l* M) e3 {5 x1 B5 ?3 i" j
Writing library                          : x264 core 148 r2623 d5b2374
$ l6 m, ?# n* kEncoding settings                        : cabac=1 / ref=4 / deblock=1:-1:-1 / analyse=0x3:0x133 / me=umh / subme=9 / psy=1 / psy_rd=1.00:0.15 / mixed_ref=1 / me_range=24 / chroma_me=1 / trellis=2 / 8x8dct=1 / cqm=0 / deadzone=21,11 / fast_pskip=1 / chroma_qp_offset=-3 / threads=25 / lookahead_threads=4 / sliced_threads=0 / nr=150 / decimate=1 / interlaced=0 / bluray_compat=0 / constrained_intra=0 / bframes=8 / b_pyramid=2 / b_adapt=2 / b_bias=0 / direct=3 / weightb=1 / open_gop=0 / weightp=2 / keyint=120 / keyint_min=61 / scenecut=0 / intra_refresh=0 / rc_lookahead=120 / rc=crf / mbtree=1 / crf=18.0 / qcomp=0.60 / qpmin=0 / qpmax=69 / qpstep=4 / vbv_maxrate=15000 / vbv_bufsize=31250 / crf_max=0.0 / nal_hrd=vbr / filler=0 / ip_ratio=1.40 / aq=3:1.00
9 }7 n6 C" D2 A9 oDefault                                  : Yes
: u, q! l# @5 s$ m0 j5 s; mForced                                   : No
7 l6 V  }  \- h4 E! UColor range                              : Limited3 [* n6 _% U' y- c% q! W  ?
Color primaries                          : BT.709
4 c5 s: ?# g( @2 q$ A. `- mTransfer characteristics                 : BT.709
8 K% F6 ^+ z- n: O7 qMatrix coefficients                      : BT.7096 h; q5 W! l# J# i8 r' ]! s

2 `% S4 X  N: i, V; `; p4 OAudio
0 e  H5 E* q: U# w" @/ ?# iID                                       : 2
; K. j* R1 z0 c, L/ |3 _Format                                   : E-AC-39 G0 E( f' G+ I  x3 M1 p6 K
Format/Info                              : Enhanced Audio Coding 3: r  j& L* O9 n! [! s% Q, L- ]9 b5 I
Codec ID                                 : A_EAC3
8 E* o1 K# V5 B7 H8 BDuration                                 : 1 h 35 min
6 S3 |9 N- x" K: eBit rate mode                            : Constant& c2 g) j3 R5 o5 q7 m
Bit rate                                 : 640 kb/s4 u' q! A3 y5 P1 R/ z
Channel(s)                               : 6 channels
8 G5 ~% n8 G4 r; K0 G7 lChannel positions                        : Front: L C R, Side: L R, LFE
' m( s; w4 A. e& c7 |Sampling rate                            : 48.0 kHz
  i' H$ {1 S- C. G  F# A8 |Frame rate                               : 187.500 FPS (256 SPF)# ]4 v2 y: w- k+ [
Compression mode                         : Lossy* [6 w* y$ F8 A7 ]6 q  D
Stream size                              : 438 MiB (5%)
! ^. h3 b# a# F$ `Language                                 : English
. s1 }5 G6 c5 X, ~& D) wService kind                             : Complete Main& C$ k4 Z( z# o( e4 D9 o
Default                                  : Yes
1 w" J; g' W" i" u9 u( q+ Z' g" {Forced                                   : No' `) y( {  S1 V0 F' d2 B# h, m

6 N' a5 A; d/ N! }$ f- x: ~, ZText7 A( l8 d1 c& @- I( H: _
ID                                       : 3* {; f* ]1 Q/ x9 c1 Q% s6 J, g
Format                                   : UTF-83 g, ^0 H; a, _# }& ^6 @" ^8 b
Codec ID                                 : S_TEXT/UTF81 W6 R, A* P6 i( \/ w( R
Codec ID/Info                            : UTF-8 Plain Text8 t) J8 n% y% U2 t' e" S# A( P
Duration                                 : 1 h 34 min
$ }! S4 D$ v! vBit rate                                 : 50 b/s
' z0 S& c) E6 v9 NCount of elements                        : 1452
- c$ ^+ i6 G; tStream size                              : 35.4 KiB (0%)0 N$ }/ J; `: n/ a+ O
Language                                 : English
. M: V$ }5 d# ^% G  x* ^- l- X3 d3 zDefault                                  : No2 J: n0 i$ ]+ T% M/ h
Forced                                   : No
' b# ^0 u2 z; ]1 t

無目標地區. MKV.torrent

82.08 KB, 下載次數: 734

尚未簽到

發表於 2017-11-14 12:25:12 | 顯示全部樓層
感謝大大的辛勞分享!我會繼續在WK關注大大的文章!

尚未簽到

發表於 2017-11-14 12:25:15 來自手機 | 顯示全部樓層
精妙絕倫的精品,感謝啊!期待你更多更好的創作哦!
累計簽到︰1028 天
連續簽到︰3 天
發表於 2017-11-14 13:02:23 | 顯示全部樓層
感謝大大的辛勞分享!我會繼續在WK關注大大的文章!

尚未簽到

發表於 2017-11-14 15:46:28 | 顯示全部樓層
感謝大大的辛勞分享!我會繼續在WK關注大大的文章!

尚未簽到

發表於 2017-11-14 17:55:27 | 顯示全部樓層
很讚的文章,謝謝咯!相信WK因為有你而更加精彩!

尚未簽到

發表於 2017-11-15 19:43:14 | 顯示全部樓層
感謝大大的辛勞分享!我會繼續在WK關注大大的文章!

尚未簽到

發表於 2017-11-15 19:43:18 | 顯示全部樓層
這個我收藏了!謝謝分享!WK的資源越來越豐富,這少不了大大的辛勞!

尚未簽到

發表於 2017-11-16 05:03:38 | 顯示全部樓層
這個我收藏了!謝謝分享!WK的資源越來越豐富,這少不了大大的辛勞!

尚未簽到

發表於 2017-11-18 09:22:47 來自手機 | 顯示全部樓層
這個我收藏了!謝謝分享!WK的資源越來越豐富,這少不了大大的辛勞!

回復樓主 親!! 現在是淩晨!妳失眠啦?餓啦?通宵加班?還是想WK啦?

 分享同時學會感恩,一句感謝的話語,就是最大的支持!  歡迎交流討論
您需要登錄後才可以回帖 登錄 | 立即注册

本版積分規則

c重要聲明:本論壇是以即時上載言論的方式運作,WK論壇對所有言論的真實性、立場及版權等,不負任何法律責任。而一切言論只代表發佈者個人意見,並非本網站之立場,讀者及用戶務必自行判斷內容之真實性。 由於本論壇受到「即時上載言論」運作方式所規限,故不能完全監察所有言論,若讀者及用戶發現有內容出現「真實性、立場及版權」等問題,請聯絡我們:info@waikeung.net論壇有權刪除任何言論(刪除前或不會作事先警告及通知)| SiteMap[網站地圖]

發表新帖 返回頂部