WK綜合論壇, WK综合论坛

查看:12935 回復:18 發表於 2017-11-18 09:22:47
本主題由 212love 於 2017-11-16 13:09 解除高亮
累計簽到︰1438 天
連續簽到︰35 天
發表於 2017-11-14 12:24:13 | 顯示全部樓層 |閱讀模式

無目標地區 The.Driftless.Area, 2016 [MKV / 8.15G] [複製鏈接]

影視分享
分類: 電影
題材: 愛情 劇情 喜劇 懸疑 
地區: 加拿大 美國 
語言: 英语 
格式: MKV 
年份: 2016
資源: BT资源
1.jpg
( c8 x* q3 ^* H/ s" Q( @- S# }
◎译  名 目标地区
4 e2 L/ D3 ~6 O, q, R- R; o◎片  名 The Driftless Area' q# |5 m9 r/ c% y6 c  G9 f1 Y) X
◎年  代 20152 G5 `" a$ W/ p5 A6 X
◎产  地 加拿大/美国
. X. ?5 q# k- p- \◎类  别 剧情/喜剧/爱情/悬疑& p! K7 \1 c& M" p9 U" h
◎语  言 英语/ ?- d% n7 \9 d! w# f( @9 [
◎上映日期 2016-04-26(美国)9 r, B* m$ |; B8 o" m, J7 x
◎IMDb评分  5.3/10 from 1,376 users9 n2 h2 Q! Y& ~+ D3 E
◎IMDb链接  http://www.imdb.com/title/tt3687304/
: D% y8 A6 [* ?% d) \◎豆瓣评分 5.8/10 from 249 users; d& n( c3 \% W' z% G# @
◎豆瓣链接 https://movie.douban.com/subject/25889987/# C; k! c( Z4 ?5 _! D, X# l8 F' k
◎片  长 95分钟0 C. M1 ]8 r* f3 j2 i9 ?
◎导  演 Zachary Sluser9 F; M$ `5 w, _8 U& k! C- B+ D
◎主  演 安东·利钦 Anton Yelchin0 v$ U" j/ Y- ?2 V3 [# |
      佐伊·丹斯切 Zooey Deschanel
3 K, P! k4 t7 l7 L- l$ V) M      约翰·浩克斯 John Hawkes, l* Y. n1 B9 {
      阿莉雅·肖卡特 Alia Shawkat( M" y. n! j8 c5 ^* |
      弗兰克·兰格拉 Frank Langella) c+ R3 m9 ?8 s7 ~7 r
      塞伦·希德 Ciarán Hinds
# G; ?; Y; A9 Q5 m1 G      奥布瑞·普拉扎 Aubrey Plaza
; s& c& E8 Z( f: n0 U( \. u      Gary Hetherington" K. E, I4 S8 a6 h- ~6 v, p# ~
5 r; }9 {! R, u$ H
◎简  介4 m' a: \0 n, V  V# O

1 V+ Y2 e6 C5 b, I  一位酒吧服务生在父母去世后回到他的故乡,发现自己陷入危险处境,跟一个神秘女子和一个恶人产生了纠葛。
! O+ L) ?: K  N4 O8 F1 \: {& T9 y1 r9 _6 P/ b* J1 H9 @. n
Video
: I+ ^- M+ n9 K: x& `ID                                       : 1
% ?1 j" q. ?, r) S% wFormat                                   : AVC
" @3 U1 U7 a! o1 o/ oFormat/Info                              : Advanced Video Codec
( ~) L' j8 ~4 ^$ i4 C4 RFormat profile                           : High@L4
0 ]$ p% n" x3 e  R7 g; h, n; NFormat settings                          : CABAC / 4 Ref Frames% i7 l9 x' K/ K
Format settings, CABAC                   : Yes
' C* }8 C5 Q2 S: ^9 XFormat settings, ReFrames                : 4 frames: U3 U& Y' t* s
Codec ID                                 : V_MPEG4/ISO/AVC) c: v  S( e- e: q% B% H
Duration                                 : 1 h 35 min" G, E; U$ B# r: y
Bit rate mode                            : Variable
5 O- N. O2 Q3 o5 [9 w3 q: RBit rate                                 : 11.6 Mb/s
+ i. C, N: r6 T8 j* Y' jMaximum bit rate                         : 15.0 Mb/s
- C, ^; [" J9 S! {* A. B, ^Width                                    : 1 920 pixels2 x' p) e# S; l- B) Y
Height                                   : 800 pixels
2 e* C0 }4 ?2 s" m: L" M2 jDisplay aspect ratio                     : 2.40:1
2 n( B- r0 y$ D% J& I' U6 m# yFrame rate mode                          : Constant( Q+ Z; v+ b$ M$ I1 d# e% j
Frame rate                               : 23.976 (24000/1001) FPS
% u$ l* g: g! `* |! S2 i, HColor space                              : YUV
2 S2 e! w6 x8 t# K. O9 R9 jChroma subsampling                       : 4:2:09 S% s5 Z8 ~4 j7 m8 D7 K4 t; b- h
Bit depth                                : 8 bits
* _4 j, G  E' w7 vScan type                                : Progressive: p0 ?" p5 \1 g& A% O) @) X# |
Bits/(Pixel*Frame)                       : 0.314
, P; e' a7 m: G" J6 yStream size                              : 7.73 GiB (95%)+ p% c9 W& n4 @
Writing library                          : x264 core 148 r2623 d5b2374
6 q% l+ q$ L1 r) CEncoding settings                        : cabac=1 / ref=4 / deblock=1:-1:-1 / analyse=0x3:0x133 / me=umh / subme=9 / psy=1 / psy_rd=1.00:0.15 / mixed_ref=1 / me_range=24 / chroma_me=1 / trellis=2 / 8x8dct=1 / cqm=0 / deadzone=21,11 / fast_pskip=1 / chroma_qp_offset=-3 / threads=25 / lookahead_threads=4 / sliced_threads=0 / nr=150 / decimate=1 / interlaced=0 / bluray_compat=0 / constrained_intra=0 / bframes=8 / b_pyramid=2 / b_adapt=2 / b_bias=0 / direct=3 / weightb=1 / open_gop=0 / weightp=2 / keyint=120 / keyint_min=61 / scenecut=0 / intra_refresh=0 / rc_lookahead=120 / rc=crf / mbtree=1 / crf=18.0 / qcomp=0.60 / qpmin=0 / qpmax=69 / qpstep=4 / vbv_maxrate=15000 / vbv_bufsize=31250 / crf_max=0.0 / nal_hrd=vbr / filler=0 / ip_ratio=1.40 / aq=3:1.00
2 x% X9 F9 n  C7 c. i2 QDefault                                  : Yes
5 t4 w. p3 X! X+ yForced                                   : No
6 s+ D' ~* e3 g, p# [5 dColor range                              : Limited$ _3 Y6 d8 Y. b0 e6 E- C" ~
Color primaries                          : BT.709
2 z3 W+ w5 x% \- K( H/ ZTransfer characteristics                 : BT.709
/ g) j* M" k8 E6 y$ c; |Matrix coefficients                      : BT.709
) W) B2 }8 Q5 D! z8 F0 Y  u
2 O5 V* e8 v8 mAudio
4 q% e1 a* k/ ]  K8 o. OID                                       : 2' ]* r$ r3 ]8 u! D4 ~$ L$ l
Format                                   : E-AC-30 i! g! G2 j3 v; A; v$ ]. P
Format/Info                              : Enhanced Audio Coding 3
8 a' I# G+ `. Y" {Codec ID                                 : A_EAC3
2 i% x6 ~& u% j/ p. H2 ADuration                                 : 1 h 35 min
: z$ F% @9 N; I( D0 ^5 W  RBit rate mode                            : Constant+ H  K1 Z4 {' v2 S' w$ Z
Bit rate                                 : 640 kb/s( M9 T5 }( `( L4 N' k7 q- C  g
Channel(s)                               : 6 channels
  t: V$ h8 I, a, m, d7 A+ @* T# fChannel positions                        : Front: L C R, Side: L R, LFE9 A9 h2 B! g* }  S+ E
Sampling rate                            : 48.0 kHz
, X% p& w$ F2 I9 Q2 D5 e* g! nFrame rate                               : 187.500 FPS (256 SPF)9 E1 q* x9 H+ U! [
Compression mode                         : Lossy( r  k: M7 [1 l3 l; a1 d$ c1 d
Stream size                              : 438 MiB (5%)9 d- W& J4 |* \$ j6 w- ?8 k
Language                                 : English
  z+ o* l5 X. B1 D3 e! \( c- }Service kind                             : Complete Main5 K  u& B2 I/ I3 T- l1 i) P" ~
Default                                  : Yes
) G% v+ V& l  ?$ [3 RForced                                   : No/ x/ i: K* V, O! w9 f9 K

" b6 m0 O1 Z. ^- b: lText
1 e) t. @- t$ f" t& f  c& qID                                       : 3
2 w- ?& u: O# E* H( U1 A9 \Format                                   : UTF-8
; |2 T/ _" i' T8 r6 j7 ZCodec ID                                 : S_TEXT/UTF8
. ?4 A/ K& L( q: JCodec ID/Info                            : UTF-8 Plain Text
) d8 W- T4 A; H: C3 J5 mDuration                                 : 1 h 34 min
& l( C0 ^; |/ B, m. x' V& jBit rate                                 : 50 b/s
" @7 q/ P: |! W: B$ f; ^3 CCount of elements                        : 1452
+ A2 I; l0 C* T8 GStream size                              : 35.4 KiB (0%)
  t- X! p! a. a6 h! F' XLanguage                                 : English
7 o6 }6 B; A- jDefault                                  : No# W. F5 K. _) s6 i8 t7 W- |
Forced                                   : No

4 @- S1 _; b# b3 C( x+ W! y1 F  G2 D) M

無目標地區. MKV.torrent

82.08 KB, 下載次數: 734

尚未簽到

發表於 2017-11-14 12:25:12 | 顯示全部樓層
感謝大大的辛勞分享!我會繼續在WK關注大大的文章!

尚未簽到

發表於 2017-11-14 12:25:15 來自手機 | 顯示全部樓層
精妙絕倫的精品,感謝啊!期待你更多更好的創作哦!
累計簽到︰1092 天
連續簽到︰2 天
發表於 2017-11-14 13:02:23 | 顯示全部樓層
感謝大大的辛勞分享!我會繼續在WK關注大大的文章!

尚未簽到

發表於 2017-11-14 15:46:28 | 顯示全部樓層
感謝大大的辛勞分享!我會繼續在WK關注大大的文章!

尚未簽到

發表於 2017-11-14 17:55:27 | 顯示全部樓層
很讚的文章,謝謝咯!相信WK因為有你而更加精彩!

尚未簽到

發表於 2017-11-15 19:43:14 | 顯示全部樓層
感謝大大的辛勞分享!我會繼續在WK關注大大的文章!

尚未簽到

發表於 2017-11-15 19:43:18 | 顯示全部樓層
這個我收藏了!謝謝分享!WK的資源越來越豐富,這少不了大大的辛勞!

尚未簽到

發表於 2017-11-16 05:03:38 | 顯示全部樓層
這個我收藏了!謝謝分享!WK的資源越來越豐富,這少不了大大的辛勞!

尚未簽到

發表於 2017-11-18 09:22:47 來自手機 | 顯示全部樓層
這個我收藏了!謝謝分享!WK的資源越來越豐富,這少不了大大的辛勞!

回復樓主 親!! 現在是後半夜!妳失眠啦?餓啦?通宵加班?還是想WK啦?

 分享同時學會感恩,一句感謝的話語,就是最大的支持!  歡迎交流討論
您需要登錄後才可以回帖 登錄 | 立即注册

本版積分規則

c重要聲明:本論壇是以即時上載言論的方式運作,WK論壇對所有言論的真實性、立場及版權等,不負任何法律責任。而一切言論只代表發佈者個人意見,並非本網站之立場,讀者及用戶務必自行判斷內容之真實性。 由於本論壇受到「即時上載言論」運作方式所規限,故不能完全監察所有言論,若讀者及用戶發現有內容出現「真實性、立場及版權」等問題,請聯絡我們:info@waikeung.net論壇有權刪除任何言論(刪除前或不會作事先警告及通知)| SiteMap[網站地圖]

發表新帖 返回頂部