WK綜合論壇, WK综合论坛

查看:12547 回復:18 發表於 2017-11-18 09:22:47
本主題由 212love 於 2017-11-16 13:09 解除高亮
累計簽到︰1273 天
連續簽到︰34 天
發表於 2017-11-14 12:24:13 | 顯示全部樓層 |閱讀模式

無目標地區 The.Driftless.Area, 2016 [MKV / 8.15G] [複製鏈接]

影視分享
分類: 電影
題材: 愛情 劇情 喜劇 懸疑 
地區: 加拿大 美國 
語言: 英语 
格式: MKV 
年份: 2016
資源: BT资源
1.jpg % i- L. b' S1 I2 n( b
* E+ Q1 X+ T7 k) n6 T' v
◎译  名 目标地区2 ~0 N7 K! \, K
◎片  名 The Driftless Area& {& F4 q5 E4 P, k
◎年  代 20155 B1 r6 H2 W$ W: j
◎产  地 加拿大/美国
& s8 r3 Y  X5 E8 {/ y+ d◎类  别 剧情/喜剧/爱情/悬疑
, U3 H7 Z( v  x& C/ i◎语  言 英语
1 Q5 u2 M+ J! R! ?. \◎上映日期 2016-04-26(美国)
" s( l( X1 E* `◎IMDb评分  5.3/10 from 1,376 users
- p" m9 Y5 e% H5 T◎IMDb链接  http://www.imdb.com/title/tt3687304/& o9 A2 h- m, c4 Y8 P4 x* r
◎豆瓣评分 5.8/10 from 249 users
% {4 ?; H' _0 E◎豆瓣链接 https://movie.douban.com/subject/25889987/8 o$ @9 D7 `+ E/ I
◎片  长 95分钟" V! b7 }2 @3 N# {# ]8 B
◎导  演 Zachary Sluser
) ]" p  I- E2 N" D) a◎主  演 安东·利钦 Anton Yelchin* V- Y+ ^0 l- C, M1 |; ^
      佐伊·丹斯切 Zooey Deschanel, S8 T3 f; T; V) d
      约翰·浩克斯 John Hawkes+ C# {0 `1 ?; ]9 K5 b2 r) h
      阿莉雅·肖卡特 Alia Shawkat
2 U0 o: O) q, |% {# n- B      弗兰克·兰格拉 Frank Langella9 w4 A+ r* g, m, a: ~6 d
      塞伦·希德 Ciarán Hinds
% X; v9 g& ~. P2 F, c      奥布瑞·普拉扎 Aubrey Plaza
5 ?( J: u' F8 \) D4 b      Gary Hetherington5 X% `; Y: o0 h4 ^. I$ V0 a# U

$ S* g+ G9 \. N◎简  介
9 P; E7 j) d" r# W
, [8 s/ W8 d! n+ `6 t3 f7 e+ f, L1 |  一位酒吧服务生在父母去世后回到他的故乡,发现自己陷入危险处境,跟一个神秘女子和一个恶人产生了纠葛。) w: `5 P# I0 h6 [/ o# W" X, v

2 c3 g* F- E: c1 m1 i0 z( W, }Video
/ T. a8 V! `9 l# D9 d! UID                                       : 1, q  h1 Z* v& P
Format                                   : AVC
% E% Y$ m# l% B1 TFormat/Info                              : Advanced Video Codec! b, e$ M. _/ m! x  f
Format profile                           : High@L4
' V( V' k+ \9 rFormat settings                          : CABAC / 4 Ref Frames$ Q. G0 a, ^4 e3 W- m2 m
Format settings, CABAC                   : Yes
' \( {. ^' C& l1 q7 W/ G" p6 vFormat settings, ReFrames                : 4 frames
) x8 p  {) G4 @% RCodec ID                                 : V_MPEG4/ISO/AVC; [; f0 ]# q4 A5 H1 T/ Z
Duration                                 : 1 h 35 min) C' W! A, c; a
Bit rate mode                            : Variable% e" N: P- [* V0 L
Bit rate                                 : 11.6 Mb/s
" }- v4 L2 ^: o' s+ g$ \Maximum bit rate                         : 15.0 Mb/s
/ [' I& V$ C$ F  R, E% q& LWidth                                    : 1 920 pixels' Z1 s5 s  I# X9 R. R9 j0 ]
Height                                   : 800 pixels
) z3 g+ u0 ]6 i+ k8 L* ?& KDisplay aspect ratio                     : 2.40:17 n  |4 [0 E: Z; r- {
Frame rate mode                          : Constant
7 \: q4 w) p$ f9 l1 q0 ZFrame rate                               : 23.976 (24000/1001) FPS1 g3 r( X# m+ \) e- h# z
Color space                              : YUV
2 z2 Z1 U) g+ o) yChroma subsampling                       : 4:2:0
4 P( u2 b7 c, J" {8 v) `6 l3 ?Bit depth                                : 8 bits
, \; ~( c; D: iScan type                                : Progressive
+ N% G7 A6 q: k5 p  j/ i1 HBits/(Pixel*Frame)                       : 0.314
7 d' [5 o1 m# @0 NStream size                              : 7.73 GiB (95%)- @$ v  ~/ k' ~3 e3 J1 n3 |* B
Writing library                          : x264 core 148 r2623 d5b23740 b9 @8 S# w/ T% ?9 f
Encoding settings                        : cabac=1 / ref=4 / deblock=1:-1:-1 / analyse=0x3:0x133 / me=umh / subme=9 / psy=1 / psy_rd=1.00:0.15 / mixed_ref=1 / me_range=24 / chroma_me=1 / trellis=2 / 8x8dct=1 / cqm=0 / deadzone=21,11 / fast_pskip=1 / chroma_qp_offset=-3 / threads=25 / lookahead_threads=4 / sliced_threads=0 / nr=150 / decimate=1 / interlaced=0 / bluray_compat=0 / constrained_intra=0 / bframes=8 / b_pyramid=2 / b_adapt=2 / b_bias=0 / direct=3 / weightb=1 / open_gop=0 / weightp=2 / keyint=120 / keyint_min=61 / scenecut=0 / intra_refresh=0 / rc_lookahead=120 / rc=crf / mbtree=1 / crf=18.0 / qcomp=0.60 / qpmin=0 / qpmax=69 / qpstep=4 / vbv_maxrate=15000 / vbv_bufsize=31250 / crf_max=0.0 / nal_hrd=vbr / filler=0 / ip_ratio=1.40 / aq=3:1.00- \4 m# B- Y2 q5 i9 g. I
Default                                  : Yes  M3 w7 [2 K* d4 L* b# g5 k
Forced                                   : No, g. Y; R4 @( ^
Color range                              : Limited
  C0 m0 Q, e* O' S* d9 cColor primaries                          : BT.709
1 @  @+ ]# G5 ^2 `  ^; ]Transfer characteristics                 : BT.709+ [& M* s' K" Y) ]& n) u" f
Matrix coefficients                      : BT.709
; w# y4 R& X3 r, ~9 @  C2 J  |/ G; J1 l
Audio% X5 e) j( ]' ]
ID                                       : 2) r% P6 z/ |6 |3 s* @, v0 y0 v
Format                                   : E-AC-38 z# s, ~0 b; h6 ?7 m- Q
Format/Info                              : Enhanced Audio Coding 3
0 Z$ g7 n! {8 Q9 L$ ?) D8 i  S  zCodec ID                                 : A_EAC3! A- [0 L) a; e8 X6 P
Duration                                 : 1 h 35 min9 L% T% v4 W3 ?% u
Bit rate mode                            : Constant0 u9 @' ~, t1 E" H
Bit rate                                 : 640 kb/s  S& I* Z7 H, Q; t( V, p# `2 X/ s
Channel(s)                               : 6 channels8 `3 H9 w2 m3 j- `
Channel positions                        : Front: L C R, Side: L R, LFE, o% ^& s7 z8 ~8 A
Sampling rate                            : 48.0 kHz: I- r) l, v/ `  f  D
Frame rate                               : 187.500 FPS (256 SPF)& S! \  Z3 A3 f- V' d2 i+ b5 K) k
Compression mode                         : Lossy# ~2 P- @5 j% ~7 X* }* E
Stream size                              : 438 MiB (5%)
% Z0 X: X6 t6 W* T5 R( _; o3 I1 ELanguage                                 : English
( J( X; s0 ]. V2 P" A4 {/ qService kind                             : Complete Main$ V7 }" z2 ?+ B) R8 ^
Default                                  : Yes
. z  p' g' ?0 `* k/ K4 `* KForced                                   : No. h3 `2 Z% o: b* n
- C$ @9 O8 v5 c% S' f0 f- o4 v) b
Text
* X5 w1 h8 z7 a  O( B+ q" K; t5 M( BID                                       : 3
. h/ W) y3 {# f1 G4 yFormat                                   : UTF-8
9 V3 c7 C: o) i% [% f  _* G% ]1 _Codec ID                                 : S_TEXT/UTF8) a/ e4 {9 b% ^. H1 A4 a
Codec ID/Info                            : UTF-8 Plain Text- Q$ ^7 I! D( i
Duration                                 : 1 h 34 min4 ]$ P0 Z; G2 _% h! b
Bit rate                                 : 50 b/s/ [# @' S: d4 T6 e! _" t% M" f
Count of elements                        : 1452
+ j3 A6 F- G6 S5 C, k( b* g, S1 nStream size                              : 35.4 KiB (0%)
- U) g- \2 G1 V6 ~Language                                 : English! J: Z, M! V# b# B( E
Default                                  : No  L% E; k/ @  }; ~
Forced                                   : No

% n/ [. A8 X2 f1 Z8 X

無目標地區. MKV.torrent

82.08 KB, 下載次數: 734

尚未簽到

發表於 2017-11-14 12:25:12 | 顯示全部樓層
感謝大大的辛勞分享!我會繼續在WK關注大大的文章!

尚未簽到

發表於 2017-11-14 12:25:15 來自手機 | 顯示全部樓層
精妙絕倫的精品,感謝啊!期待你更多更好的創作哦!
累計簽到︰980 天
連續簽到︰7 天
發表於 2017-11-14 13:02:23 | 顯示全部樓層
感謝大大的辛勞分享!我會繼續在WK關注大大的文章!

尚未簽到

發表於 2017-11-14 15:46:28 | 顯示全部樓層
感謝大大的辛勞分享!我會繼續在WK關注大大的文章!

尚未簽到

發表於 2017-11-14 17:55:27 | 顯示全部樓層
很讚的文章,謝謝咯!相信WK因為有你而更加精彩!

尚未簽到

發表於 2017-11-15 19:43:14 | 顯示全部樓層
感謝大大的辛勞分享!我會繼續在WK關注大大的文章!

尚未簽到

發表於 2017-11-15 19:43:18 | 顯示全部樓層
這個我收藏了!謝謝分享!WK的資源越來越豐富,這少不了大大的辛勞!

尚未簽到

發表於 2017-11-16 05:03:38 | 顯示全部樓層
這個我收藏了!謝謝分享!WK的資源越來越豐富,這少不了大大的辛勞!

尚未簽到

發表於 2017-11-18 09:22:47 來自手機 | 顯示全部樓層
這個我收藏了!謝謝分享!WK的資源越來越豐富,這少不了大大的辛勞!

回復樓主 親!! 現在是淩晨!妳失眠啦?餓啦?通宵加班?還是想WK啦?

 分享同時學會感恩,一句感謝的話語,就是最大的支持!  歡迎交流討論
您需要登錄後才可以回帖 登錄 | 立即注册

本版積分規則


c重要聲明:本論壇是以即時上載言論的方式運作,WK論壇對所有言論的真實性、立場及版權等,不負任何法律責任。而一切言論只代表發佈者個人意見,並非本網站之立場,讀者及用戶務必自行判斷內容之真實性。 由於本論壇受到「即時上載言論」運作方式所規限,故不能完全監察所有言論,若讀者及用戶發現有內容出現「真實性、立場及版權」等問題,請聯絡我們:info@waikeung.net論壇有權刪除任何言論(刪除前或不會作事先警告及通知)| SiteMap[網站地圖]

發表新帖 返回頂部