WK綜合論壇, WK综合论坛

查看:2294 回復:7 發表於 2018-1-18 01:02:16
本主題由 212love 於 2018-1-14 23:10 解除高亮
累計簽到︰1470 天
連續簽到︰17 天
發表於 2018-1-13 15:49:33 | 顯示全部樓層 |閱讀模式

帝一之國 Teiichi.Battle.of.Supreme.High, 2017.[MKV/9.1GB] 内封中字 [複製鏈接]

影視分享
分類: 電影
題材: 劇情 喜劇 
地區: 日本 
語言: 中文字幕 日语 
格式: MKV 
年份: 2017
資源: BT资源
1.jpg
7 b6 C: e- w+ N. A- ~
( n# {9 K1 X. W◎译  名 帝一之国2 u; q, }% x8 z, J' S0 G2 K
◎片  名 帝一の國/Teiichi: Battle of Supreme High
; J2 P7 c2 d6 {◎年  代 2017
+ b( Q) V- F/ l$ ?: ^◎产  地 日本$ u& |5 O$ ]8 }4 f* X
◎类  别 剧情/喜剧$ a4 r8 x# ?  w# L; Q9 y" z
◎语  言 日语
: t. }7 a2 X0 C8 \1 X* N- s◎上映日期 2017-04-29(日本)
; N0 N5 |! W! r+ ?◎IMDb评分  7.4/10 from 119 users! L2 V% X& s  s) A/ J! T  }
◎IMDb链接  http://www.imdb.com/title/tt5293604/
/ w' j6 P5 I7 K1 D# e, N◎豆瓣评分 8.1/10 from 9,068 users' a+ u! ]5 D- u: z! t! n# B
◎豆瓣链接 https://movie.douban.com/subject/26691320/
  \: I$ J+ e1 F- z; \& w! A) @+ v- P◎片  长 118分钟
7 L; U+ ]1 Y- o* E) G  \- f1 N◎导  演 永井聪 Akira Nagai# b6 z* S4 x' f9 F9 v
◎主  演 菅田将晖 Masaki Suda
# E( s) l( z& T, m( N      野村周平 Shuhei Nomura) N; W5 B" Q* s
      竹内涼真 Ryoma Takeuchi
! U7 A9 N6 i8 m/ u  w& h      间宫祥太朗 Shotaro Mamiya
) @: ^4 ~+ q4 k4 G7 @      志尊淳 Jun Shison
! {/ f# i$ d9 L; q0 L5 l      千叶雄大 Yudai Chiba3 G7 o8 }/ ^' k% o, {4 C. u; S& t
      永野芽郁 Mei Nagano
5 k# p  z0 K. k      铃木胜大 Katsuhiko Suzuki# X+ `$ |1 l3 i* B5 r
      萩原利久 Riku Hagiwara1 s* E9 J' v- a
      冈山天音 Okayama Amane! J4 S; u( {6 K3 d5 L0 a4 \9 x
      井之胁海 Kai Inowaki
' E  L! Y2 T/ c, Q      木村了 Ryo Kimura% `( n) ^' F8 M0 ^& W9 e& l
      吉田钢太郎 Kôtarô Yoshida; V# x# e- Q% @6 ]% v1 K

. |* v. O4 @6 @6 ~◎简  介
' F5 f3 h; C( f) |) c8 {" e
# y7 j0 P+ \: j$ z  生长于政治世家的赤场帝一(菅田将晖饰),从小就以当上日本总理为目标,为了建立自己的王国,他必须在孕育出多位政治领袖,人称「超精英学校」的海帝高校展露头角,只有当过海帝高校学生会长的人,未来才有机会角逐总理的宝座。「我一定打败所有竞争对手,站在顶点!为此我会不择手段!」比谁都早开始计划的帝一,将要面对意想不到的陷阱和试炼!斗个你死我活的学生会长选举战争即将华丽展开!: z# ]9 Q$ X# Q: H8 z
# p% s# a: z1 p1 m# Z
◎获奖情况# Y0 D: W, ]/ V* R9 F
1 O; p# C0 Z1 H  A; |' C9 }
  第42届报知映画赏  (2017)" q$ @0 [0 p& H! s4 l
  最佳男主角 菅田将晖
9 x8 w- g4 u1 S6 _8 j8 U- \
- j4 e0 Z/ N9 L* \, e  第4届豆瓣电影年度榜单  (2017)
* Q5 h! W! S7 w7 ^. C! U. l  评分最高的日本电影(提名)
! f0 ]2 m4 k7 \( T4 m% ?) A
, a1 n' q6 q  R7 U# U" U, C, v
CODE:8 O" p( L5 m: [, H8 I) t3 v4 i
- o, T8 _* Z7 Y' _7 N

0 ^% K! [9 ^$ O/ e# P6 d1 M; \( Y$ m, I2 P; r/ y' K
Video
% F0 h" ~' b& Q4 F4 R  @ID                                       : 1
0 Y: q+ M6 r9 v# |, o4 p" w- zFormat                                   : AVC
3 W/ O5 o+ t& B8 g* A7 u* M4 M1 iFormat/Info                              : Advanced Video Codec
8 O  A2 [3 W6 a& E$ @Format profile                           : High@L4.1
' {- U* U2 T) x- T/ gFormat settings                          : CABAC / 5 Ref Frames5 A6 B  t5 s7 N- W6 A. O
Format settings, CABAC                   : Yes
- D& M' m6 p7 a5 N' KFormat settings, ReFrames                : 5 frames
- r6 J. f* f7 @4 P" U& m8 [Codec ID                                 : V_MPEG4/ISO/AVC
' c1 H3 O. {0 `: HDuration                                 : 1 h 57 min
1 ~/ w" ]2 i# y! j; b8 u2 bBit rate                                 : 10.3 Mb/s
6 m% F; ?: _6 f; r$ c) L9 FWidth                                    : 1 920 pixels  k3 d# x% Y( F; f
Height                                   : 804 pixels. N- ~! |! R- y9 {
Display aspect ratio                     : 2.40:1/ }* I- n! {* @8 F$ a) @: A
Frame rate mode                          : Constant
, N3 E# R' D! y  I) qFrame rate                               : 23.976 (24000/1001) FPS
/ |2 h6 H/ g" a. _Color space                              : YUV
7 F0 R8 i0 z$ ?  Q3 OChroma subsampling                       : 4:2:0; _4 ?% h( L0 u+ Y1 g' @
Bit depth                                : 8 bits. S+ W4 c: V4 r0 @1 f& @9 t* d
Scan type                                : Progressive
# K" x8 I' A/ i3 k% Y, l" G2 {Bits/(Pixel*Frame)                       : 0.278/ w& ]  f( {  T: v1 V' H
Stream size                              : 8.47 GiB (93%)
$ [$ z0 J! ~5 ^6 PWriting library                          : x264 core 129 r2245+704+36 8e61944 tMod+MixAQ [8-bit@4:2:0 X86_64]& J  A: o3 D1 h2 H4 l! ?
Encoding settings                        : cabac=1 / ref=5 / deblock=1:-3:-3 / analyse=0x3:0x133 / me=umh / subme=11 / psy=1 / fade_compensate=0.00 / psy_rd=1.05:0.10 / mixed_ref=1 / me_range=32 / chroma_me=1 / trellis=2 / 8x8dct=1 / cqm=0 / deadzone=21,11 / fast_pskip=0 / chroma_qp_offset=-3 / threads=18 / lookahead_threads=3 / sliced_threads=0 / nr=0 / decimate=0 / interlaced=0 / bluray_compat=0 / constrained_intra=0 / fgo=0 / bframes=10 / b_pyramid=2 / b_adapt=2 / b_bias=0 / direct=3 / weightb=1 / open_gop=0 / weightp=2 / keyint=250 / keyint_min=23 / scenecut=40 / intra_refresh=0 / rc=2pass / mbtree=0 / bitrate=10290 / ratetol=1.0 / qcomp=0.70 / qpmin=0 / qpmax=69 / qpstep=4 / cplxblur=20.0 / qblur=0.5 / ip_ratio=1.40 / pb_ratio=1.30 / aq=1 / aq-strength=0.90 / aq-sensitivity=10.00 / aq-ifactor=1.00 / aq-pfactor=1.00 / aq-bfactor=1.00 / aq2=0
( B; T: b( ^" z' @Language                                 : Japanese2 _* b3 a! Q' _# g4 m4 ?
Default                                  : Yes% ?7 _( Q; J3 E! g# o) E# a0 o* H
Forced                                   : No- L! ^7 Z' T6 y

9 p% z. Q: Z. M# U! TAudio( Q$ v! ]) `% W2 @& R: X
ID                                       : 2* |% @& [6 \$ Q
Format                                   : DTS
, C. W, D* o4 p, D- e/ B6 ~Format/Info                              : Digital Theater Systems
3 |8 H/ D& Z4 x9 tCodec ID                                 : A_DTS
' q+ r+ n6 U! t" g4 CDuration                                 : 1 h 57 min, d# G7 _  T7 _6 u+ }
Bit rate mode                            : Constant% {9 R7 t6 i3 a1 M* l/ f# ?
Bit rate                                 : 768 kb/s
  h. ~0 k% R7 f' @Channel(s)                               : 6 channels1 G0 U( S9 V% R2 ~( l' N- m
Channel positions                        : Front: L C R, Side: L R, LFE
3 M! y- q' u- r; R: a% BSampling rate                            : 48.0 kHz
8 h0 l1 H6 h9 |Frame rate                               : 93.750 FPS (512 SPF). D6 ^! P5 H# T, z3 C1 j; F! T
Bit depth                                : 24 bits0 I+ J1 l, n; D& K; C+ S3 |
Compression mode                         : Lossy, _# K9 g8 L: [( Q$ N5 X8 X& e
Stream size                              : 648 MiB (7%)
; q% U- o8 T4 d9 o( a6 U. FLanguage                                 : Japanese8 @% l" u' S& ]  V) t
Default                                  : Yes) M/ N0 U3 I- M/ j; R1 {7 C5 b
Forced                                   : No/ w' a1 j( C# B$ `9 s) m  o
+ p5 u, }0 \6 m
Text #1
# z, c* @6 N& R" h8 Q. }ID                                       : 3+ N5 a# A) X- F% I: f- C
Format                                   : UTF-8
2 s" t' E( D5 `0 k: h2 ?% d2 ACodec ID                                 : S_TEXT/UTF8
$ R* b/ }. [3 G5 O+ X* w0 KCodec ID/Info                            : UTF-8 Plain Text
( a) |0 X" u3 |* p+ i! |) }Duration                                 : 1 h 57 min/ ^( x; r" P: H# ^6 ?
Bit rate                                 : 55 b/s
7 m8 b, x2 I2 H# h( C9 lCount of elements                        : 21254 ]6 |$ |% @/ |
Stream size                              : 47.7 KiB (0%)
. ~( e3 ^! ?* L4 iTitle                                    : Simplified1 u' W  K* D2 Y- Q. _% M2 N
Language                                 : Chinese
  ~0 y! @; w2 V) f6 pDefault                                  : Yes3 R" u  m* A6 U& X0 ~( N
Forced                                   : No
8 [: a! T6 I% ?: `3 o: D6 p
' q; s/ P6 p, }; s. g6 l* SText #26 |4 Q& ?5 `3 N2 Q; F; o
ID                                       : 4
6 M% n+ x. q* V) F$ p) A" zFormat                                   : UTF-8
6 r; [- T: l" V  I% _Codec ID                                 : S_TEXT/UTF88 }/ c/ {/ s# H% n/ ^
Codec ID/Info                            : UTF-8 Plain Text
$ B" b  e: {; f& B1 [1 NDuration                                 : 1 h 57 min
2 _! K: {( Z- F/ G. x- q+ s, eBit rate                                 : 55 b/s
/ I4 W9 m) a1 r6 JCount of elements                        : 2125' |* [* g4 H5 Y! K6 @8 ^8 u
Stream size                              : 47.7 KiB (0%)
! _/ }4 ?- t1 ~" p+ A+ ITitle                                    : Traditional0 N8 U- Q# [+ X4 c
Language                                 : Chinese
& n- C% \" x: Y7 v' O9 pDefault                                  : No
; V2 q2 n/ v. F9 V3 vForced                                   : No
0 k/ i: n8 w& s; p9 W
8 Q8 }9 n  N8 `- PMenu8 y) m, P7 z0 q1 Y* y
00:00:00.000                             : en:00:00:00.000
0 I4 m. {5 U2 Y5 G$ B00:02:47.917                             : en:00:02:47.917
& T  b/ c- e2 k, R00:03:40.887                             : en:00:03:40.887
) ^; M# G& Y4 _! ^2 R1 U' @00:07:22.984                             : en:00:07:22.984
" ]4 s1 \* ~- E: @2 D2 f6 N  F00:10:03.728                             : en:00:10:03.728
7 f! @3 l) E; q1 ^; L& f, k' O4 W00:14:30.995                             : en:00:14:30.995/ P* ]. U7 _2 J7 f  z- r8 `
00:17:59.078                             : en:00:17:59.078
) i# q: l" T$ S" }$ H! T00:23:58.854                             : en:00:23:58.854
2 Q7 x5 J4 N, X1 T7 N00:34:01.456                             : en:00:34:01.456
* J( u; n$ \) d8 O% O5 l3 x00:42:39.556                             : en:00:42:39.556
/ l2 |) J/ z( o00:47:15.123                             : en:00:47:15.1232 X- A$ m# D! }! W0 w: ^9 U
00:50:18.056                             : en:00:50:18.056
& o" q% D' v+ G$ U5 u* _00:52:33.859                             : en:00:52:33.859
- S% N. [/ m+ g2 }4 r. w4 G: |00:56:44.692                             : en:00:56:44.692
2 y7 m, g3 P) r5 R01:01:04.535                             : en:01:01:04.5350 M- r2 ~+ t9 N2 m
01:07:29.128                             : en:01:07:29.128
  |/ K( c; g% J8 l. U" Q$ b/ k01:14:02.521                             : en:01:14:02.5213 d+ w% ]: C$ t  @  H% f4 F2 [
01:20:17.229                             : en:01:20:17.229
( i( n- r7 S( X5 `$ ]01:24:01.995                             : en:01:24:01.995# A' s& I6 w. T: I0 S- K  C
01:30:08.903                             : en:01:30:08.9033 i4 C7 ~$ C7 j3 I
01:40:20.639                             : en:01:40:20.639, s8 q; a, X8 |0 o) I7 ^0 n* v
01:43:08.432                             : en:01:43:08.432
1 w8 Y: H; J+ W) `8 K$ X01:51:03.948                             : en:01:51:03.948
, W# d- p2 B( g) v7 J9 ^01:54:12.303                             : en:01:54:12.303

% O. p: \$ p. ?  C" R1 ?4 {+ U5 p2 q1 H, o1 l" D

: l6 o. q% o2 F; {( c# S
1 \6 a+ h" n# N3 r7 _" ]. X5 Z9 Y' D. h* ]3 U
  {9 v" Z/ [% u0 u/ ?" p1 |
9 a: y! v" k$ N4 P

' e9 L+ q) t$ Q. ]7 S, T5 j( K8 g8 E3 ^/ I( V' G4 C  N; L/ j/ p' K
8 V3 W$ I& A" W- f% u

! A0 z% G1 r: |4 L( O( {0 `" B2 q

帝一之國 MKV.torrent

91.6 KB, 下載次數: 269

尚未簽到

發表於 2018-1-13 15:50:32 來自手機 | 顯示全部樓層
精妙絕倫的精品,感謝啊!期待你更多更好的創作哦!

尚未簽到

發表於 2018-1-14 03:49:17 | 顯示全部樓層
這個我收藏了!謝謝分享!WK的資源越來越豐富,這少不了大大的辛勞!

尚未簽到

發表於 2018-1-14 06:14:54 來自手機 | 顯示全部樓層
偶像^^小生一直都在關注你的原創!小生對你之仰慕如滔滔江水連綿不絕!

尚未簽到

發表於 2018-1-15 06:08:30 來自手機 | 顯示全部樓層
偶像^^小生一直都在關注你的原創!小生對你之仰慕如滔滔江水連綿不絕!

尚未簽到

發表於 2018-1-16 16:48:56 來自手機 | 顯示全部樓層
偶像^^小生一直都在關注你的原創!小生對你之仰慕如滔滔江水連綿不絕!

尚未簽到

發表於 2018-1-17 11:15:51 來自手機 | 顯示全部樓層
絕對的好貼!謝謝啊!逐字逐圖地看完這個帖子以後,我的心久久不能平靜,感恩啊!

尚未簽到

發表於 2018-1-18 01:02:16 來自手機 | 顯示全部樓層
精妙絕倫的精品,感謝啊!期待你更多更好的創作哦!

回復樓主 親!! 現在是淩晨!妳失眠啦?餓啦?通宵加班?還是想WK啦?

 分享同時學會感恩,一句感謝的話語,就是最大的支持!  歡迎交流討論
您需要登錄後才可以回帖 登錄 | 立即注册

本版積分規則

c重要聲明:本論壇是以即時上載言論的方式運作,WK論壇對所有言論的真實性、立場及版權等,不負任何法律責任。而一切言論只代表發佈者個人意見,並非本網站之立場,讀者及用戶務必自行判斷內容之真實性。 由於本論壇受到「即時上載言論」運作方式所規限,故不能完全監察所有言論,若讀者及用戶發現有內容出現「真實性、立場及版權」等問題,請聯絡我們:info@waikeung.net論壇有權刪除任何言論(刪除前或不會作事先警告及通知)| SiteMap[網站地圖]

發表新帖 返回頂部