WK綜合論壇, WK综合论坛

查看:2322 回復:7 發表於 2018-1-18 01:02:16
本主題由 212love 於 2018-1-14 23:10 解除高亮
累計簽到︰1548 天
連續簽到︰10 天
發表於 2018-1-13 15:49:33 | 顯示全部樓層 |閱讀模式

帝一之國 Teiichi.Battle.of.Supreme.High, 2017.[MKV/9.1GB] 内封中字 [複製鏈接]

影視分享
分類: 電影
題材: 劇情 喜劇 
地區: 日本 
語言: 中文字幕 日语 
格式: MKV 
年份: 2017
資源: BT资源
1.jpg 3 L3 E/ {8 y% G

# E2 V- g, F, G) l0 }9 W4 x5 e◎译  名 帝一之国
, `" c% ]+ `* [% ^" d: c◎片  名 帝一の國/Teiichi: Battle of Supreme High
! A2 m6 ^% S3 u# J◎年  代 2017  J! ~9 r) \' U3 C8 |# Y& X
◎产  地 日本
! W/ a/ l' L: s/ \, j; q◎类  别 剧情/喜剧
6 |$ F9 `+ @4 A  q◎语  言 日语% {6 R! R! K3 t- k' ~) _( b
◎上映日期 2017-04-29(日本)  e0 Z" G- A' R
◎IMDb评分  7.4/10 from 119 users
  j+ t3 @& p8 {3 |◎IMDb链接  http://www.imdb.com/title/tt5293604/
+ j  y+ t' W; K, D8 X0 Z◎豆瓣评分 8.1/10 from 9,068 users
  I. D' k* d- r, y◎豆瓣链接 https://movie.douban.com/subject/26691320/
; a7 H4 t, j# U. V- J◎片  长 118分钟
! H% Q" h& x# k% ?/ P& r◎导  演 永井聪 Akira Nagai; _7 p' x+ H( ?. y* c$ o
◎主  演 菅田将晖 Masaki Suda  p0 i' B0 Y3 T+ v: d0 n
      野村周平 Shuhei Nomura% t7 T7 G; u( @) o, `
      竹内涼真 Ryoma Takeuchi
; _$ G+ g  P, m4 Q1 m  L      间宫祥太朗 Shotaro Mamiya2 N9 o. X! }/ c7 N' V( E
      志尊淳 Jun Shison! W% @: \! h6 o  A& I7 Q9 m
      千叶雄大 Yudai Chiba) b4 ^. l' g) l! W
      永野芽郁 Mei Nagano
5 X" h: f' Z; A6 t* z8 O1 a      铃木胜大 Katsuhiko Suzuki' T# a( e  y3 W% _* [0 |: w" l: k
      萩原利久 Riku Hagiwara
" V  n" R5 Z: a7 I+ E      冈山天音 Okayama Amane
, d: R4 s$ B* v% L# C1 c      井之胁海 Kai Inowaki# t" y) {2 e: W  T
      木村了 Ryo Kimura
' V# \' W$ a3 n* F  R4 u      吉田钢太郎 Kôtarô Yoshida
% A. J; ^9 ~: ~% {, B8 g
5 B0 P. h7 E" y◎简  介
# |& N: h( E" M. S1 e8 x0 Z! F! x3 q( h/ p
  生长于政治世家的赤场帝一(菅田将晖饰),从小就以当上日本总理为目标,为了建立自己的王国,他必须在孕育出多位政治领袖,人称「超精英学校」的海帝高校展露头角,只有当过海帝高校学生会长的人,未来才有机会角逐总理的宝座。「我一定打败所有竞争对手,站在顶点!为此我会不择手段!」比谁都早开始计划的帝一,将要面对意想不到的陷阱和试炼!斗个你死我活的学生会长选举战争即将华丽展开!
7 E6 j: q6 ?0 ^" h" M
* t2 j" ]& ?2 ?1 S' l. l' `+ L◎获奖情况
8 P/ T% n! ~% d4 w% S  W0 v
- |% o4 u% o+ C$ h, V' k% X7 e! h  第42届报知映画赏  (2017)
; C  \/ E" s. w3 i6 V! S4 Q  最佳男主角 菅田将晖9 M% k. X7 l/ H4 |& `' ^
; {0 p  T! [, o9 W
  第4届豆瓣电影年度榜单  (2017)- v9 y2 o4 F6 `( @
  评分最高的日本电影(提名)% J+ a+ j0 A6 L& x1 r6 Y2 [9 u
- C* o9 M! {$ Q) Q' u9 u
CODE:
2 l# P5 c' M0 B" g! k0 j* T! h) M$ d
: H6 K+ ]' |6 s9 b( a
0 E3 s- u9 M, k
" _  A' ?. S8 o* x5 I& T' Z
Video4 v& @5 S7 A( d! U3 O
ID                                       : 1
1 h/ @$ L5 }- Y+ a/ L/ B- B% tFormat                                   : AVC+ V0 q5 P; Q% ^7 l  x$ Q9 i
Format/Info                              : Advanced Video Codec
! e! |: |; S9 e0 k2 H( _" CFormat profile                           : High@L4.1) O3 w: u1 n. w7 `
Format settings                          : CABAC / 5 Ref Frames1 \4 E0 R" `+ V& y2 C: j. X3 {. X
Format settings, CABAC                   : Yes
2 v2 j  s" g! y& n' _( A% @Format settings, ReFrames                : 5 frames/ i! M, z' U) b9 [
Codec ID                                 : V_MPEG4/ISO/AVC7 d' t8 ^8 B$ P# Q
Duration                                 : 1 h 57 min
) T( |. S: c' v' @- h# U2 I/ BBit rate                                 : 10.3 Mb/s0 |; v( M4 m3 ~" M9 {' O; G3 V
Width                                    : 1 920 pixels
% t# \' L& c5 P$ tHeight                                   : 804 pixels+ Q* V0 P1 h+ n8 Q, Y9 H
Display aspect ratio                     : 2.40:1
* b. H7 m  F3 J. V! r. {( m8 AFrame rate mode                          : Constant; S+ o: ?1 `' v/ b9 j. \
Frame rate                               : 23.976 (24000/1001) FPS5 Q% K# Y7 o) q1 c8 ^. C+ _
Color space                              : YUV, H% J1 V9 c1 F! h* M6 b! C
Chroma subsampling                       : 4:2:08 d2 C) i' o$ l6 _& Q
Bit depth                                : 8 bits
* O/ F% i5 b( WScan type                                : Progressive
3 G) S0 \1 k, M' v9 _Bits/(Pixel*Frame)                       : 0.2780 o2 `. V+ d# X' ]7 f  X$ B
Stream size                              : 8.47 GiB (93%); y9 X% j$ r/ [  N# I
Writing library                          : x264 core 129 r2245+704+36 8e61944 tMod+MixAQ [8-bit@4:2:0 X86_64]
) }3 |' l" b! q2 a( AEncoding settings                        : cabac=1 / ref=5 / deblock=1:-3:-3 / analyse=0x3:0x133 / me=umh / subme=11 / psy=1 / fade_compensate=0.00 / psy_rd=1.05:0.10 / mixed_ref=1 / me_range=32 / chroma_me=1 / trellis=2 / 8x8dct=1 / cqm=0 / deadzone=21,11 / fast_pskip=0 / chroma_qp_offset=-3 / threads=18 / lookahead_threads=3 / sliced_threads=0 / nr=0 / decimate=0 / interlaced=0 / bluray_compat=0 / constrained_intra=0 / fgo=0 / bframes=10 / b_pyramid=2 / b_adapt=2 / b_bias=0 / direct=3 / weightb=1 / open_gop=0 / weightp=2 / keyint=250 / keyint_min=23 / scenecut=40 / intra_refresh=0 / rc=2pass / mbtree=0 / bitrate=10290 / ratetol=1.0 / qcomp=0.70 / qpmin=0 / qpmax=69 / qpstep=4 / cplxblur=20.0 / qblur=0.5 / ip_ratio=1.40 / pb_ratio=1.30 / aq=1 / aq-strength=0.90 / aq-sensitivity=10.00 / aq-ifactor=1.00 / aq-pfactor=1.00 / aq-bfactor=1.00 / aq2=05 V& D3 ~, V$ {& m. h7 o4 M0 G! J
Language                                 : Japanese, n3 g2 S5 t# |: Z4 a
Default                                  : Yes7 l1 F" q  ]# n3 L* t3 b% X
Forced                                   : No: v) v9 n% k' f2 A" i

* d5 q& U$ Y* E  |) v: ], ~# I/ eAudio
$ U4 l( D0 C  T& Z8 p8 w# xID                                       : 2- n* A4 N# T) s% u, J
Format                                   : DTS7 \8 L8 r: x' a& G( Y; t$ R3 W
Format/Info                              : Digital Theater Systems
& Q8 }0 O  O# ?1 h6 aCodec ID                                 : A_DTS
4 e2 z* B5 f- RDuration                                 : 1 h 57 min
) Z) P8 k- e6 L5 W! _/ w9 n7 ~Bit rate mode                            : Constant% h. Y7 p2 _$ U5 B# l
Bit rate                                 : 768 kb/s3 o; H/ R$ \0 d8 @8 T! Q4 ~
Channel(s)                               : 6 channels
% R' t3 f4 _' X9 [3 Q2 KChannel positions                        : Front: L C R, Side: L R, LFE
# @) `! x/ ]( A- O! o0 g* _' QSampling rate                            : 48.0 kHz
! @! u, k( @! t/ `1 dFrame rate                               : 93.750 FPS (512 SPF)
* d1 A* ?# m; ^+ j% }0 xBit depth                                : 24 bits7 F; l' k/ t5 L
Compression mode                         : Lossy
7 _3 O- z! P/ D2 V; z, f0 CStream size                              : 648 MiB (7%)
+ G+ Y/ x" a7 R$ fLanguage                                 : Japanese4 F: v/ h" ]  z9 m) n4 ]
Default                                  : Yes
4 c& w  L* D% k. k: FForced                                   : No
0 a6 d( f  N1 O5 e# {  E0 I: z6 h
Text #1
3 f$ s, P  ~. D1 P0 {ID                                       : 35 F" O% ?9 ^; U' V
Format                                   : UTF-8
3 X9 _1 k! p1 U8 d. q6 F; u" VCodec ID                                 : S_TEXT/UTF85 ~. G. k1 i) i
Codec ID/Info                            : UTF-8 Plain Text) ^3 Q" e: k$ N3 C4 U4 z
Duration                                 : 1 h 57 min$ D; X; b6 x# G; H
Bit rate                                 : 55 b/s
! \2 X- h/ ^9 K6 q) LCount of elements                        : 21254 f. V9 c2 L* B
Stream size                              : 47.7 KiB (0%)
/ }' J) N4 G) K' J" MTitle                                    : Simplified
( y0 c+ l1 E: E0 `Language                                 : Chinese* M# i) v* R+ p( W/ }  x
Default                                  : Yes
  {% u0 C! K8 H- y. RForced                                   : No
: Z5 ?( I5 w7 l
* `  N" x& b9 a8 j0 i, e! |Text #2
: i: p- E8 S5 G3 `) r" OID                                       : 4, ]1 \" X6 x0 f
Format                                   : UTF-81 h" r2 u: {8 p7 F, O8 ]6 W
Codec ID                                 : S_TEXT/UTF8
6 y1 |( I3 O/ oCodec ID/Info                            : UTF-8 Plain Text( a  K3 }' D( I- ]4 q2 g
Duration                                 : 1 h 57 min+ o; c* Z8 ?4 y; `1 n1 j0 I! N4 b
Bit rate                                 : 55 b/s
1 H" ?* i+ G8 s: vCount of elements                        : 2125
. }4 U& ^6 }! dStream size                              : 47.7 KiB (0%)
1 Y7 |: d0 j; j4 zTitle                                    : Traditional+ P) _# p- c; i
Language                                 : Chinese) R5 G$ s; F; f7 B* m9 [9 ?8 S+ R+ j
Default                                  : No
+ s+ T5 q. @1 m2 U2 zForced                                   : No6 O, u7 L4 g& J# S

; S1 f' e% l8 {0 S# o" tMenu- ^) S4 M! r* Q, j1 q$ D
00:00:00.000                             : en:00:00:00.000
- @# V; g& ?3 n00:02:47.917                             : en:00:02:47.917& s! S" X1 }6 r% R. w7 z( e
00:03:40.887                             : en:00:03:40.887: ]& y1 J( d) L; u! R9 d
00:07:22.984                             : en:00:07:22.984
2 B4 y6 b  J1 N/ }4 _% B2 \00:10:03.728                             : en:00:10:03.728& P5 c1 U$ D6 D3 K, n# q: I( J
00:14:30.995                             : en:00:14:30.995
# {* D, S6 z" T0 M* C' q$ }00:17:59.078                             : en:00:17:59.078% c* J% ?) ^/ J! D, b9 x0 T/ s' V; F
00:23:58.854                             : en:00:23:58.854' ~: Q7 h' r1 B$ X( w
00:34:01.456                             : en:00:34:01.4565 c1 c- n: k5 ~, h
00:42:39.556                             : en:00:42:39.5566 Q  o0 z5 K4 M9 E) O4 S
00:47:15.123                             : en:00:47:15.123
5 W4 o& [" Z3 ?' f* W7 v00:50:18.056                             : en:00:50:18.056& C" P/ h: d6 u6 p
00:52:33.859                             : en:00:52:33.859
' f  q# W& w0 h& k/ U5 k1 B" m5 s00:56:44.692                             : en:00:56:44.692$ V% g2 P5 Z- F/ p! ]0 ^% Y0 j
01:01:04.535                             : en:01:01:04.535
! O, e3 V  o' c2 v6 R7 B  w01:07:29.128                             : en:01:07:29.128. d4 l1 i' T8 [, w! B8 C" @
01:14:02.521                             : en:01:14:02.521& y: y* W- ]* \  `/ }) x
01:20:17.229                             : en:01:20:17.229
6 ]' f7 J  j. x2 f. m9 S01:24:01.995                             : en:01:24:01.9951 R+ \! Z& H" I: ~+ H1 Q8 b
01:30:08.903                             : en:01:30:08.903
6 c; R$ U$ N. c01:40:20.639                             : en:01:40:20.639
( c; D% Z2 O6 ~. m01:43:08.432                             : en:01:43:08.432
% {% J2 p) Q! Q" I5 i01:51:03.948                             : en:01:51:03.9483 F, h7 v; i1 \  Y
01:54:12.303                             : en:01:54:12.303

2 P4 Y  V/ E% M* B! c- L- \& y7 E. {& G/ Y( A5 L5 l+ B) W  k
6 S4 \: k* f5 y4 `. f8 `9 g

3 e# V" u& i$ D. S7 j: R$ Z2 Z$ A5 S$ b; Z: N! r
. Q1 k/ U" |6 O. h
: K: d4 U$ Y' I$ h9 w
) ?/ [  g# _% J- I$ D% W

9 S1 u6 C8 y2 r: R! d# v  }5 R; ]4 P: ]% l
" l, {+ j# C" B6 I3 u0 }8 m

帝一之國 MKV.torrent

91.6 KB, 下載次數: 269

尚未簽到

發表於 2018-1-13 15:50:32 來自手機 | 顯示全部樓層
精妙絕倫的精品,感謝啊!期待你更多更好的創作哦!

尚未簽到

發表於 2018-1-14 03:49:17 | 顯示全部樓層
這個我收藏了!謝謝分享!WK的資源越來越豐富,這少不了大大的辛勞!

尚未簽到

發表於 2018-1-14 06:14:54 來自手機 | 顯示全部樓層
偶像^^小生一直都在關注你的原創!小生對你之仰慕如滔滔江水連綿不絕!

尚未簽到

發表於 2018-1-15 06:08:30 來自手機 | 顯示全部樓層
偶像^^小生一直都在關注你的原創!小生對你之仰慕如滔滔江水連綿不絕!

尚未簽到

發表於 2018-1-16 16:48:56 來自手機 | 顯示全部樓層
偶像^^小生一直都在關注你的原創!小生對你之仰慕如滔滔江水連綿不絕!

尚未簽到

發表於 2018-1-17 11:15:51 來自手機 | 顯示全部樓層
絕對的好貼!謝謝啊!逐字逐圖地看完這個帖子以後,我的心久久不能平靜,感恩啊!

尚未簽到

發表於 2018-1-18 01:02:16 來自手機 | 顯示全部樓層
精妙絕倫的精品,感謝啊!期待你更多更好的創作哦!

回復樓主 親!! 下午好,中午養足了精神嗎?讓我們一起渡過下午茶時間,WK有您更精彩!

 分享同時學會感恩,一句感謝的話語,就是最大的支持!  歡迎交流討論
您需要登錄後才可以回帖 登錄 | 立即注册

本版積分規則

c重要聲明:本論壇是以即時上載言論的方式運作,WK論壇對所有言論的真實性、立場及版權等,不負任何法律責任。而一切言論只代表發佈者個人意見,並非本網站之立場,讀者及用戶務必自行判斷內容之真實性。 由於本論壇受到「即時上載言論」運作方式所規限,故不能完全監察所有言論,若讀者及用戶發現有內容出現「真實性、立場及版權」等問題,請聯絡我們:info@waikeung.net論壇有權刪除任何言論(刪除前或不會作事先警告及通知)| SiteMap[網站地圖]

發表新帖 返回頂部