WK綜合論壇, WK综合论坛

查看:2236 回復:7 發表於 2018-1-18 01:02:16
本主題由 212love 於 2018-1-14 23:10 解除高亮
累計簽到︰1386 天
連續簽到︰15 天
發表於 2018-1-13 15:49:33 | 顯示全部樓層 |閱讀模式

帝一之國 Teiichi.Battle.of.Supreme.High, 2017.[MKV/9.1GB] 内封中字 [複製鏈接]

影視分享
分類: 電影
題材: 劇情 喜劇 
地區: 日本 
語言: 中文字幕 日语 
格式: MKV 
年份: 2017
資源: BT资源
1.jpg , F" P# \) L; c. i! }
8 B& t# ~0 e9 T* {- F8 i: D8 n
◎译  名 帝一之国
: ?) v5 g# t0 Q# {◎片  名 帝一の國/Teiichi: Battle of Supreme High3 g+ L# u- B* b7 P
◎年  代 2017+ I( p3 T0 t  h4 w
◎产  地 日本% o7 F1 O& [* J5 x- M) o' O( @
◎类  别 剧情/喜剧. z! {5 m9 Q1 a. V; j# u: H3 Q6 k
◎语  言 日语
: y8 l8 ~& a+ N$ ?◎上映日期 2017-04-29(日本)0 @2 o) G' g! V6 ?3 g; R
◎IMDb评分  7.4/10 from 119 users
, ^6 C' r( g" S4 c5 M4 s& T; d; _◎IMDb链接  http://www.imdb.com/title/tt5293604/
/ D, M& h# P  s- |* M4 h5 y0 K◎豆瓣评分 8.1/10 from 9,068 users
5 s9 b8 {6 F- z) F/ q◎豆瓣链接 https://movie.douban.com/subject/26691320/
, u, _$ h) D5 v2 j$ M' h" L9 p◎片  长 118分钟
. v6 A  \# r4 y% E$ B◎导  演 永井聪 Akira Nagai, m/ |7 F- j/ |# n6 s* j5 {
◎主  演 菅田将晖 Masaki Suda
$ w  p; V8 t% b" y& Y      野村周平 Shuhei Nomura
9 {' r# n& \/ e      竹内涼真 Ryoma Takeuchi9 }0 e1 a0 b- G! N0 V, \2 Z, W( T
      间宫祥太朗 Shotaro Mamiya
$ Z# _/ H4 f& H$ Y7 W      志尊淳 Jun Shison# G  l( Q3 G' {: g, J
      千叶雄大 Yudai Chiba
* I: R5 S0 K, K* x- F! F  d3 w      永野芽郁 Mei Nagano) I4 `" A" J  q9 s
      铃木胜大 Katsuhiko Suzuki3 S' B7 |0 @7 v2 w! B) z9 T, h( |1 o
      萩原利久 Riku Hagiwara
" c$ {) |4 n0 m      冈山天音 Okayama Amane
) N' g. {% A7 {" j/ x2 ^8 E      井之胁海 Kai Inowaki' [7 y2 R% m$ l3 A# [) g. x* V9 r' H
      木村了 Ryo Kimura* V; z9 d8 g8 o& p6 }8 m) ~4 v( N
      吉田钢太郎 Kôtarô Yoshida! d8 }/ M* H* u
/ v% ?0 D: }! n( h
◎简  介
# p: Q6 Y: F6 x# I) x
+ ]9 v2 P5 d1 E+ W  生长于政治世家的赤场帝一(菅田将晖饰),从小就以当上日本总理为目标,为了建立自己的王国,他必须在孕育出多位政治领袖,人称「超精英学校」的海帝高校展露头角,只有当过海帝高校学生会长的人,未来才有机会角逐总理的宝座。「我一定打败所有竞争对手,站在顶点!为此我会不择手段!」比谁都早开始计划的帝一,将要面对意想不到的陷阱和试炼!斗个你死我活的学生会长选举战争即将华丽展开!
+ n: ~. w5 X( J9 O8 h( N0 B4 @& i. M- i
◎获奖情况
8 c+ F* o/ s; k' y6 b) O4 G
. b" w" r, t/ T; }8 s# K/ J  第42届报知映画赏  (2017)! E$ r$ d6 M4 L7 [  D
  最佳男主角 菅田将晖7 t- b4 W, m4 |0 l

8 W: ^$ m  b- `& r5 M  第4届豆瓣电影年度榜单  (2017)& h3 U: ?4 M9 B+ F0 @1 Y6 ?
  评分最高的日本电影(提名)- C) s. \% n0 ~) {
8 e5 ], I2 Y5 R& K7 t8 C7 \2 w
CODE:
0 G) w% b7 T& q$ r) Y. _# N3 @( V5 Y5 K6 q4 Y8 ~

$ F  f* C; I* ^) G) h2 a" Y4 K( _8 h( t2 J) \+ s
Video1 N& e. v/ G. i3 |
ID                                       : 1
& R7 A: H, E$ J  W/ ?Format                                   : AVC  Y' W7 D- z  w
Format/Info                              : Advanced Video Codec
( a* c1 G( U9 QFormat profile                           : High@L4.1" R: I8 P. N2 ?. j$ X
Format settings                          : CABAC / 5 Ref Frames0 t( Q! W# N) v7 B7 H
Format settings, CABAC                   : Yes
% m6 v$ |+ V: ~4 OFormat settings, ReFrames                : 5 frames
7 K0 \( x$ p( `: e/ jCodec ID                                 : V_MPEG4/ISO/AVC
. i/ s; ]% y1 z0 Z7 aDuration                                 : 1 h 57 min$ o" p" N/ ]! V& t% G2 ^2 T
Bit rate                                 : 10.3 Mb/s! L% ]9 i: T' g* S& G: H" ]& u' m
Width                                    : 1 920 pixels$ r) |4 R$ u7 n/ U" z
Height                                   : 804 pixels9 }# o: w6 w* u4 [$ Z
Display aspect ratio                     : 2.40:1
7 Y% Q8 _' G, {& D. cFrame rate mode                          : Constant
) B/ r1 z$ ]- q/ J, iFrame rate                               : 23.976 (24000/1001) FPS
' l5 R3 f) y$ WColor space                              : YUV
, h, {8 |0 q6 @" hChroma subsampling                       : 4:2:0! N! [  F. @4 B& \: L; V& F
Bit depth                                : 8 bits
7 A! {" j6 k; i% ZScan type                                : Progressive
% P# ^8 x, N) C* S3 a$ ?7 c8 KBits/(Pixel*Frame)                       : 0.278# k! u- t: A9 r$ c& D( \4 t/ E" m7 M
Stream size                              : 8.47 GiB (93%)' l% P/ W8 A* P1 {% |0 n1 b7 w
Writing library                          : x264 core 129 r2245+704+36 8e61944 tMod+MixAQ [8-bit@4:2:0 X86_64]3 \$ r# \  D# N9 F4 F. i1 ?+ o
Encoding settings                        : cabac=1 / ref=5 / deblock=1:-3:-3 / analyse=0x3:0x133 / me=umh / subme=11 / psy=1 / fade_compensate=0.00 / psy_rd=1.05:0.10 / mixed_ref=1 / me_range=32 / chroma_me=1 / trellis=2 / 8x8dct=1 / cqm=0 / deadzone=21,11 / fast_pskip=0 / chroma_qp_offset=-3 / threads=18 / lookahead_threads=3 / sliced_threads=0 / nr=0 / decimate=0 / interlaced=0 / bluray_compat=0 / constrained_intra=0 / fgo=0 / bframes=10 / b_pyramid=2 / b_adapt=2 / b_bias=0 / direct=3 / weightb=1 / open_gop=0 / weightp=2 / keyint=250 / keyint_min=23 / scenecut=40 / intra_refresh=0 / rc=2pass / mbtree=0 / bitrate=10290 / ratetol=1.0 / qcomp=0.70 / qpmin=0 / qpmax=69 / qpstep=4 / cplxblur=20.0 / qblur=0.5 / ip_ratio=1.40 / pb_ratio=1.30 / aq=1 / aq-strength=0.90 / aq-sensitivity=10.00 / aq-ifactor=1.00 / aq-pfactor=1.00 / aq-bfactor=1.00 / aq2=09 D& Z2 w1 r6 I; q& Q
Language                                 : Japanese1 }1 e3 ]" b# u6 O- z7 @
Default                                  : Yes- Q; }- b5 b1 a' b( d: \& \! F
Forced                                   : No9 }) P* G2 [0 N. {
. x1 M- X, y* _1 C; R2 ^$ U! b" j
Audio" P3 i1 r0 l+ O* q! J* B0 A9 a( [( c
ID                                       : 2
1 s5 _# |$ V* I$ OFormat                                   : DTS
( g9 o" I9 s$ D3 jFormat/Info                              : Digital Theater Systems
4 G. q% _- e, p5 W# m( _7 FCodec ID                                 : A_DTS
+ J9 T) ~9 r- M( j: N: QDuration                                 : 1 h 57 min* _4 G! c* a& V4 X! `5 l0 d  K
Bit rate mode                            : Constant3 w6 O0 \& u3 h9 \  h3 R
Bit rate                                 : 768 kb/s
4 F9 p- ?# P" p: ]5 eChannel(s)                               : 6 channels; C/ `% I, T* x! W" Q) \
Channel positions                        : Front: L C R, Side: L R, LFE
& ~2 r" l/ e7 s2 J2 s+ N7 V! k! wSampling rate                            : 48.0 kHz
0 I. P# n% A/ m  ~3 h4 u# H  qFrame rate                               : 93.750 FPS (512 SPF)* t! W8 N0 ~) Q( K# ~. h$ C0 b
Bit depth                                : 24 bits5 v' r( D) ]# I# g8 W8 n. Q( R
Compression mode                         : Lossy
. |& O$ Q3 A) j; z: B' @Stream size                              : 648 MiB (7%)
2 h' _8 G  b* y* `: B& F6 hLanguage                                 : Japanese
  }5 L6 i! i8 ]0 sDefault                                  : Yes
; {5 B" X. \6 ?) L7 LForced                                   : No
* Q: j$ h) L9 B/ A4 r1 f9 t' D/ X9 Y$ W
Text #1& s, V5 i( p) ]% s# ~3 c
ID                                       : 3
  g! m$ U7 o! z2 hFormat                                   : UTF-82 V- m( m- c3 @" S8 ^! R. y) i
Codec ID                                 : S_TEXT/UTF8$ V+ y+ G% i+ W) y. P
Codec ID/Info                            : UTF-8 Plain Text
7 R/ ~! Y; s; w' P8 A% \3 IDuration                                 : 1 h 57 min4 I$ G1 N) V# u* F  p1 @0 G) z
Bit rate                                 : 55 b/s  @0 w" W- V! u4 \
Count of elements                        : 2125$ T) o1 J& L( F: q5 ^$ G
Stream size                              : 47.7 KiB (0%)
: a( O0 n1 z8 P1 ?. ATitle                                    : Simplified# D& E6 [% N( |: D4 z
Language                                 : Chinese
4 G& d0 O9 H1 H  |0 p! g, {, Y* gDefault                                  : Yes( i) P+ e: e1 j, z! S) z1 k# S
Forced                                   : No2 o8 e; ~9 P$ J' @

( k! h6 y/ H2 P% CText #24 e1 Y" U3 F/ _8 y# G2 c7 W
ID                                       : 46 z& H% t* r) z2 N, f1 a8 w
Format                                   : UTF-8# Z$ ]+ @" |5 P
Codec ID                                 : S_TEXT/UTF82 ~  V1 [- f/ b0 J- u7 S% ~3 D7 L
Codec ID/Info                            : UTF-8 Plain Text
0 |) g/ w! W4 z' uDuration                                 : 1 h 57 min
  C* [( W+ }9 Q4 l  ?, ]2 e5 rBit rate                                 : 55 b/s* z' n; H- O; P
Count of elements                        : 21256 o3 @" i  O( P& B7 \+ v) w- r- U
Stream size                              : 47.7 KiB (0%)0 T% t7 K$ n7 |! f6 t
Title                                    : Traditional
* V# x! J# _5 x2 Z& OLanguage                                 : Chinese4 x/ R4 T* O8 N/ l
Default                                  : No4 g/ m; q! d8 E& H. `' ~/ P
Forced                                   : No  R! _8 V4 R5 E" H* A

/ Z7 k+ e4 s7 BMenu
; Z; Y7 w& _8 w$ g5 U2 n  s2 F- v00:00:00.000                             : en:00:00:00.000$ J4 a- P- k& g' F1 m
00:02:47.917                             : en:00:02:47.917
# E2 m! M$ M% y- j- |; u3 Q00:03:40.887                             : en:00:03:40.887
1 l7 E: ^6 u+ h% u00:07:22.984                             : en:00:07:22.984
. e. U0 W/ ]" L& t- W2 `  ?3 p00:10:03.728                             : en:00:10:03.728
% |% s, |& \) Y! a* d% O00:14:30.995                             : en:00:14:30.995* y) ]9 V4 |: n4 a4 D
00:17:59.078                             : en:00:17:59.078- V8 Q. m& `) I; [
00:23:58.854                             : en:00:23:58.854" S- F+ N- o9 v  z/ O. p
00:34:01.456                             : en:00:34:01.456
+ s4 Q0 `5 h9 J: i. m00:42:39.556                             : en:00:42:39.5563 o% t3 K4 u) g- M$ N( p+ w: t) ]8 ~9 e! Y
00:47:15.123                             : en:00:47:15.1237 s8 a* ?4 o. T' W! d5 k% O7 j. {$ y
00:50:18.056                             : en:00:50:18.056) }) q- J4 W' d+ ~( X& x
00:52:33.859                             : en:00:52:33.859
& v: M9 H9 E2 d/ e+ N" }) K- K4 Z00:56:44.692                             : en:00:56:44.692
% J! z) K& f/ e3 w% Z3 `01:01:04.535                             : en:01:01:04.535
% i2 O& S' d9 r8 z01:07:29.128                             : en:01:07:29.128; g9 Y( S/ q2 J9 d/ V
01:14:02.521                             : en:01:14:02.521% \8 o' ]1 x8 U# F+ u9 x( T- f
01:20:17.229                             : en:01:20:17.2292 o' J7 l( h2 C- w- ^; d# o* ]
01:24:01.995                             : en:01:24:01.995' R3 ^( L. W1 Y$ r$ O  R
01:30:08.903                             : en:01:30:08.903: _; O# l5 R; Q% H$ c1 W) @
01:40:20.639                             : en:01:40:20.639! [$ {" ]' f( L) h5 n( @
01:43:08.432                             : en:01:43:08.4327 y8 `* |% @+ C/ e4 P. b) q; C
01:51:03.948                             : en:01:51:03.948: c+ F' b/ h' ]: A+ B# ~' r
01:54:12.303                             : en:01:54:12.303

/ J5 r3 t& f. P# ~# j& E9 D$ H7 Y9 Z5 Q
  j/ W4 U, W& D# Z. r" L2 D- y9 y( Y! W

9 R4 w( n: o7 u- B% {( n
0 q( f# M, r+ z; ]4 h" l
! j) w: e2 D: G( c/ d5 W
+ h0 d8 w2 a# d( S; A, d$ y" H/ f' q5 g& D& M6 M& B& _

( m/ a; w% `# B" Z2 z7 n7 j0 W( z6 @, C0 c) X0 l' e+ P

; C/ o6 ^5 d9 n

帝一之國 MKV.torrent

91.6 KB, 下載次數: 269

尚未簽到

發表於 2018-1-13 15:50:32 來自手機 | 顯示全部樓層
精妙絕倫的精品,感謝啊!期待你更多更好的創作哦!

尚未簽到

發表於 2018-1-14 03:49:17 | 顯示全部樓層
這個我收藏了!謝謝分享!WK的資源越來越豐富,這少不了大大的辛勞!

尚未簽到

發表於 2018-1-14 06:14:54 來自手機 | 顯示全部樓層
偶像^^小生一直都在關注你的原創!小生對你之仰慕如滔滔江水連綿不絕!

尚未簽到

發表於 2018-1-15 06:08:30 來自手機 | 顯示全部樓層
偶像^^小生一直都在關注你的原創!小生對你之仰慕如滔滔江水連綿不絕!

尚未簽到

發表於 2018-1-16 16:48:56 來自手機 | 顯示全部樓層
偶像^^小生一直都在關注你的原創!小生對你之仰慕如滔滔江水連綿不絕!

尚未簽到

發表於 2018-1-17 11:15:51 來自手機 | 顯示全部樓層
絕對的好貼!謝謝啊!逐字逐圖地看完這個帖子以後,我的心久久不能平靜,感恩啊!

尚未簽到

發表於 2018-1-18 01:02:16 來自手機 | 顯示全部樓層
精妙絕倫的精品,感謝啊!期待你更多更好的創作哦!

回復樓主 親!! 現在是淩晨!妳失眠啦?餓啦?通宵加班?還是想WK啦?

 分享同時學會感恩,一句感謝的話語,就是最大的支持!  歡迎交流討論
您需要登錄後才可以回帖 登錄 | 立即注册

本版積分規則

c重要聲明:本論壇是以即時上載言論的方式運作,WK論壇對所有言論的真實性、立場及版權等,不負任何法律責任。而一切言論只代表發佈者個人意見,並非本網站之立場,讀者及用戶務必自行判斷內容之真實性。 由於本論壇受到「即時上載言論」運作方式所規限,故不能完全監察所有言論,若讀者及用戶發現有內容出現「真實性、立場及版權」等問題,請聯絡我們:info@waikeung.net論壇有權刪除任何言論(刪除前或不會作事先警告及通知)| SiteMap[網站地圖]

發表新帖 返回頂部