WK綜合論壇, WK综合论坛

查看:6236 回復:13 發表於 2018-3-12 01:56:36
本主題由 212love 於 2018-3-8 23:52 解除高亮
累計簽到︰1542 天
連續簽到︰4 天
發表於 2018-3-7 16:13:32 | 顯示全部樓層 |閱讀模式

僵屍攻擊 Attack.of.the.Southern.Fried.Zombies., 2017.[MKV / 9.4G] [複製鏈接]

影視分享
分類: 電影
題材: 恐怖 
地區: 美國 
語言: 英语 
格式: MKV 
年份: 2017
資源: BT资源
1.jpg * ?# \4 S  ~, Z) Y) F4 f# A

2 r) C1 t4 c1 n' Q" J( o& C◎译  名 AttackoftheSouthernFriedZombies% ]+ z5 {7 G; y8 L8 \
  |* p, `- J+ `1 |7 r: f
◎片  名 Kudzu Zombies
# d" E+ j( ?9 }7 Y8 ~" C' ~1 E% X  q# _4 R) g4 ]& z
◎年  代 2017; Q! J& C4 r7 I
. H% M9 g9 G! R
◎产  地 美国$ M8 z: C3 r. M4 h  i! x

3 L! r1 D# I* ]% |/ I6 V; a◎类  别 恐怖
# m$ g6 K: z8 o2 E5 Z5 b
; c! T. |% V7 Y# d) m◎语  言 英语
, q6 s9 b4 F9 [. f# S/ A: Y- h3 I2 T
◎IMDb评分  7.0/10 from 17 users. r1 n, r$ z( Q$ y+ a9 E- {. N
" n7 w8 |+ B: P0 r* r8 b1 t. r1 X+ N
◎IMDb链接  http://www.imdb.com/title/tt5594444/
* V2 R, {* [1 Q/ e& W1 A8 a$ m' _: q' b5 L
◎导  演 Mark Newton
9 |# ]! s* T/ R
$ @" U: C  {8 j. U, n; J  A◎主  演 Megan Few
% A! k) }5 G! ^0 S0 W+ n3 U( p, t# @( ^# o+ T
      Jeremy Sande- b0 A8 g# U; F  S+ z4 k$ }2 m
, n0 Q! G: ?* o: t( |% e6 X& D
      Michael Joiner
, h( S( J+ b  b5 [# b4 {$ s9 K3 L$ B

8 K# S  `2 }9 Y% h7 d& r( x6 [9 L/ u; }& h$ a7 N
◎简  介
$ `" |' c, Q8 k3 X1 c% o, E9 H$ k$ t& _% b3 P

& i1 g: d. @6 c! W3 q% G8 [8 R5 ~6 u# J, G
  Lonnie, a crop duster pilot, must lead a mismatched group of survivors to escape the deadly zombie horde after an experimental chemical, intended to control the invasive kudzu vine, transforms the citizens of Charleston, MS into zombies.. E: q% D! A9 K! s6 D, n" s
3 q" b/ ]  `9 A1 L

; x8 e2 A7 z$ I" r. {
% O0 `0 f$ [5 v, @1 W$ qVideo# k  f2 y0 G2 Q
ID                                       : 1# Q, W2 B1 e  d( ~6 l1 X  N
Format                                   : AVC/ y% z) v+ J: q1 L. X& F( v) G
Format/Info                              : Advanced Video Codec
' @4 ^' f: Y/ R( g$ nFormat profile                           : High@L4.16 n9 @3 D0 H/ y/ R& S; {
Format settings                          : CABAC / 4 Ref Frames# z9 T3 K5 Q; q5 c
Format settings, CABAC                   : Yes6 [5 w: K4 ^) J8 M" ?/ V+ I: V
Format settings, ReFrames                : 4 frames; F: Y4 M2 S5 N1 h' N
Codec ID                                 : V_MPEG4/ISO/AVC
' G  D& r1 R, M0 NDuration                                 : 1 h 23 min
9 u. P! [: S4 a4 P& uBit rate                                 : 14.8 Mb/s  p1 y" o4 {) u/ Y! U
Width                                    : 1 920 pixels/ R5 M) G, T1 w. g* j3 d
Height                                   : 1 080 pixels( u& ~$ i! b) }/ d
Display aspect ratio                     : 16:9. \' J, a! h, R1 e4 g. Z0 f* G- p
Frame rate mode                          : Constant" g7 f3 M0 _" Q# D* L
Frame rate                               : 23.976 (24000/1001) FPS
  }4 ^& x9 W9 e: [4 J* KColor space                              : YUV- E, W% F4 m2 p( O9 _2 R1 {" y" o0 j
Chroma subsampling                       : 4:2:0
& ]5 E: W3 g% r8 u3 jBit depth                                : 8 bits1 |& n/ U( G5 y* A2 k
Scan type                                : Progressive: F7 p. }& V5 G1 o& R
Bits/(Pixel*Frame)                       : 0.298( w' v0 c: f* {! p& w! b
Stream size                              : 8.61 GiB (91%)  E" b  S4 g  ?& C  j
Writing library                          : x264 core 149 r2771+45 509cceb 7mod [8-bit@all X86_64]* {* G) C* g+ a, k
Encoding settings                        : cabac=1 / ref=4 / deblock=1:-3:-3 / analyse=0x3:0x113 / me=umh / subme=10 / psy=1 / fade_compensate=0.00 / psy_rd=0.90:0.10 / mixed_ref=1 / me_range=48 / chroma_me=1 / trellis=2 / 8x8dct=1 / cqm=0 / deadzone=21,11 / fast_pskip=0 / chroma_qp_offset=-2 / threads=12 / lookahead_threads=2 / sliced_threads=0 / nr=0 / decimate=1 / interlaced=0 / bluray_compat=0 / constrained_intra=0 / fgo=0 / bframes=8 / b_pyramid=2 / b_adapt=2 / b_bias=0 / direct=3 / weightb=1 / open_gop=0 / weightp=2 / keyint=250 / keyint_min=23 / scenecut=40 / intra_refresh=0 / rc_lookahead=40 / rc=crf / mbtree=0 / crf=19.0000 / qcomp=0.70 / qpmin=0:0:0 / qpmax=69:69:69 / qpstep=4 / vbv_maxrate=35000 / vbv_bufsize=35000 / crf_max=0.0 / nal_hrd=none / filler=0 / ip_ratio=1.40 / pb_ratio=1.30 / aq=3:1.00 / aq-sensitivity=10.00 / aq-factor=1.00:1.00:1.00 / aq2=0 / aq3=2:[0.50:0.50]:[0.50:0.50]:[0.50:0.50]:[0.50:0.50] / aq3-sensitivity=10.00 / aq3-factor=[1.00:1.00]:[1.00:1.00]:[1.00:1.00] / aq3-boundary=192:64:24
4 `' O. q" h4 B$ ~8 nLanguage                                 : English# A7 O% S, d9 f+ R! U5 w0 {: T
Default                                  : Yes
) K1 I4 u/ [5 I! Y: {3 {Forced                                   : No5 W! N' S' P8 O, I- E) I; O4 b) Z
Color range                              : Limited: ?0 j4 W0 \: h) i( D# H: _4 x
Matrix coefficients                      : BT.709
( O* k" c  [, c  N- v0 ]
3 A; M2 \. u$ O/ V. h8 ], |Audio. e  X: y. V; e" q  G9 s* M
ID                                       : 2
' P! ~' P  {/ t- X. g0 b8 `7 kFormat                                   : DTS& `; h7 p7 w+ Y6 P2 D; Q4 W
Format/Info                              : Digital Theater Systems; G# \  c1 s0 g& f
Codec ID                                 : A_DTS( u# u, \+ `7 ~& G' H7 B1 _% }
Duration                                 : 1 h 23 min3 a6 h* j4 p* K+ P$ p5 S
Bit rate mode                            : Constant
3 s- u. w4 g7 y- i+ VBit rate                                 : 1 509 kb/s
' l+ I) _3 w# \; B2 r& kChannel(s)                               : 6 channels
, Y; K0 F; o9 bChannel positions                        : Front: L C R, Side: L R, LFE2 t1 v! w6 d' r
Sampling rate                            : 48.0 kHz
4 q; l- o2 t1 {- F9 D  I* sFrame rate                               : 93.750 FPS (512 SPF)
9 m1 S5 y4 V1 z# E0 ^0 }  ABit depth                                : 24 bits! I% e. N% |5 d/ k; c2 {- x  B
Compression mode                         : Lossy
) ~, l7 u2 ~0 Y  A* ~Stream size                              : 898 MiB (9%)8 v9 H3 ^) P/ F- G
Language                                 : English
1 x/ D1 s( j' n: j7 c0 iDefault                                  : Yes
9 s# c) I) \6 b6 E1 eForced                                   : No
  m4 r( X. F+ j( C
* a% ~; p: u8 ~1 F7 G* q8 g  O

7 p9 x7 a" o" ]# m8 g8 T

僵屍攻擊. MKV.torrent

95.48 KB, 下載次數: 712

尚未簽到

發表於 2018-3-7 16:14:35 | 顯示全部樓層
很讚的文章,謝謝咯!相信WK因為有你而更加精彩!
累計簽到︰1609 天
連續簽到︰12 天
發表於 2018-3-7 18:06:29 | 顯示全部樓層
這個我收藏了!謝謝分享!WK的資源越來越豐富,這少不了大大的辛勞!

尚未簽到

發表於 2018-3-8 03:24:01 來自手機 | 顯示全部樓層
感謝大大的辛勞分享!我會繼續在WK關注大大的文章!

尚未簽到

發表於 2018-3-8 13:51:41 | 顯示全部樓層
絕對的好貼!謝謝啊!逐字逐圖地看完這個帖子以後,我的心久久不能平靜,感恩啊!

尚未簽到

發表於 2018-3-10 00:12:14 | 顯示全部樓層
精妙絕倫的精品,感謝啊!期待你更多更好的創作哦!

尚未簽到

發表於 2018-3-10 15:50:52 | 顯示全部樓層
絕對的好貼!謝謝啊!逐字逐圖地看完這個帖子以後,我的心久久不能平靜,感恩啊!

尚未簽到

發表於 2018-3-10 18:18:52 | 顯示全部樓層
很讚的文章,謝謝咯!相信WK因為有你而更加精彩!
累計簽到︰953 天
連續簽到︰6 天
發表於 2018-3-10 23:26:44 | 顯示全部樓層
感謝大大的辛勞分享!我會繼續在WK關注大大的文章!

尚未簽到

發表於 2018-3-12 01:56:36 | 顯示全部樓層
偶像^^小生一直都在關注你的原創!小生對你之仰慕如滔滔江水連綿不絕!

回復樓主 親!! 下午好,中午養足了精神嗎?讓我們一起渡過下午茶時間,WK有您更精彩!

 分享同時學會感恩,一句感謝的話語,就是最大的支持!  歡迎交流討論
您需要登錄後才可以回帖 登錄 | 立即注册

本版積分規則

c重要聲明:本論壇是以即時上載言論的方式運作,WK論壇對所有言論的真實性、立場及版權等,不負任何法律責任。而一切言論只代表發佈者個人意見,並非本網站之立場,讀者及用戶務必自行判斷內容之真實性。 由於本論壇受到「即時上載言論」運作方式所規限,故不能完全監察所有言論,若讀者及用戶發現有內容出現「真實性、立場及版權」等問題,請聯絡我們:info@waikeung.net論壇有權刪除任何言論(刪除前或不會作事先警告及通知)| SiteMap[網站地圖]

發表新帖 返回頂部