WK綜合論壇, WK综合论坛

查看:6082 回復:13 發表於 2018-3-12 01:56:36
本主題由 212love 於 2018-3-8 23:52 解除高亮
累計簽到︰1386 天
連續簽到︰15 天
發表於 2018-3-7 16:13:32 | 顯示全部樓層 |閱讀模式

僵屍攻擊 Attack.of.the.Southern.Fried.Zombies., 2017.[MKV / 9.4G] [複製鏈接]

影視分享
分類: 電影
題材: 恐怖 
地區: 美國 
語言: 英语 
格式: MKV 
年份: 2017
資源: BT资源
1.jpg
! U9 c) h* P0 i. G  o# q8 o  V
◎译  名 AttackoftheSouthernFriedZombies% }+ V+ P  F8 B1 b8 m: ?
0 z, T, T# ?* N; O0 ?: a, M/ P
◎片  名 Kudzu Zombies5 Z! b+ x+ f3 j) U( w" `3 c
! L5 c+ C1 C2 J' P: z% b, m
◎年  代 2017; T. x5 h) I4 |" ^" `2 V& D9 r# i
* S' s4 N0 ?6 \- V" f9 N
◎产  地 美国
9 ?! E. H! d3 H( ^6 h) n, v. c9 c" K/ w3 Q6 b4 j7 Z3 ~5 r3 |
◎类  别 恐怖
% W* w$ T6 J/ J9 x( M2 H1 Y' v7 J9 W" H4 m6 R" I
◎语  言 英语
. |4 f' W. T  _; h, u5 v8 E( E$ M; ]8 \
◎IMDb评分  7.0/10 from 17 users
6 X, p: @* m9 b/ b
0 W% V7 T3 h* C' D& P◎IMDb链接  http://www.imdb.com/title/tt5594444/
( n) C0 W- h+ [6 P; ?
: t( i6 S) _9 z+ R- I◎导  演 Mark Newton- C8 B8 j1 e2 G

2 {1 H1 Q! w, b! A7 P◎主  演 Megan Few7 E; K& N/ y2 s5 w) Q0 E
" a, R0 }  {3 ^1 X* }- o( E
      Jeremy Sande; `2 i( k8 @) l9 {

; l9 Y0 q' a# F) Z% Z! ^6 w      Michael Joiner2 Q* {+ d# }6 i+ ~
2 L1 o# T. ?" j8 ]

/ T4 i, h/ P5 j6 y5 o0 ~/ q
, {% a! m% ~1 t! _◎简  介. z( S' `( U- o8 |" _0 f

7 {7 T! i& h2 ]- A3 d6 [
1 ^% w0 l& f5 l) L/ s
! Q' A# D; `' ?& ~' w3 c6 U  Lonnie, a crop duster pilot, must lead a mismatched group of survivors to escape the deadly zombie horde after an experimental chemical, intended to control the invasive kudzu vine, transforms the citizens of Charleston, MS into zombies.: a' q, x0 c* ~  g. J( ]3 x
; O" `$ z1 b; H' Q: O* A6 e

2 c! c  O! h) n, i- J2 A* @& o+ w% H. n
Video  x. {8 l! j' b  E  u6 b
ID                                       : 1
: X( w8 E( S( I' ]; RFormat                                   : AVC
' K4 V3 Q7 t, G' m* nFormat/Info                              : Advanced Video Codec# m7 O, g8 t$ t/ H" P" p
Format profile                           : High@L4.1
& ?7 s$ E% M2 z$ EFormat settings                          : CABAC / 4 Ref Frames
3 P  O  k8 H* J% j3 zFormat settings, CABAC                   : Yes
; ~1 L5 `# V* a; H9 Y2 x; [Format settings, ReFrames                : 4 frames1 _$ h1 f4 d9 r2 O/ P2 J
Codec ID                                 : V_MPEG4/ISO/AVC
1 N: y+ n; v' x4 V1 QDuration                                 : 1 h 23 min. J: O9 W7 J+ _* N( F* T/ L
Bit rate                                 : 14.8 Mb/s
: N3 m& a" k( aWidth                                    : 1 920 pixels) r; l2 v' a4 z! f
Height                                   : 1 080 pixels
( Z5 [; x  T, tDisplay aspect ratio                     : 16:9
! s, R7 D; p# D0 E( K7 }- R) qFrame rate mode                          : Constant4 g- I8 C( W* u
Frame rate                               : 23.976 (24000/1001) FPS2 |# o. s5 J0 F( _
Color space                              : YUV
: b5 \2 Q$ M0 l2 ], C( rChroma subsampling                       : 4:2:0
! F" a! I% Q: h) T5 rBit depth                                : 8 bits
; ~6 v- @4 Z' H3 O2 _- n/ cScan type                                : Progressive
) n+ T, [, F$ G; O6 o% CBits/(Pixel*Frame)                       : 0.2984 w0 \$ N4 X8 Y
Stream size                              : 8.61 GiB (91%)
% q3 s7 }; k' [: I4 H$ ~8 UWriting library                          : x264 core 149 r2771+45 509cceb 7mod [8-bit@all X86_64]
$ `) b9 T% D9 a6 Z9 ?  K- VEncoding settings                        : cabac=1 / ref=4 / deblock=1:-3:-3 / analyse=0x3:0x113 / me=umh / subme=10 / psy=1 / fade_compensate=0.00 / psy_rd=0.90:0.10 / mixed_ref=1 / me_range=48 / chroma_me=1 / trellis=2 / 8x8dct=1 / cqm=0 / deadzone=21,11 / fast_pskip=0 / chroma_qp_offset=-2 / threads=12 / lookahead_threads=2 / sliced_threads=0 / nr=0 / decimate=1 / interlaced=0 / bluray_compat=0 / constrained_intra=0 / fgo=0 / bframes=8 / b_pyramid=2 / b_adapt=2 / b_bias=0 / direct=3 / weightb=1 / open_gop=0 / weightp=2 / keyint=250 / keyint_min=23 / scenecut=40 / intra_refresh=0 / rc_lookahead=40 / rc=crf / mbtree=0 / crf=19.0000 / qcomp=0.70 / qpmin=0:0:0 / qpmax=69:69:69 / qpstep=4 / vbv_maxrate=35000 / vbv_bufsize=35000 / crf_max=0.0 / nal_hrd=none / filler=0 / ip_ratio=1.40 / pb_ratio=1.30 / aq=3:1.00 / aq-sensitivity=10.00 / aq-factor=1.00:1.00:1.00 / aq2=0 / aq3=2:[0.50:0.50]:[0.50:0.50]:[0.50:0.50]:[0.50:0.50] / aq3-sensitivity=10.00 / aq3-factor=[1.00:1.00]:[1.00:1.00]:[1.00:1.00] / aq3-boundary=192:64:24. \2 q# [& f/ Y& t$ p( J& i
Language                                 : English
4 U( D( Z2 P8 B/ X1 hDefault                                  : Yes! O1 }( x! ~/ Q
Forced                                   : No+ O# _$ r7 D. G8 u$ K
Color range                              : Limited% `1 `6 U' u* p( m
Matrix coefficients                      : BT.709/ E4 W$ L. m+ w, B2 U: I
) N$ q2 d$ d% U! B
Audio2 V) u4 k; K  v7 C- D
ID                                       : 2, l* g5 `1 m: v: T  r
Format                                   : DTS
1 a2 g) o& O& ]+ pFormat/Info                              : Digital Theater Systems
2 {4 D1 Q9 R- k* `' @Codec ID                                 : A_DTS+ @7 A% x" V& i" W
Duration                                 : 1 h 23 min4 Z' E& Q: w7 r5 F( h+ H2 c& ]
Bit rate mode                            : Constant
- r. z* |9 ^! l3 H' pBit rate                                 : 1 509 kb/s
7 E% w& h8 m" p! f, uChannel(s)                               : 6 channels
* M7 ~% j8 m8 H/ h1 M" EChannel positions                        : Front: L C R, Side: L R, LFE
. {0 R! ^2 }( A8 B* G& H2 ~5 LSampling rate                            : 48.0 kHz
) x9 N, y% M4 J. r& [Frame rate                               : 93.750 FPS (512 SPF)
6 M. B) R2 W& z: U% S3 Z$ k: qBit depth                                : 24 bits$ t# }( p; E& d; B
Compression mode                         : Lossy% X) p" ^! i& P7 X4 r* C5 G
Stream size                              : 898 MiB (9%)# s! ]( N2 E: ]0 c: }: H% y, Q
Language                                 : English
" p3 G/ G8 ]4 T) x- m& kDefault                                  : Yes/ b- C$ F) k  O' q1 h1 I, H
Forced                                   : No
9 N; C3 B) k0 j$ K( M# z
$ L! p0 Q! K* ?- A

7 B; |$ P  I. U& U

僵屍攻擊. MKV.torrent

95.48 KB, 下載次數: 712

尚未簽到

發表於 2018-3-7 16:14:35 | 顯示全部樓層
很讚的文章,謝謝咯!相信WK因為有你而更加精彩!
累計簽到︰1445 天
連續簽到︰1 天
發表於 2018-3-7 18:06:29 | 顯示全部樓層
這個我收藏了!謝謝分享!WK的資源越來越豐富,這少不了大大的辛勞!

尚未簽到

發表於 2018-3-8 03:24:01 來自手機 | 顯示全部樓層
感謝大大的辛勞分享!我會繼續在WK關注大大的文章!

尚未簽到

發表於 2018-3-8 13:51:41 | 顯示全部樓層
絕對的好貼!謝謝啊!逐字逐圖地看完這個帖子以後,我的心久久不能平靜,感恩啊!

尚未簽到

發表於 2018-3-10 00:12:14 | 顯示全部樓層
精妙絕倫的精品,感謝啊!期待你更多更好的創作哦!

尚未簽到

發表於 2018-3-10 15:50:52 | 顯示全部樓層
絕對的好貼!謝謝啊!逐字逐圖地看完這個帖子以後,我的心久久不能平靜,感恩啊!

尚未簽到

發表於 2018-3-10 18:18:52 | 顯示全部樓層
很讚的文章,謝謝咯!相信WK因為有你而更加精彩!
累計簽到︰844 天
連續簽到︰14 天
發表於 2018-3-10 23:26:44 | 顯示全部樓層
感謝大大的辛勞分享!我會繼續在WK關注大大的文章!

尚未簽到

發表於 2018-3-12 01:56:36 | 顯示全部樓層
偶像^^小生一直都在關注你的原創!小生對你之仰慕如滔滔江水連綿不絕!

回復樓主 親!! 早上好! 心底有WK、心情就會飛翔,心中要個希望、笑容就會清爽!

 分享同時學會感恩,一句感謝的話語,就是最大的支持!  歡迎交流討論
您需要登錄後才可以回帖 登錄 | 立即注册

本版積分規則

c重要聲明:本論壇是以即時上載言論的方式運作,WK論壇對所有言論的真實性、立場及版權等,不負任何法律責任。而一切言論只代表發佈者個人意見,並非本網站之立場,讀者及用戶務必自行判斷內容之真實性。 由於本論壇受到「即時上載言論」運作方式所規限,故不能完全監察所有言論,若讀者及用戶發現有內容出現「真實性、立場及版權」等問題,請聯絡我們:info@waikeung.net論壇有權刪除任何言論(刪除前或不會作事先警告及通知)| SiteMap[網站地圖]

發表新帖 返回頂部