WK綜合論壇, WK综合论坛

查看:2905 回復:8 發表於 2018-3-20 17:25:30
本主題由 212love 於 2018-3-16 09:58 解除高亮
累計簽到︰1472 天
連續簽到︰19 天
發表於 2018-3-14 10:00:36 | 顯示全部樓層 |閱讀模式

玉米地的小孩:大逃亡 Children.of.the.Corn., 2018.[MKV / 2.8G] [複製鏈接]

影視分享
分類: 電影
題材: 恐怖 
地區: 美國 
語言: 英语 
格式: MKV 
年份: 2018
資源: BT资源
1.jpg
  G6 P. F  q6 H" S! N! v$ |* O
# H; U0 }7 s2 \( x* q, i◎译  名 玉米地的小孩:大逃亡4 i- M- l3 Y) {* q2 k7 C

( f! _% c* G( n+ g0 f◎片  名 Children of the Corn: Runaway
* L; t$ l/ X5 Q3 E" N- J5 B6 X; ]% w  a! D8 `, S
◎年  代 2018
' A+ P  ]- N, D8 {$ ]6 g$ L- L' a) X9 Y
◎产  地 美国$ T( ?& W0 E/ `! U# m

) u" R/ ~  e9 p( }7 c0 P◎类  别 恐怖$ Y# e# \/ c, K4 O3 o. b% E, ^- J* S
, f/ j9 ?9 A- }4 H
◎语  言 英语
# G, P  P2 [  H# s9 A( T2 J. B, h9 t: G: S
◎上映日期 2018-03-13(美国)/ z! W# |: E/ t. ?- g; n. y+ {! l( |

0 P$ y) y: Z2 h" E◎IMDb评分  5.6/10 from 5 users
! ]) H8 S% B* P1 y
# o) U4 }# @% f% b$ ?◎IMDb链接  http://www.imdb.com/title/tt5565634/0 V" P, j0 d5 }% Z+ \6 p/ ^7 s
# G( U+ k6 ~* v! z
◎片  长 82分钟
1 }7 x3 N0 F& b! }# ~% f3 G" i8 @2 v- M
◎导  演 约翰·古拉格 John Gulager) V% V4 X% L5 Z/ T

+ M" ^" `" U8 M; l! J5 f9 A◎主  演 玛茜·米勒 Marci Miller, Y0 U9 q& |7 G! }& [( h& i
% U+ _. E) R: I; v% U/ s
      Molly Nikki Anderson
3 c# }( v8 ]  L2 }2 H* i+ E& H
; k$ ~" n/ Q6 o  B) D      Blaine Maye; _' J1 s  B% S

' o) x) B5 H. }2 `      Lynn Andrews III4 D" n- ^- u4 P- f. X

* {5 I1 e3 V' t$ q/ U3 C& A$ }) |      JR Hatchett, ^# A- e$ s8 O( [( j
) `2 l0 X' \6 n! y( q/ _
      Mary Kathryn Bryant- Z# d. D& d& e6 a

0 I4 V8 d$ v" e0 K+ z" I2 K      Jake Ryan Scott* i. Y  L, V9 X! ~( d/ t0 m- Z

( _" w1 H8 _8 E      Sara Moore$ d' Q* \! [! A) P9 n1 A8 f# x

2 b  l3 t8 r* F8 l6 s      Gavin Taylor& x- Y( j7 O6 z1 j+ n0 b+ M
9 Z) m$ t: l! E* Q- ~
      Debbi Tucker! S; z: X& W' m" ?* h4 m8 C6 S

* J! {: X, _1 g0 r5 W8 X      Glenda Taylor
) |* |7 y  z& `/ s& b7 `1 X7 o
: C  g( k. X% u' ]1 \6 j& X      Cacky Poarch
4 J( ?! Z) L' d' @6 E" e5 j
7 r: I5 e+ p, F! y" a- R0 P4 o, e      Tom Allen
1 X$ ~7 q: G+ f- m3 I7 ?4 A6 E
2 Q' S  P& P1 Y! t      Tyler Corbin
2 U, b* o/ k  L3 Y% ?0 B1 H% u7 y' I5 v5 v$ |
      Daria Balling& w% e: i! a) U! I

! U2 }+ n; q/ f8 f# d      William Sturgeon
/ B2 f4 F1 x$ K0 k5 I
3 N/ N/ R" T" z, p$ T* `2 H% f: ?4 N1 x( _% Z9 G& k$ a# L4 |* F! A7 [

% D' V6 f8 s& H◎简  介! L! c& J& x3 b& l
+ `6 |# R8 x8 s) ~* U! o7 d) k
, t' S2 y: J* }( G9 C5 _, i: j: Y
+ y  X+ _2 h  L  w! v
  The plot of Children of the Corn: Runaway follows a young pregnant Ruth who escapes a murderous child cult in a small Midwestern town. She spends the next decade living anonymously in an attempt to spare her son the horrors that she experienced as a child. She lands in the small Oklahoma town, but something is following her. Now, she must confront this evil or lose her child.8 G& |; N' c% }' E! A# A' D
# e8 \) O1 L# X! Z' H

0 K4 i% O4 D3 [! ^
3 P, A2 \& ^2 V! K8 C8 UVideo  t; V7 y% ]# z6 a4 L
ID                                       : 1
1 ]3 ^8 ?3 Q. u* ^+ WFormat                                   : AVC5 |3 R+ l0 K* C
Format/Info                              : Advanced Video Codec
% }& m) ]/ J4 N" A* k& Q% pFormat profile                           : High@L4
& O+ L1 R) [- F; L  }6 JFormat settings                          : CABAC / 5 Ref Frames
* w# C  U5 w: Y5 PFormat settings, CABAC                   : Yes
" _( T! I7 A) i; x; `$ rFormat settings, ReFrames                : 5 frames& Y0 A3 O$ f2 L' R8 o' b4 z
Codec ID                                 : V_MPEG4/ISO/AVC
% o6 o5 W$ O/ b) [Duration                                 : 1 h 22 min9 }7 u$ C$ U. V4 B8 O4 z- o
Bit rate                                 : 4 544 kb/s
8 Y: ^7 r7 N& |2 a6 ]Width                                    : 1 912 pixels
; x! r% Z2 @5 r2 }, t4 [2 VHeight                                   : 808 pixels
$ ]- m) o$ }7 b0 x, Q# zDisplay aspect ratio                     : 2.35:1, T& g/ W# H) Y/ w5 q, C$ a
Frame rate mode                          : Constant
5 p2 m0 x, z; P, a: D- g2 QFrame rate                               : 23.976 (24000/1001) FPS) Z% c  W0 q, ]4 p+ _) M, o  G3 W! c
Color space                              : YUV- b7 L+ g( V1 F
Chroma subsampling                       : 4:2:0% v6 i3 M1 M/ k' C5 j' n1 A( T: A" S$ w
Bit depth                                : 8 bits' c8 R( h; D) i! F1 G$ e
Scan type                                : Progressive- Q: i) p$ P" k" M4 u4 a/ j5 R9 i
Bits/(Pixel*Frame)                       : 0.123/ v  ?/ [; t5 \
Stream size                              : 2.61 GiB (92%)6 e% ?. N/ W6 K4 M
Title                                    : Children.of.the.Corn.Runaway.2018.1080p.WEB-DL.DD5.1.H.264-FGT
6 `' k5 |' D# h( WLanguage                                 : English
5 D8 R8 `2 K7 GDefault                                  : Yes$ n6 k  I7 M+ Z0 L8 q0 y
Forced                                   : No" q7 ]  J1 X$ C! T4 ]" u6 o$ D
Color range                              : Limited; h* H/ ]( n7 t2 ]  u
Color primaries                          : BT.709
/ }* ~2 V3 c. r! rTransfer characteristics                 : BT.709
1 V  `  l' n/ G( O  V9 hMatrix coefficients                      : BT.709' P8 n5 H8 v  \( L' Q  E# R
# ]* Z3 B, r/ i( u1 s
Audio1 Z4 B' X5 f3 k- c
ID                                       : 2' g7 ?& z9 ^' W$ z4 Y$ f
Format                                   : AC-3
: _+ t# ]$ W& G6 P% _Format/Info                              : Audio Coding 3
( G6 a+ e5 m8 w) x! I2 iCodec ID                                 : A_AC34 z: u) Y$ n9 `# U
Duration                                 : 1 h 22 min1 V+ ?. f/ X1 r" ]! Y1 s
Bit rate mode                            : Constant' C$ @* s9 G4 x2 g
Bit rate                                 : 384 kb/s
, o# V0 j0 m+ O5 s5 |Channel(s)                               : 6 channels
: d- U% D1 F, v5 t# EChannel positions                        : Front: L C R, Side: L R, LFE
8 T2 N: e4 h$ ]! L- D' ]Sampling rate                            : 48.0 kHz
* N* E* G3 X( I, J& D" Y0 FFrame rate                               : 31.250 FPS (1536 SPF), M5 A' _4 q! O4 o8 V
Bit depth                                : 16 bits. O( i  q( f5 l
Compression mode                         : Lossy! V! }4 c! k- P5 A/ n0 {  A+ w
Stream size                              : 226 MiB (8%)
7 n4 f# ?: p  K. {& k3 RTitle                                    : Children.of.the.Corn.Runaway.2018.1080p.WEB-DL.DD5.1.H.264-FGT
1 i8 U1 U- W% WLanguage                                 : English
. s; p3 ?! i; C. iService kind                             : Complete Main
5 Y5 M2 N; S3 |. V2 }3 Y6 B  ~% {; {, XDefault                                  : Yes8 O. e7 m: y( h- P  p
Forced                                   : No1 D! h: P2 q+ N$ v) h) H7 p0 `

  d# F/ C. L1 M+ k" [. PText
7 G5 c0 Y8 w- w# m; DID                                       : 30 O3 [3 q& |$ {/ }" h, _5 ~
Format                                   : UTF-8; R" Z! [6 H7 C' L0 _
Codec ID                                 : S_TEXT/UTF8# W$ [$ k( _0 m+ _
Codec ID/Info                            : UTF-8 Plain Text$ s, ?; S/ s6 g3 s# O% V# h3 [
Duration                                 : 1 h 21 min' R* v- U) x- I& L0 w8 q2 M& r
Bit rate                                 : 39 b/s
1 p3 I9 k! R0 V, u0 n0 U( YCount of elements                        : 883; [2 f9 t3 m3 G- U
Stream size                              : 23.7 KiB (0%)
# X8 t8 W, F; DLanguage                                 : English
4 p: m0 R/ D; E* iDefault                                  : No
% D" ^) x+ J9 Y3 K% R! x3 c) lForced                                   : No" w; z- e! s, ~

$ d' e# U" R  y6 f8 O9 u* e# dMenu2 ]: _, q( F+ b! g+ |* k5 h# l
00:00:00.000                             : en:1
+ A% u; j7 \! {9 y+ N; A5 D00:11:57.000                             : en:2
$ L  B6 E0 [* j00:25:54.000                             : en:3+ F4 Y' t$ k* f" d- n
00:33:45.000                             : en:4
+ ~9 Y! A$ p# j" R3 m7 h. S. m00:46:17.000                             : en:5/ j& t& H4 ]" P9 {8 ]! _# x: w) g
00:59:11.000                             : en:6! L* W% z9 G4 U
01:08:29.000                             : en:7. n: T0 N( b! D3 O6 {
01:19:26.000                             : en:8
  y! k( m* Z" W2 P& J) O6 q3 ]

% G% |5 H  t2 O! T3 s/ B0 Z1 H) X$ S0 u8 o9 e2 D. k4 k

玉米地的小孩_大逃亡. MKV.torrent

57.18 KB, 下載次數: 363

尚未簽到

發表於 2018-3-14 10:01:36 來自手機 | 顯示全部樓層
這個我收藏了!謝謝分享!WK的資源越來越豐富,這少不了大大的辛勞!

尚未簽到

發表於 2018-3-15 00:15:05 | 顯示全部樓層
精妙絕倫的精品,感謝啊!期待你更多更好的創作哦!
累計簽到︰189 天
連續簽到︰1 天
發表於 2018-3-15 09:47:34 | 顯示全部樓層
感謝大大的辛勞分享!我會繼續在WK關注大大的文章!

尚未簽到

發表於 2018-3-16 08:37:41 | 顯示全部樓層
偶像^^小生一直都在關注你的原創!小生對你之仰慕如滔滔江水連綿不絕!

尚未簽到

發表於 2018-3-16 11:45:28 | 顯示全部樓層
絕對的好貼!謝謝啊!逐字逐圖地看完這個帖子以後,我的心久久不能平靜,感恩啊!

尚未簽到

發表於 2018-3-17 09:53:41 | 顯示全部樓層
精妙絕倫的精品,感謝啊!期待你更多更好的創作哦!

尚未簽到

發表於 2018-3-19 04:29:29 | 顯示全部樓層
很讚的文章,謝謝咯!相信WK因為有你而更加精彩!

尚未簽到

發表於 2018-3-20 17:25:30 來自手機 | 顯示全部樓層
偶像^^小生一直都在關注你的原創!小生對你之仰慕如滔滔江水連綿不絕!

回復樓主 親!! 早上好! 心底有WK、心情就會飛翔,心中要個希望、笑容就會清爽!

 分享同時學會感恩,一句感謝的話語,就是最大的支持!  歡迎交流討論
您需要登錄後才可以回帖 登錄 | 立即注册

本版積分規則

c重要聲明:本論壇是以即時上載言論的方式運作,WK論壇對所有言論的真實性、立場及版權等,不負任何法律責任。而一切言論只代表發佈者個人意見,並非本網站之立場,讀者及用戶務必自行判斷內容之真實性。 由於本論壇受到「即時上載言論」運作方式所規限,故不能完全監察所有言論,若讀者及用戶發現有內容出現「真實性、立場及版權」等問題,請聯絡我們:info@waikeung.net論壇有權刪除任何言論(刪除前或不會作事先警告及通知)| SiteMap[網站地圖]

發表新帖 返回頂部