WK綜合論壇, WK综合论坛

查看:2927 回復:8 發表於 2018-3-20 17:25:30
本主題由 212love 於 2018-3-16 09:58 解除高亮
累計簽到︰1542 天
連續簽到︰4 天
發表於 2018-3-14 10:00:36 | 顯示全部樓層 |閱讀模式

玉米地的小孩:大逃亡 Children.of.the.Corn., 2018.[MKV / 2.8G] [複製鏈接]

影視分享
分類: 電影
題材: 恐怖 
地區: 美國 
語言: 英语 
格式: MKV 
年份: 2018
資源: BT资源
1.jpg
% N9 P. s% T4 u8 Z; Z
  k/ r# r* g2 O' k( O( k◎译  名 玉米地的小孩:大逃亡: h, [' \% q, l) H3 R/ {
$ m# z% |6 g% \. c
◎片  名 Children of the Corn: Runaway4 n2 \- ?: h  z% o' s: k
& V, e& L. f" i
◎年  代 2018
- w* o+ d( N4 n0 w
5 P8 m  d1 b1 ~8 z% u4 `◎产  地 美国; u3 |) P. b- G, H$ R3 z1 p+ t" z

& ^8 b) d) X/ S  f& N◎类  别 恐怖
& E3 a  u) I) a0 g" u& f0 ]/ o4 c" \; Z
◎语  言 英语
9 r2 w4 ~2 c: r
1 ^$ w2 R% L5 E7 G7 A; t2 l! C◎上映日期 2018-03-13(美国)" ^* a5 C1 c; _8 u: H

7 g7 x2 f$ w9 ?" S◎IMDb评分  5.6/10 from 5 users- Z. j3 o8 l6 Y0 ~2 g$ n, {0 p
: @& C. M6 X8 ]% O
◎IMDb链接  http://www.imdb.com/title/tt5565634/, \; p+ y7 j. ]- D- U+ O% x4 n
' i! Y  `3 M1 w' j7 G! `
◎片  长 82分钟# L4 J: p( _+ P  O/ f

5 G8 a; Z2 F) x4 _, q; l◎导  演 约翰·古拉格 John Gulager' T7 K' z+ ]" k( ]9 R* I* k4 T

1 A, ^4 `1 F, }◎主  演 玛茜·米勒 Marci Miller
1 \7 m6 r! @' }% }3 K! Y6 _  j7 o( {8 c. G" _
      Molly Nikki Anderson
% c# s# B* C) w! D
) v7 D7 x; t) R- ~% N  N/ W      Blaine Maye9 S1 n4 g1 q$ b3 B* C

' V+ t  p. ?3 }' D  B' @      Lynn Andrews III
- ^* W2 {9 z; o
- ?! t& Y+ R6 ]* ?) \7 Q$ A      JR Hatchett
2 {& E( w& F3 e+ B& T% B0 j; ]
6 n& q" l7 R" R' S, v# @2 J6 u1 Q      Mary Kathryn Bryant2 B9 f# ~2 |3 m& x1 t8 [& }
5 ^& M$ w6 c3 A+ ^" B
      Jake Ryan Scott
( H6 n* e' Q5 |! ]; i# T7 l; C6 x
      Sara Moore- C7 I" J- b/ k
  b3 A5 d7 E2 k" G2 ^5 d
      Gavin Taylor7 o  L( b# x4 z% _
6 J+ ]- z, X4 d+ j* E: I' X
      Debbi Tucker
: K: }4 x; v- O. m  k7 f1 k5 O
      Glenda Taylor* _* f0 ~  N5 o5 I9 `
! O/ o! `4 J: d; o
      Cacky Poarch
/ Q" {# W2 K; j" z- ^1 t$ i4 W
" S; m+ W& O& q; W/ T9 ]      Tom Allen
; x; F2 j7 H, `: M2 C9 t) X- I8 M& r8 @( K; P$ h2 i
      Tyler Corbin/ \$ v0 A1 j* l6 A5 n5 f

" g+ A8 g1 r0 l; w& I- z2 n- E: A      Daria Balling6 I) R) T  U$ ]+ m' {
% b  B$ b4 b% \
      William Sturgeon
2 f2 s  J8 C6 j4 z; q- J9 R+ t% Z- n* K& B

5 b' W& o0 V+ d' ]# U) Y7 e, [9 X
5 D. P1 y6 ~- [, O! d* x◎简  介
$ V( P: @% B4 q8 K0 p) ~0 s) E! k  U  \: y/ ?

0 e, N: u7 T" ]8 D, Q: x. O' N. v* x2 R4 T$ f, t. ^: G
  The plot of Children of the Corn: Runaway follows a young pregnant Ruth who escapes a murderous child cult in a small Midwestern town. She spends the next decade living anonymously in an attempt to spare her son the horrors that she experienced as a child. She lands in the small Oklahoma town, but something is following her. Now, she must confront this evil or lose her child.
- P7 p1 {6 s" b5 d7 i7 ?+ H" T. o& c0 H" z3 B+ i' _# S
- A' k* ^7 J8 ^5 F8 c
6 b( H5 L! f; @6 T/ c5 A4 w
Video: L3 ?1 k% G( y- U5 P/ l( A1 |
ID                                       : 1
* \  `; l; p6 T9 yFormat                                   : AVC; w' A7 z5 G5 s8 w" \, X
Format/Info                              : Advanced Video Codec1 |* F( `; B- m5 z9 J3 b3 G! W% @' v
Format profile                           : High@L40 D# V* `4 |( b0 I, h: M: _
Format settings                          : CABAC / 5 Ref Frames  i# E* H1 n" ?( p/ Z. w
Format settings, CABAC                   : Yes) _% ~% I% N# m: |
Format settings, ReFrames                : 5 frames
5 e4 V  u' W( hCodec ID                                 : V_MPEG4/ISO/AVC4 y: n1 Q# J( K6 u
Duration                                 : 1 h 22 min
: Q& Y* j  r% ], e5 x$ tBit rate                                 : 4 544 kb/s
* p$ ?6 z/ y3 EWidth                                    : 1 912 pixels) `' U7 q' Y7 `% O! }2 q, Q
Height                                   : 808 pixels
3 H6 I# f* o) E0 ~7 N! d7 IDisplay aspect ratio                     : 2.35:19 f" P. W7 {* Y. m( i
Frame rate mode                          : Constant  l; b' s" D6 m) X0 C- b% Y
Frame rate                               : 23.976 (24000/1001) FPS* g% f+ Y0 [( `9 I5 R+ P: u: b- w
Color space                              : YUV  Z3 y# ~0 ?0 e# f6 Z
Chroma subsampling                       : 4:2:0- t7 R; V0 J! Y0 Y
Bit depth                                : 8 bits
7 L$ `" R& O. D4 H; dScan type                                : Progressive
+ {* O7 T0 g9 Z% [Bits/(Pixel*Frame)                       : 0.123( M6 a3 I6 t" L  ^/ b
Stream size                              : 2.61 GiB (92%)
7 o% `  n* I0 X' p" L& zTitle                                    : Children.of.the.Corn.Runaway.2018.1080p.WEB-DL.DD5.1.H.264-FGT
  |) v' U5 B, i2 ?) D  c2 Z% @Language                                 : English8 W+ O/ E5 N+ @8 I( C
Default                                  : Yes
, [% g0 \! S5 F) z: r0 _& G5 t6 H! QForced                                   : No
, N$ B& T. I# `Color range                              : Limited
& |8 I( `6 a6 |& P/ ~+ ]Color primaries                          : BT.709
  z  O/ ^  n$ Q% Q$ x8 LTransfer characteristics                 : BT.709
: x; E1 L4 [/ w, j; R- ?- |- `Matrix coefficients                      : BT.709
1 v8 `' Z; D# I; S* H$ O1 Y# U! h2 q( F  @5 {
Audio
2 d, ]* S' K$ m  l7 A2 PID                                       : 2
8 E2 k4 ~& Z& q/ Z$ F0 m' aFormat                                   : AC-3
4 S; S: X. B2 x1 gFormat/Info                              : Audio Coding 38 a' a" ]: n2 Y
Codec ID                                 : A_AC32 P( H3 f5 Q# r2 v3 `
Duration                                 : 1 h 22 min+ D7 t% Z# R) ^7 S+ Y8 \  b  z
Bit rate mode                            : Constant
' @1 I; [  F' S: BBit rate                                 : 384 kb/s
+ W" _, o, c: v4 |* E: AChannel(s)                               : 6 channels9 m# o! l' j& u  K6 }2 s. F
Channel positions                        : Front: L C R, Side: L R, LFE) l$ n6 ^7 u$ l3 `) v1 r
Sampling rate                            : 48.0 kHz6 K' D2 n. b  j  m
Frame rate                               : 31.250 FPS (1536 SPF)
  n5 c5 N! }5 }1 i* }Bit depth                                : 16 bits
& n( w4 {. S/ N. d. C4 A  tCompression mode                         : Lossy
- x1 |) k* S0 @Stream size                              : 226 MiB (8%)/ v7 l  e6 L; c. D
Title                                    : Children.of.the.Corn.Runaway.2018.1080p.WEB-DL.DD5.1.H.264-FGT- R+ ?/ w" ]5 _2 F
Language                                 : English
2 x! W+ w- d, V& z0 O5 dService kind                             : Complete Main9 R) g5 H) K  C; I2 l# h6 S/ i
Default                                  : Yes
3 I$ F) t( S: n$ oForced                                   : No3 v- W4 |- [' t3 l) M
) {8 u9 O+ Q+ }, E9 i) k5 }7 H
Text3 ?( _$ |, B- v. k
ID                                       : 3) e) N% O6 G) \/ Q. h, i$ }
Format                                   : UTF-81 r7 V* }8 y, Q' z8 m
Codec ID                                 : S_TEXT/UTF87 Z; a4 n" Y% y# d* {0 ]
Codec ID/Info                            : UTF-8 Plain Text
2 o0 Y$ m& t6 A5 PDuration                                 : 1 h 21 min8 a7 M8 [! B2 f) Q
Bit rate                                 : 39 b/s) B% I( D4 K) G8 z  x& y1 _1 _' K& {
Count of elements                        : 883
8 N- M5 P1 ]: F* f0 N- IStream size                              : 23.7 KiB (0%)
4 g% ^3 F" B$ ~+ U: u4 ZLanguage                                 : English9 M6 E2 g* x2 V' w  q
Default                                  : No- {0 B$ {" j- _" h- e
Forced                                   : No
) c! u; @5 ^* W4 ^6 v6 t% |  h( r% L' Y3 L2 n
Menu8 F1 k2 M( P; J; y! v, V9 F5 t* h6 a
00:00:00.000                             : en:1
6 u; B0 L# @; r! e) T! ^6 u00:11:57.000                             : en:29 ^$ m- r, X5 `& u2 i7 X# [: Z
00:25:54.000                             : en:3
8 r* t  k7 b5 Z9 D; `! u0 R00:33:45.000                             : en:48 O0 D9 x% ?: e1 j; A% D
00:46:17.000                             : en:5
) Z. [, J7 f) w0 n; M00:59:11.000                             : en:6
& ?( h* P% v! F2 n. A. x, y01:08:29.000                             : en:7+ e- [7 {% C* k; |& Q( N0 l% L& Q2 v
01:19:26.000                             : en:8

$ \5 F$ r; V+ m" A/ |6 Q1 T2 J7 `) g% H
# K: F% s2 h6 R

玉米地的小孩_大逃亡. MKV.torrent

57.18 KB, 下載次數: 363

尚未簽到

發表於 2018-3-14 10:01:36 來自手機 | 顯示全部樓層
這個我收藏了!謝謝分享!WK的資源越來越豐富,這少不了大大的辛勞!

尚未簽到

發表於 2018-3-15 00:15:05 | 顯示全部樓層
精妙絕倫的精品,感謝啊!期待你更多更好的創作哦!
累計簽到︰189 天
連續簽到︰1 天
發表於 2018-3-15 09:47:34 | 顯示全部樓層
感謝大大的辛勞分享!我會繼續在WK關注大大的文章!

尚未簽到

發表於 2018-3-16 08:37:41 | 顯示全部樓層
偶像^^小生一直都在關注你的原創!小生對你之仰慕如滔滔江水連綿不絕!

尚未簽到

發表於 2018-3-16 11:45:28 | 顯示全部樓層
絕對的好貼!謝謝啊!逐字逐圖地看完這個帖子以後,我的心久久不能平靜,感恩啊!

尚未簽到

發表於 2018-3-17 09:53:41 | 顯示全部樓層
精妙絕倫的精品,感謝啊!期待你更多更好的創作哦!

尚未簽到

發表於 2018-3-19 04:29:29 | 顯示全部樓層
很讚的文章,謝謝咯!相信WK因為有你而更加精彩!

尚未簽到

發表於 2018-3-20 17:25:30 來自手機 | 顯示全部樓層
偶像^^小生一直都在關注你的原創!小生對你之仰慕如滔滔江水連綿不絕!

回復樓主 親!! 下午好,中午養足了精神嗎?讓我們一起渡過下午茶時間,WK有您更精彩!

 分享同時學會感恩,一句感謝的話語,就是最大的支持!  歡迎交流討論
您需要登錄後才可以回帖 登錄 | 立即注册

本版積分規則

c重要聲明:本論壇是以即時上載言論的方式運作,WK論壇對所有言論的真實性、立場及版權等,不負任何法律責任。而一切言論只代表發佈者個人意見,並非本網站之立場,讀者及用戶務必自行判斷內容之真實性。 由於本論壇受到「即時上載言論」運作方式所規限,故不能完全監察所有言論,若讀者及用戶發現有內容出現「真實性、立場及版權」等問題,請聯絡我們:info@waikeung.net論壇有權刪除任何言論(刪除前或不會作事先警告及通知)| SiteMap[網站地圖]

發表新帖 返回頂部