WK綜合論壇, WK综合论坛

查看:2873 回復:8 發表於 2018-3-20 17:25:30
本主題由 212love 於 2018-3-16 09:58 解除高亮
累計簽到︰1381 天
連續簽到︰10 天
發表於 2018-3-14 10:00:36 | 顯示全部樓層 |閱讀模式

玉米地的小孩:大逃亡 Children.of.the.Corn., 2018.[MKV / 2.8G] [複製鏈接]

影視分享
分類: 電影
題材: 恐怖 
地區: 美國 
語言: 英语 
格式: MKV 
年份: 2018
資源: BT资源
1.jpg
; S. h0 ^4 I/ O) n4 m$ M! e+ g% f1 U# Z/ J- n# L
◎译  名 玉米地的小孩:大逃亡/ s- u3 q+ w7 Y' n: Z/ a  y
5 A) h/ L5 n' _, H
◎片  名 Children of the Corn: Runaway8 @6 f( t, ?8 b7 c
9 Y  o. {, ?/ n& w- C7 ]% M# G# h1 Q. o
◎年  代 2018; S; X0 W: R7 ?

2 D; d# {7 _3 e4 q. X, M# M◎产  地 美国
' l" T5 w$ K8 Q2 G; S. p
# F) I' w& A9 m◎类  别 恐怖. y* I" q# y5 u0 |
- a8 g" g* p8 {/ x: o1 l
◎语  言 英语
% _9 ?+ L- H4 f) x7 D. e: }1 P$ v" I
: w4 y: R/ y8 B4 B◎上映日期 2018-03-13(美国)7 ?! A' {1 x# J/ H' k: X8 {1 _

9 ^8 B3 i5 K4 Z/ Y7 {; u+ x! E2 J◎IMDb评分  5.6/10 from 5 users! w- [7 ^# s7 z( N% F; i' ?6 Z
( d+ f2 L3 m) r! A; P9 w, {) F
◎IMDb链接  http://www.imdb.com/title/tt5565634/
* Q1 G& v9 F( Z, |& R. J
4 Y% {) u+ d& E# A7 Q◎片  长 82分钟% J* G6 ~8 K! v1 H! c1 G

/ ]1 T* T9 `0 K/ ]9 \◎导  演 约翰·古拉格 John Gulager
* I* t, n2 g5 I9 e0 z4 V. h5 H6 R6 ~0 l0 I. t/ L
◎主  演 玛茜·米勒 Marci Miller
9 y0 j6 `2 N/ A- r6 ]* d  H" w0 v8 \5 k; j
      Molly Nikki Anderson
4 r" |$ E$ d$ E. n0 p
1 Y, V: `  e# P1 \      Blaine Maye4 a' i& b( l( l$ \9 ?5 V

& p9 S/ U& b* n      Lynn Andrews III2 b5 B9 B' v; R' e% W* s
1 U! }0 @2 g5 |- b8 h) G1 ]
      JR Hatchett) o, Q: e: S# |7 H- ^' W
8 [5 o$ S, C3 l  |) r; o( R
      Mary Kathryn Bryant3 Z( B! x& r0 a

/ Q6 Z! O: c2 q0 @  v      Jake Ryan Scott- ?- c, N5 N1 ~' J

, y4 s, n+ U) S' W. T      Sara Moore& u" `* l% H( N4 H5 V0 ^# B& p! a
3 Y8 q- }7 r  U+ e. U5 `  s
      Gavin Taylor4 m+ X& G9 C8 A2 E% {( k9 n0 Q& v% O

, ^0 s/ m8 U# w' E. N  l/ ^7 r8 \      Debbi Tucker
9 V) Y: K8 d: E% Q3 g/ t5 g
2 R3 W2 L! r  {& a# s. o$ j/ y      Glenda Taylor
: e, a9 m" V4 F
+ j. }% G" g: p4 \+ _  D: ?      Cacky Poarch, ^& G7 B, ~+ c% d' |. A
/ u: p7 d" X+ O) `, L) ^
      Tom Allen9 Q1 u- {1 u, Y/ Q! W4 d# _

: a% Q, D! z( r) C0 U: t, h      Tyler Corbin
) h% r# p3 B  ]
3 x8 m& I" E7 l2 }0 m5 `* c      Daria Balling# c  ?, }' @& w: h( _
/ W4 \: q5 L. f# W& W: ]/ ~
      William Sturgeon: ^  |' p4 ?6 G

* @" S/ }+ R" ?: g& N- Q  e$ ^9 S+ v" F/ V

9 u4 [. d* T" p- R9 x2 x◎简  介
( X9 h2 u  r+ H4 N# |' i" [
' \, a8 d  G' `* M2 H6 r- q' i9 e, y! j* d; V

4 |6 M/ ?5 V; C  The plot of Children of the Corn: Runaway follows a young pregnant Ruth who escapes a murderous child cult in a small Midwestern town. She spends the next decade living anonymously in an attempt to spare her son the horrors that she experienced as a child. She lands in the small Oklahoma town, but something is following her. Now, she must confront this evil or lose her child.
2 o! w& C& S2 S" l' R7 q
7 i8 e! H+ c, [- s& u  v, X+ U0 U" U2 l$ ?5 j$ w$ v' V

+ L7 V* }$ d+ t8 t8 P/ UVideo0 N  u) e2 B0 V2 y6 K, f) A& F
ID                                       : 10 a4 [. r- z( v& ~" `3 v" t5 J
Format                                   : AVC9 ^: |4 {5 V% T! b+ g5 {  g
Format/Info                              : Advanced Video Codec
4 m0 q* ~9 H) n- `$ w+ DFormat profile                           : High@L4+ f) {0 o% \: N' I2 e6 P  v
Format settings                          : CABAC / 5 Ref Frames$ Z/ a8 y) W# K+ R
Format settings, CABAC                   : Yes' q$ I' @; _+ c! L3 e$ c, ]
Format settings, ReFrames                : 5 frames: ~6 j  }1 }- d) n1 u& b
Codec ID                                 : V_MPEG4/ISO/AVC
* h6 _- G$ k  p5 s' p5 oDuration                                 : 1 h 22 min* r' K  L- S5 ]* J" ~1 W" X" ^
Bit rate                                 : 4 544 kb/s( I; g- C8 O4 R# W
Width                                    : 1 912 pixels
0 C+ G$ g1 ]% _* h& JHeight                                   : 808 pixels
2 w6 C9 L: q+ D3 Y, S5 IDisplay aspect ratio                     : 2.35:10 S- ^& e! O+ T- G' |
Frame rate mode                          : Constant
8 O. d# [' y0 |# G1 ~6 QFrame rate                               : 23.976 (24000/1001) FPS2 S8 M7 L8 q% O# p+ c6 U
Color space                              : YUV
9 Z7 E( y2 \4 c1 s* j7 s4 PChroma subsampling                       : 4:2:0% T$ a3 E# m" a6 V5 g* p8 R% Q7 c
Bit depth                                : 8 bits" Q( d: w) G1 k, O7 j* l; q
Scan type                                : Progressive" j5 W+ h; d) Q0 o& _
Bits/(Pixel*Frame)                       : 0.123+ r9 K/ |2 A& |  i8 Z8 ~
Stream size                              : 2.61 GiB (92%)
8 E! m+ b# g# O6 i" ]5 XTitle                                    : Children.of.the.Corn.Runaway.2018.1080p.WEB-DL.DD5.1.H.264-FGT
+ T6 E2 s7 Q0 k! r: {1 x, SLanguage                                 : English& t7 E/ v- v" M+ b5 w( q4 z8 V* ~
Default                                  : Yes
; D  h, N! T' Q3 S/ _4 JForced                                   : No; [  N& S. j- h6 [& f
Color range                              : Limited
1 c$ A% `. P" V8 C% q, _Color primaries                          : BT.709( O& C$ l/ U1 \2 O# T
Transfer characteristics                 : BT.7095 j; t* Y1 j$ J# m7 ]. u' v
Matrix coefficients                      : BT.7098 m6 E' a/ f9 B) |  d8 G' }% p. {

+ \* P7 d" ~8 P1 VAudio
8 H1 j9 X3 p; Q, |$ LID                                       : 2$ f. _% x  M" P' C5 p
Format                                   : AC-3, |: A: I1 d$ Q  i+ v9 A
Format/Info                              : Audio Coding 34 h) J* D) {4 i7 o! l; p
Codec ID                                 : A_AC3" z/ }8 I, M8 r  T1 Y* n
Duration                                 : 1 h 22 min
2 t+ x' X6 \7 Y1 z7 j0 @Bit rate mode                            : Constant$ v% x' L) n$ s1 L* j
Bit rate                                 : 384 kb/s
9 i( }, e7 E3 `0 e. x6 @Channel(s)                               : 6 channels* p8 [, |' r; B; V& R* c
Channel positions                        : Front: L C R, Side: L R, LFE
8 M4 w; r8 D3 r) Z! I" BSampling rate                            : 48.0 kHz
) ?5 ?* H9 F: f; g# N& XFrame rate                               : 31.250 FPS (1536 SPF)$ |( k( x8 D3 K- L" B4 G
Bit depth                                : 16 bits  c' @& n; b; r# U$ J6 y! I
Compression mode                         : Lossy: E3 m/ g$ y7 U& e- B* i8 ^- G
Stream size                              : 226 MiB (8%)
$ l4 [. M& n/ T5 P. N3 ^) lTitle                                    : Children.of.the.Corn.Runaway.2018.1080p.WEB-DL.DD5.1.H.264-FGT
# w; G$ w0 H& \7 i  \$ WLanguage                                 : English% v5 M, q8 x3 o2 B! E; F. P
Service kind                             : Complete Main6 o) O$ Z$ x! g8 c  U0 r
Default                                  : Yes
. v4 F/ u1 `1 y9 T6 @$ EForced                                   : No* L0 O9 b8 C" D8 c" R/ U8 e1 x

# ^) j0 W2 f! |: }( JText
, B7 }" q  l$ s8 C& p7 N( }5 hID                                       : 3
7 ?% E4 q) ^/ D7 y/ C, h) nFormat                                   : UTF-8
. V, s! A$ Q$ V& T5 \; kCodec ID                                 : S_TEXT/UTF8  C3 |+ i7 f# g/ O
Codec ID/Info                            : UTF-8 Plain Text
" n4 I2 l: X' b! {Duration                                 : 1 h 21 min: [3 ^$ ^; z3 X- a& {$ p. v) C
Bit rate                                 : 39 b/s
! ~' ?: L' b6 TCount of elements                        : 883
1 @' F5 ?4 k6 D9 k& J3 z7 Z9 YStream size                              : 23.7 KiB (0%)
4 N1 Q: l% B3 E! R2 \1 j- LLanguage                                 : English6 d% c/ g8 M$ }2 z  B6 D
Default                                  : No
8 v+ o1 `1 l6 K6 Z5 E8 }; I. {  ZForced                                   : No
/ }9 B' C  r1 m8 s
' h3 w6 l+ y9 z) Q. p2 ~0 o8 @Menu1 E# }4 L% m6 I( z5 U8 {/ r9 W
00:00:00.000                             : en:1, m' g+ ^. P& {5 n7 H! O5 ?' y2 @
00:11:57.000                             : en:2
3 [9 R/ q& T# [; |' R& T$ A00:25:54.000                             : en:3
& f3 T8 x' H7 \+ ~$ a/ f& a. G00:33:45.000                             : en:40 i1 q* Y7 }& R. K/ U5 W$ [5 z
00:46:17.000                             : en:5
: m0 y  T1 x5 M9 z00:59:11.000                             : en:64 b5 V8 J4 X- i* R3 f5 X  N$ d9 J7 h0 i+ x
01:08:29.000                             : en:7
5 M8 _2 v4 q+ J) F. Y, _  T01:19:26.000                             : en:8

1 t2 Q# d# c1 X! h: i/ R& s! Q/ u+ M/ t

7 x  I6 L8 N0 |

玉米地的小孩_大逃亡. MKV.torrent

57.18 KB, 下載次數: 363

尚未簽到

發表於 2018-3-14 10:01:36 來自手機 | 顯示全部樓層
這個我收藏了!謝謝分享!WK的資源越來越豐富,這少不了大大的辛勞!

尚未簽到

發表於 2018-3-15 00:15:05 | 顯示全部樓層
精妙絕倫的精品,感謝啊!期待你更多更好的創作哦!
累計簽到︰189 天
連續簽到︰1 天
發表於 2018-3-15 09:47:34 | 顯示全部樓層
感謝大大的辛勞分享!我會繼續在WK關注大大的文章!

尚未簽到

發表於 2018-3-16 08:37:41 | 顯示全部樓層
偶像^^小生一直都在關注你的原創!小生對你之仰慕如滔滔江水連綿不絕!

尚未簽到

發表於 2018-3-16 11:45:28 | 顯示全部樓層
絕對的好貼!謝謝啊!逐字逐圖地看完這個帖子以後,我的心久久不能平靜,感恩啊!

尚未簽到

發表於 2018-3-17 09:53:41 | 顯示全部樓層
精妙絕倫的精品,感謝啊!期待你更多更好的創作哦!

尚未簽到

發表於 2018-3-19 04:29:29 | 顯示全部樓層
很讚的文章,謝謝咯!相信WK因為有你而更加精彩!

尚未簽到

發表於 2018-3-20 17:25:30 來自手機 | 顯示全部樓層
偶像^^小生一直都在關注你的原創!小生對你之仰慕如滔滔江水連綿不絕!

回復樓主 親!! 下午好,中午養足了精神嗎?讓我們一起渡過下午茶時間,WK有您更精彩!

 分享同時學會感恩,一句感謝的話語,就是最大的支持!  歡迎交流討論
您需要登錄後才可以回帖 登錄 | 立即注册

本版積分規則

c重要聲明:本論壇是以即時上載言論的方式運作,WK論壇對所有言論的真實性、立場及版權等,不負任何法律責任。而一切言論只代表發佈者個人意見,並非本網站之立場,讀者及用戶務必自行判斷內容之真實性。 由於本論壇受到「即時上載言論」運作方式所規限,故不能完全監察所有言論,若讀者及用戶發現有內容出現「真實性、立場及版權」等問題,請聯絡我們:info@waikeung.net論壇有權刪除任何言論(刪除前或不會作事先警告及通知)| SiteMap[網站地圖]

發表新帖 返回頂部