WK綜合論壇, WK综合论坛

查看:19115 回復:21 發表於 2018-6-10 15:40:07
本主題由 212love 於 2018-6-10 22:18 刪除回復
累計簽到︰1386 天
連續簽到︰15 天
發表於 2018-6-7 21:33:11 | 顯示全部樓層 |閱讀模式

團鬼六:美教師地獄責罰 Beautiful Teacher in Torture Hell, [MKV/5.77GB] 日语中字 (限制級禁片) [複製鏈接]

影視分享
分類: 電影
題材: 恐怖 倫理 
地區: 日本 
語言: 中文字幕 日语 
格式: MKV 
年份: 更早
資源: BT资源
2.jpg
/ L) v5 b8 o7 I/ N: k/ `. J5 l+ z# l' j9 X% G
1.jpg * K! O# v5 N! ]' B+ M5 K. [

4 [- W! g# T8 A; C, W! e( Y※※※※※※※ 影片信息 ※※※※※※※( u+ ^5 {  ~5 B; C5 |8 N
◎片   名 団鬼六 美教師地獄責め
# v% D: W8 d- B# o0 p: B5 e◎译   名 团鬼六:美教师地狱责罚/Beautiful Teacher in Torture Hell0 D$ v: \" s$ i- I+ }
◎年   代 1985
) `, V; O5 a1 M) x3 y◎国   家 日本
$ J( A4 n$ a% k7 P& `& o5 y◎类   别 恐怖 / 情色
  I) C- F% p  C8 J8 g2 c◎语   言 日语8 x. S% U9 s  a
◎上映日 期 1985-12-14(日本)
7 v% k( i+ h+ w, p7 l/ s◎字   幕 简体字幕/繁体字幕2 W  s+ `2 G3 @# T1 }
◎IMDB 评分  5.6/10 from 235 users
) {0 n, ?  W. ?$ Q5 j$ d+ M( x◎豆瓣 评分  6.0/10 from 273 users* O+ Z, h. G) L" M: W
◎视频尺 寸  1920x960p
4 N3 O$ g3 r3 o# T  c  i◎片   长 1.07.20
  {$ `4 H2 K( [" }' {◎导   演 瀬川正仁
3 `+ A: O8 p; q5 l# w0 f2 [◎编   剧  佐伯俊道(脚本) / 団鬼六(原作); B& s$ l2 z) ?
◎主   演 真咲乱/志麻泉
) ^3 H- k8 Y1 [9 x4 s/ ?" L# z2 y2 _7 v2 w  I' Z

8 e2 F- O8 Z8 M. ?◎简  介
" L% V& {1 e# s9 ^6 T
1 v) i( m8 u3 t3 J- f  国语教师法子要到乡下的高中去上任了。在简陋的车站,冈岛冴子开车来迎接法子了。在车要进入山道的时候,若林、大木,佐川三个流氓突然窜出了上前骚扰。全日本剑道冠军的法子用车内的木刀将三人痛打一通。不久,学校理事长的女儿田野仓由纪,把法子叫出了实验室。法子进到一房间,突然被 人从身后偷袭,失去了意识。等她醒过来,发现自己竟然躺在了学校勤务员森田的房间里。数日之后,由纪给法子寄了个包裹。里面竟然是法子全裸着被五花大绑的难堪姿态的照片。与此同时,还收到镇上的流氓的恐吓。“想要底片,就到剑道场来!”法子底下什么也没穿,披着道服和三个流氓同时较量。尽管是剑道冠军,也是难以招架三人的攻击。股间的阴部和肛门不断受到袭击。而且,当时的画面被清楚的录了下来。当晚,由纪安慰法子,招呼法子到田野仓家吃晚饭。但是,理事长田野仓聪竟然说:“我看过你的录影带了哦。”想要逃走的法子,被三人组带到了地下室,又被全裸的花大绑。田野仓聪,田野仓由纪,流氓三人组,还有勤务工森田,女教师冴子,全都到齐了。他们原来是一伙的。法子被强迫喝了很多的水,然后被扔到了水槽里。在周围,那一伙人在疯狂的纵欲。法子无法忍受,于是在水槽中大声叫喊起来。茶黄色的污秽物把水弄的越发肮脏混浊。数日之后,法子被吊在了隧道里,地下水不断的直击股间。地下水和股间的爱液混在一起,变成白浊的液体往下滴。成为了田野仓家的性奴的法子被快感刺激着,身体在不停的震动。. [3 d6 k  O3 l6 R+ k& B

, q! i$ {3 v, H2 O3 v: b- a- t% @# m* @% }1 V: F
※※※※※※※ 参数信息 ※※※※※※※  H& r, L9 P& `* Z( V% [  v
% b  U/ b* o4 U% V: x- s; s
General
, E% o: K; A4 uUnique ID                      : 188935677417353816946930321344307780178 (0x8E23B0184187F7D5BBE5298DBCF5DA52)" X: U& ?- F. _, n. }- ^7 v7 @3 \
Format                         : Matroska
' b) ]! U( R/ ?9 I9 VFormat version                 : Version 4 / Version 2/ m& d& j# M4 x/ X/ F  j9 y1 \+ J- _& B! d
File size                      : 5.78 GiB
5 J) e" y! r- E8 N% V8 ^0 @Duration                       : 1 h 7 min
1 L0 j! M; a; ?1 d9 Y2 ]& u6 C  hOverall bit rate               : 12.3 Mb/s
; a- @# ?+ k6 u4 z2 F" EMovie name                     : kook+ H1 z" d& e+ H" ^; P# c2 T
Encoded date                   : UTC 2018-04-19 12:47:11
7 E% \0 A, a! }. Z( ]1 oWriting application            : mkvmerge v9.4.2 ('So High') 64bit
" p( `  z9 I" o$ K6 s0 ]. @Writing library                : libebml v1.3.4 + libmatroska v1.4.5( ~6 k4 y* _' W9 N5 q/ t
Attachments                    : 正式海报.jpg / fzlbfw.ttf / fzlbjw.ttf0 |8 y) W4 {0 s
Video/ L# l$ H( t- H5 q# s5 W
ID                             : 1
6 r+ c" L7 G+ c& k% BFormat                         : AVC
2 b2 c1 u9 P5 g$ z8 i% WFormat/Info                    : Advanced Video Codec
4 x$ c& [9 N1 tFormat profile                 : High@L4.1
2 Z6 D2 Q0 L% L# i2 d0 B  SFormat settings, CABAC         : Yes
, E5 `+ Q1 N* I4 CFormat settings, ReFrames      : 4 frames! v/ `5 x6 ]% d6 |. _
Codec ID                       : V_MPEG4/ISO/AVC
! Z+ r; @. f& d+ c1 m1 m; jDuration                       : 1 h 7 min% e9 V8 W. s/ }6 A, ]
Bit rate                       : 11.8 Mb/s
3 h. r% D$ R7 D8 X  E5 P- H0 }7 xWidth                          : 1 920 pixels" T9 L" g* ^3 [& [$ ?
Height                         : 960 pixels; @, r  H6 e  `! {# H
Display aspect ratio           : 2.000
# O3 @4 k7 e# j4 e$ s: ~Frame rate mode                : Constant; p, _* `* r9 z/ c
Frame rate                     : 23.976 (24000/1001) FPS+ t% U! n3 |7 C
Color space                    : YUV
$ {( x8 r, D. g* N1 T4 vChroma subsampling             : 4:2:0
' [( G! g/ O. ]$ G- Z  UBit depth                      : 8 bits- W4 c+ c  n7 P: T+ c/ g! X
Scan type                      : Progressive
: f; j. B& k. n2 VBits/(Pixel*Frame)             : 0.267
8 ~( {# u5 h- d* e% n& ]) sStream size                    : 5.56 GiB (96%)- j' _' y6 m+ o
Title                          : 环环@HDS
+ i* ~2 L8 e0 }% `7 o" H# i, |Writing library                : x264 core 148 r2699+6+41 29a38aa Yuuki [8-bit@4:2:0 X86_64][GCC 5.3.0]
, T  v: @6 J# h  C  t2 W, `Encoding settings              : cabac=1 / ref=4 / deblock=1:-3:-3 / analyse=0x3:0x113 / me=umh / subme=11 / psy=1 / fade_compensate=0.00 / psy_rd=1.00:0.05 / mixed_ref=1 / me_range=32 / chroma_me=1 / trellis=2 / 8x8dct=1 / cqm=0 / deadzone=21,11 / fast_pskip=0 / chroma_qp_offset=-2 / threads=24 / lookahead_threads=4 / sliced_threads=0 / nr=0 / decimate=1 / interlaced=0 / bluray_compat=0 / constrained_intra=0 / fgo=0 / bframes=8 / b_pyramid=2 / b_adapt=2 / b_bias=0 / direct=3 / weightb=1 / open_gop=0 / weightp=2 / keyint=250 / keyint_min=23 / scenecut=40 / intra_refresh=0 / rc_lookahead=40 / rc=crf / mbtree=0 / crf=17.9000 / qcomp=0.60 / qpmin=0:0:0 / qpmax=69:69:69 / qpstep=4 / vbv_maxrate=50000 / vbv_bufsize=40000 / crf_max=0.0 / nal_hrd=none / filler=0 / ip_ratio=1.40 / pb_ratio=1.30 / aq=3:0.90* w4 s$ G2 R+ V- Y3 w+ L
Default                        : Yes
2 A4 t( w' ]% x! A+ n- j" y# w. v4 {Forced                         : No
; F4 \5 Y( x$ aAudio9 |1 e. U1 E0 j8 M' b
ID                             : 2
- w7 u4 t; Q& M9 [" x: SFormat                         : AC-39 J+ A8 }* N9 v9 _' A
Format/Info                    : Audio Coding 3. ]; h! y! s1 [# Z' F4 h
Mode extension                 : CM (complete main)
- C3 ~) p" p; W7 r8 v2 fFormat settings, Endianness    : Big
6 s& t! i* h! [# zCodec ID                       : A_AC3& F4 u. [: \8 g* k
Duration                       : 1 h 7 min9 Q0 h  \+ }5 F! y: B
Bit rate mode                  : Constant4 Y  q8 u3 T8 y# ?5 [+ _
Bit rate                       : 448 kb/s
! ], e$ K+ O* e9 @2 d( jChannel(s)                     : 2 channels
, X% ?, X9 x5 W! a5 `' y; YChannel positions              : Front: L R1 G& C/ {1 a* S( b! x' e
Sampling rate                  : 48.0 kHz
8 X  S' O; i" g2 V0 y! z5 |  D3 sFrame rate                     : 31.250 FPS (1536 spf)
9 o- ?) k# _/ g7 A; nCompression mode               : Lossy' O% X7 Q+ v% B8 {% z
Stream size                    : 216 MiB (4%)$ G* Y5 V2 Y! A; c) W* H
Title                          : Japanese
7 a: [1 m. ?/ |+ R( u3 [Language                       : Japanese
* `/ {6 n6 i" S' V; P% L6 XDefault                        : Yes- Z2 R9 F  Y9 A4 o9 x
Forced                         : No
) y$ I" T: n0 KText #13 d+ g" i3 x, r4 M1 I& J) L
ID                             : 3! N( _% A& y7 s9 Y  T
Format                         : ASS
& T# D" K1 t/ [5 G/ ?Codec ID                       : S_TEXT/ASS
) q2 t3 ]! Y' s: U/ YCodec ID/Info                  : Advanced Sub Station Alpha
9 k6 _5 \' t: I$ O  Q- CDuration                       : 1 h 7 min! {% J1 I  R% G; c+ B/ n
Bit rate                       : 47 b/s
/ @; U$ k* g" @& @. e3 l0 tCount of elements              : 340
* `. C5 N( S, Z5 s2 K- ]; l0 RCompression mode               : Lossless
) X2 ], Q' A- K$ C( {Stream size                    : 23.5 KiB (0%)" ~/ u8 o) B1 j: I- @0 t7 C
Title                          : 简体字幕; Y: {4 Q& s, \0 Y& d  m% S- e/ m% k
Language                       : Chinese* K; j) Z, t4 P& b+ K8 e. S
Default                        : Yes
  U/ ~+ W6 n5 aForced                         : No
% x: T; g: ]7 j5 I: j& i5 c1 JText #2
" G( v- m# o3 FID                             : 4
  y  \* `8 J8 }3 ^Format                         : ASS
. F" s' C+ S1 M/ cCodec ID                       : S_TEXT/ASS
2 _: U, j( K2 G" `6 }& LCodec ID/Info                  : Advanced Sub Station Alpha+ T5 X* X" k' D: p1 o! r
Duration                       : 1 h 7 min. J) V0 S6 W# w9 @8 G- [* b. O
Bit rate                       : 47 b/s5 h" J* x3 R% A2 Z2 Y1 U7 U
Count of elements              : 340
6 N3 \: T( }( [: s9 |Compression mode               : Lossless
1 J3 A9 E# p/ C$ x  mStream size                    : 23.5 KiB (0%)9 x) i/ ]9 d4 g" j& s% }+ n6 `  F, p
Title                          : 繁体字幕
8 V3 I  F7 ?. N1 Y6 \) m* _6 ?/ kLanguage                       : Chinese
* X' r' [) r2 C* S1 xDefault                        : No& @. m- b; n$ Q" m# [  f5 i
Forced                         : No/ e9 X/ k, F) v0 a3 i1 c4 _  u  [( n
( G3 }; M+ B3 f2 C, d1 l
3.jpg
團鬼六:美教師地獄責罰 MKV.torrent (119.89 KB, 下載次數: 553)

尚未簽到

發表於 2018-6-7 21:34:10 來自手機 | 顯示全部樓層
這個我收藏了!謝謝分享!WK的資源越來越豐富,這少不了大大的辛勞!
累計簽到︰1 天
連續簽到︰1 天
發表於 2018-6-7 22:11:35 | 顯示全部樓層
Thank you for sharing.
累計簽到︰425 天
連續簽到︰7 天
發表於 2018-6-8 08:36:02 | 顯示全部樓層
谢谢楼主分享精彩影片。
累計簽到︰3 天
連續簽到︰3 天
發表於 2018-6-8 21:18:47 | 顯示全部樓層
絕對的好貼!謝謝啊!逐字逐圖地看完這個帖子以後,我的心久久不能平靜,感恩啊!

尚未簽到

發表於 2018-6-9 11:10:46 來自手機 | 顯示全部樓層
很讚的文章,謝謝咯!相信WK因為有你而更加精彩!

尚未簽到

發表於 2018-6-9 23:46:02 | 顯示全部樓層
感謝大大的無私分享! 太讚了!

尚未簽到

發表於 2018-6-10 10:15:45 | 顯示全部樓層
絕對的好貼!謝謝啊!逐字逐圖地看完這個帖子以後,我的心久久不能平靜,感恩啊!

尚未簽到

發表於 2018-6-10 12:55:20 | 顯示全部樓層
精妙絕倫的精品,感謝啊!期待你更多更好的創作哦!

尚未簽到

發表於 2018-6-10 15:40:07 | 顯示全部樓層
精妙絕倫的精品,感謝啊!期待你更多更好的創作哦!

回復樓主 親!! 早上好! 心底有WK、心情就會飛翔,心中要個希望、笑容就會清爽!

 分享同時學會感恩,一句感謝的話語,就是最大的支持!  歡迎交流討論
您需要登錄後才可以回帖 登錄 | 立即注册

本版積分規則

c重要聲明:本論壇是以即時上載言論的方式運作,WK論壇對所有言論的真實性、立場及版權等,不負任何法律責任。而一切言論只代表發佈者個人意見,並非本網站之立場,讀者及用戶務必自行判斷內容之真實性。 由於本論壇受到「即時上載言論」運作方式所規限,故不能完全監察所有言論,若讀者及用戶發現有內容出現「真實性、立場及版權」等問題,請聯絡我們:info@waikeung.net論壇有權刪除任何言論(刪除前或不會作事先警告及通知)| SiteMap[網站地圖]

發表新帖 返回頂部