WK綜合論壇, WK综合论坛

查看:19552 回復:21 發表於 2018-6-10 15:40:07
本主題由 jack 於 2018-8-22 05:03 刪除回復
累計簽到︰1472 天
連續簽到︰19 天
發表於 2018-6-7 21:33:11 | 顯示全部樓層 |閱讀模式

團鬼六:美教師地獄責罰 Beautiful Teacher in Torture Hell, [MKV/5.77GB] 日语中字 (限制級禁片) [複製鏈接]

影視分享
分類: 電影
題材: 恐怖 倫理 
地區: 日本 
語言: 中文字幕 日语 
格式: MKV 
年份: 更早
資源: BT资源
2.jpg
7 X) N, `( X9 @0 m& T, j' [/ [. k) q: Y1 b0 N  U
1.jpg
' T6 l3 j) \- I( I( h) C, u' x; R- U& r; ?, n& ^
※※※※※※※ 影片信息 ※※※※※※※
- \! o& R; A( r$ p- V◎片   名 団鬼六 美教師地獄責め
$ V8 g6 r5 u& m# c  ?) v, b) A9 y◎译   名 团鬼六:美教师地狱责罚/Beautiful Teacher in Torture Hell  `$ z' _" P8 `4 u4 p; L
◎年   代 1985+ L6 B8 F* Z/ @  E5 V; J
◎国   家 日本( p* @/ y) [/ T% G" E; h
◎类   别 恐怖 / 情色0 t4 t0 _- T# r
◎语   言 日语
  E- e- H9 N( G◎上映日 期 1985-12-14(日本)5 C. p& K/ v  C, N' \2 I
◎字   幕 简体字幕/繁体字幕- U- d% r5 m- V* f5 _( G- {6 ]& a7 {
◎IMDB 评分  5.6/10 from 235 users: w) J* J* U' ?/ W+ T" ^5 u/ }
◎豆瓣 评分  6.0/10 from 273 users
9 y0 v5 h, O% y6 C( U) C% x1 t◎视频尺 寸  1920x960p, Q" w& E+ e  s
◎片   长 1.07.20
2 M% ]1 Z1 x9 p  n" @$ ?! D* A! x◎导   演 瀬川正仁
! w% a7 R9 g, P/ _5 f7 Q◎编   剧  佐伯俊道(脚本) / 団鬼六(原作)
- e' w: E3 e5 ?# O1 X: f◎主   演 真咲乱/志麻泉
! p; B+ g% n) g3 S/ i( {. w9 f* W! K9 \: A* g) t! k5 p5 J2 o

/ C9 D+ k, W/ E6 f" t◎简  介
5 s, ]) E" x( v. \0 g0 Q% t( L; @* F4 e. Z
  国语教师法子要到乡下的高中去上任了。在简陋的车站,冈岛冴子开车来迎接法子了。在车要进入山道的时候,若林、大木,佐川三个流氓突然窜出了上前骚扰。全日本剑道冠军的法子用车内的木刀将三人痛打一通。不久,学校理事长的女儿田野仓由纪,把法子叫出了实验室。法子进到一房间,突然被 人从身后偷袭,失去了意识。等她醒过来,发现自己竟然躺在了学校勤务员森田的房间里。数日之后,由纪给法子寄了个包裹。里面竟然是法子全裸着被五花大绑的难堪姿态的照片。与此同时,还收到镇上的流氓的恐吓。“想要底片,就到剑道场来!”法子底下什么也没穿,披着道服和三个流氓同时较量。尽管是剑道冠军,也是难以招架三人的攻击。股间的阴部和肛门不断受到袭击。而且,当时的画面被清楚的录了下来。当晚,由纪安慰法子,招呼法子到田野仓家吃晚饭。但是,理事长田野仓聪竟然说:“我看过你的录影带了哦。”想要逃走的法子,被三人组带到了地下室,又被全裸的花大绑。田野仓聪,田野仓由纪,流氓三人组,还有勤务工森田,女教师冴子,全都到齐了。他们原来是一伙的。法子被强迫喝了很多的水,然后被扔到了水槽里。在周围,那一伙人在疯狂的纵欲。法子无法忍受,于是在水槽中大声叫喊起来。茶黄色的污秽物把水弄的越发肮脏混浊。数日之后,法子被吊在了隧道里,地下水不断的直击股间。地下水和股间的爱液混在一起,变成白浊的液体往下滴。成为了田野仓家的性奴的法子被快感刺激着,身体在不停的震动。2 w( x, b1 r# X9 h) O  Y& Q! @
. O& f9 x; K& C5 d: d1 p

. x6 u2 \- ^* y; q; ~※※※※※※※ 参数信息 ※※※※※※※
: e* l1 i: q6 I0 k( M( g& t! l' K( U: S$ u
General
, K  V0 J4 b/ I$ j1 y% _3 M- MUnique ID                      : 188935677417353816946930321344307780178 (0x8E23B0184187F7D5BBE5298DBCF5DA52)' i% A2 B, o! C! @/ [# U
Format                         : Matroska
0 F  J' Y9 X3 {! hFormat version                 : Version 4 / Version 2& R+ p7 s/ v" f6 t
File size                      : 5.78 GiB  S' S" f1 L7 R& B; `, [& v
Duration                       : 1 h 7 min& ^& U5 {+ {) {; l# X
Overall bit rate               : 12.3 Mb/s
. k8 I- O3 ^/ ~7 k' B$ F& }Movie name                     : kook
: g4 R; ^! O. N- c9 f: p) B; jEncoded date                   : UTC 2018-04-19 12:47:11; ?: k7 D: \+ P- z, r+ q
Writing application            : mkvmerge v9.4.2 ('So High') 64bit7 W0 y1 T  l2 u: O1 V. j
Writing library                : libebml v1.3.4 + libmatroska v1.4.5  z! ?  o  G9 ^/ N: n
Attachments                    : 正式海报.jpg / fzlbfw.ttf / fzlbjw.ttf/ ~( M) I3 B: K" X. O7 f/ g3 t/ [
Video
: k5 m4 u. _* f$ n3 A4 C, iID                             : 1
7 b" a$ o3 y$ z8 J5 ZFormat                         : AVC
6 F0 Q* P4 z% u# H; EFormat/Info                    : Advanced Video Codec
$ {" C! {! x1 b2 W: n! P# e/ O! ^& ~Format profile                 : High@L4.1) Z* k$ t' F$ T$ w
Format settings, CABAC         : Yes9 b: D9 c9 ]  I6 n
Format settings, ReFrames      : 4 frames
- T) t) {, _1 n! U- ?2 tCodec ID                       : V_MPEG4/ISO/AVC) e6 m! n9 e/ l. V  F1 x9 U& t
Duration                       : 1 h 7 min& s9 i4 o& P% E% E: Z
Bit rate                       : 11.8 Mb/s$ N8 m; O$ D' P+ h6 _: k
Width                          : 1 920 pixels
) m& [" H' t0 _; q( @' ]3 _3 s9 K8 \* CHeight                         : 960 pixels
6 j, Q7 {+ v: `1 ~9 g. }/ Q6 _+ V* ]! W5 UDisplay aspect ratio           : 2.000% ?  ^: @# L: H! O
Frame rate mode                : Constant
" S" @9 V7 W1 P% bFrame rate                     : 23.976 (24000/1001) FPS( ]: _; n5 }1 B2 Z+ g
Color space                    : YUV
. H5 [# L2 n9 s! PChroma subsampling             : 4:2:07 H' h0 f; {$ o8 B. @
Bit depth                      : 8 bits' [) T0 p  g9 s8 S2 C
Scan type                      : Progressive  v+ M+ r7 G( r! ?
Bits/(Pixel*Frame)             : 0.267
, y# s* b4 @( E# m2 n/ Z$ FStream size                    : 5.56 GiB (96%)5 J# O8 }3 w5 |$ \! e7 e* b
Title                          : 环环@HDS
" o: ^9 e9 B. f4 u: _$ D' YWriting library                : x264 core 148 r2699+6+41 29a38aa Yuuki [8-bit@4:2:0 X86_64][GCC 5.3.0]
0 S% o# w4 S3 `$ |5 F: l7 bEncoding settings              : cabac=1 / ref=4 / deblock=1:-3:-3 / analyse=0x3:0x113 / me=umh / subme=11 / psy=1 / fade_compensate=0.00 / psy_rd=1.00:0.05 / mixed_ref=1 / me_range=32 / chroma_me=1 / trellis=2 / 8x8dct=1 / cqm=0 / deadzone=21,11 / fast_pskip=0 / chroma_qp_offset=-2 / threads=24 / lookahead_threads=4 / sliced_threads=0 / nr=0 / decimate=1 / interlaced=0 / bluray_compat=0 / constrained_intra=0 / fgo=0 / bframes=8 / b_pyramid=2 / b_adapt=2 / b_bias=0 / direct=3 / weightb=1 / open_gop=0 / weightp=2 / keyint=250 / keyint_min=23 / scenecut=40 / intra_refresh=0 / rc_lookahead=40 / rc=crf / mbtree=0 / crf=17.9000 / qcomp=0.60 / qpmin=0:0:0 / qpmax=69:69:69 / qpstep=4 / vbv_maxrate=50000 / vbv_bufsize=40000 / crf_max=0.0 / nal_hrd=none / filler=0 / ip_ratio=1.40 / pb_ratio=1.30 / aq=3:0.902 _" j; q2 r% Z
Default                        : Yes
+ s) }7 l7 K+ U3 ?6 FForced                         : No  `$ d" A* M1 t6 w( h( e; s& `
Audio
9 {$ s% f5 W3 q: gID                             : 2
* j2 w1 [6 G9 yFormat                         : AC-3
( e; L2 k5 B2 L& lFormat/Info                    : Audio Coding 3  F" a0 ~" E) B7 O
Mode extension                 : CM (complete main)
  H" P* S4 T+ x7 c3 P, RFormat settings, Endianness    : Big% I" O# W6 |4 S$ i9 f
Codec ID                       : A_AC3
% v* l8 ?  j2 X, t0 Q4 k1 aDuration                       : 1 h 7 min
" k. t( X- Q/ `* K  uBit rate mode                  : Constant! G! r- s- Z1 ?( Z& Y6 u0 U
Bit rate                       : 448 kb/s7 y$ U4 o/ l( W
Channel(s)                     : 2 channels% c6 U: b' z' }
Channel positions              : Front: L R2 e( l4 R  [% x5 I) m0 u7 _) Y
Sampling rate                  : 48.0 kHz
" W4 c1 p& \8 Q% k) k4 jFrame rate                     : 31.250 FPS (1536 spf)
& e' m! J5 h0 Q% `; YCompression mode               : Lossy
4 a5 K4 ?, o+ v) ?% J; jStream size                    : 216 MiB (4%)
) R4 u, x; J% vTitle                          : Japanese
2 ]' _. S2 _/ C! W2 v* l. RLanguage                       : Japanese4 P. A: d( k  K6 o: W5 H" o
Default                        : Yes' w- ^2 |" K1 w. v" W) B
Forced                         : No
% e  H" z6 @; T0 DText #1. V8 p* f; m5 ?9 D
ID                             : 3' S$ F/ ~1 l& O& O- \
Format                         : ASS: u' }2 t* E; U% d9 ^
Codec ID                       : S_TEXT/ASS
2 e$ H7 v$ S3 YCodec ID/Info                  : Advanced Sub Station Alpha6 V, ?$ _3 `( B; Y
Duration                       : 1 h 7 min! s6 n( W- ?& y% N
Bit rate                       : 47 b/s
# _9 y% N7 S" G: `: C. bCount of elements              : 340! O3 S' A* X8 F0 O7 d! N
Compression mode               : Lossless
7 J# n8 Z8 g3 A9 @/ O2 _4 y, ^Stream size                    : 23.5 KiB (0%)
( \( W4 Q6 b: s6 Q5 XTitle                          : 简体字幕5 e3 ?( P. g) b+ O/ X3 ~
Language                       : Chinese+ X3 _) U' c! q
Default                        : Yes
4 y% [9 S. a. _: f6 c8 U1 dForced                         : No
3 a0 ^* Q5 m( b' ^: S$ |$ T& YText #2
) p2 b( X* ?- \2 b. [1 rID                             : 4
8 o4 U+ X6 b3 t- Z* H( B2 w- M. JFormat                         : ASS0 V! v) @8 V$ x( u- i; v
Codec ID                       : S_TEXT/ASS
9 I( X' ]+ x. m0 g& bCodec ID/Info                  : Advanced Sub Station Alpha6 M( w8 R& ]3 `+ h9 i+ F
Duration                       : 1 h 7 min8 V# s9 u% l  w
Bit rate                       : 47 b/s* ~; F# h+ D, h- m! a) N
Count of elements              : 340" D* T" @, z# u4 w
Compression mode               : Lossless4 l; t& W; O' M) w9 C' D$ j
Stream size                    : 23.5 KiB (0%)
8 Q# Z  t+ W2 g2 R1 N* P1 e( ^) dTitle                          : 繁体字幕
) {( ~- Q$ y( B( d! m- sLanguage                       : Chinese7 @5 \4 @8 L- Y8 Q* }
Default                        : No8 ~" i, _0 K! L( M( r" E7 G! ~
Forced                         : No% }$ S2 u. }7 e) _

& b) ?: l0 r/ _$ J7 i, b2 G 3.jpg
團鬼六:美教師地獄責罰 MKV.torrent (119.89 KB, 下載次數: 587)

尚未簽到

發表於 2018-6-7 21:34:10 來自手機 | 顯示全部樓層
這個我收藏了!謝謝分享!WK的資源越來越豐富,這少不了大大的辛勞!
累計簽到︰1 天
連續簽到︰1 天
發表於 2018-6-7 22:11:35 | 顯示全部樓層
Thank you for sharing.
累計簽到︰492 天
連續簽到︰1 天
發表於 2018-6-8 08:36:02 | 顯示全部樓層
谢谢楼主分享精彩影片。
累計簽到︰3 天
連續簽到︰3 天
發表於 2018-6-8 21:18:47 | 顯示全部樓層
絕對的好貼!謝謝啊!逐字逐圖地看完這個帖子以後,我的心久久不能平靜,感恩啊!

尚未簽到

發表於 2018-6-9 11:10:46 來自手機 | 顯示全部樓層
很讚的文章,謝謝咯!相信WK因為有你而更加精彩!

尚未簽到

發表於 2018-6-9 23:46:02 | 顯示全部樓層
感謝大大的無私分享! 太讚了!

尚未簽到

發表於 2018-6-10 10:15:45 | 顯示全部樓層
絕對的好貼!謝謝啊!逐字逐圖地看完這個帖子以後,我的心久久不能平靜,感恩啊!

尚未簽到

發表於 2018-6-10 12:55:20 | 顯示全部樓層
精妙絕倫的精品,感謝啊!期待你更多更好的創作哦!

尚未簽到

發表於 2018-6-10 15:40:07 | 顯示全部樓層
精妙絕倫的精品,感謝啊!期待你更多更好的創作哦!

回復樓主 親!! 早上好! 心底有WK、心情就會飛翔,心中要個希望、笑容就會清爽!

 分享同時學會感恩,一句感謝的話語,就是最大的支持!  歡迎交流討論
您需要登錄後才可以回帖 登錄 | 立即注册

本版積分規則

c重要聲明:本論壇是以即時上載言論的方式運作,WK論壇對所有言論的真實性、立場及版權等,不負任何法律責任。而一切言論只代表發佈者個人意見,並非本網站之立場,讀者及用戶務必自行判斷內容之真實性。 由於本論壇受到「即時上載言論」運作方式所規限,故不能完全監察所有言論,若讀者及用戶發現有內容出現「真實性、立場及版權」等問題,請聯絡我們:info@waikeung.net論壇有權刪除任何言論(刪除前或不會作事先警告及通知)| SiteMap[網站地圖]

發表新帖 返回頂部