WK綜合論壇, WK综合论坛

查看:19727 回復:21 發表於 2018-6-10 15:40:07
本主題由 jack 於 2018-8-22 05:03 刪除回復
累計簽到︰1542 天
連續簽到︰4 天
發表於 2018-6-7 21:33:11 | 顯示全部樓層 |閱讀模式

團鬼六:美教師地獄責罰 Beautiful Teacher in Torture Hell, [MKV/5.77GB] 日语中字 (限制級禁片) [複製鏈接]

影視分享
分類: 電影
題材: 恐怖 倫理 
地區: 日本 
語言: 中文字幕 日语 
格式: MKV 
年份: 更早
資源: BT资源
2.jpg
1 H) B0 B+ s" G7 M, {5 x* `
; o# T4 r% h# q5 h+ ?  b 1.jpg * Z) `/ F* D' [9 \4 i
) \, _  A" z2 a# r" l  s
※※※※※※※ 影片信息 ※※※※※※※
2 t' \$ m  T3 ]' f◎片   名 団鬼六 美教師地獄責め0 m4 F: G7 p) a. {' Y. ^  m
◎译   名 团鬼六:美教师地狱责罚/Beautiful Teacher in Torture Hell8 S+ F' {9 ~  s0 W2 _
◎年   代 19857 u% K: {  n& U/ o* j" d
◎国   家 日本8 s, p% Z, N* r4 Y2 v
◎类   别 恐怖 / 情色  ]$ w+ u( B/ V, D& V; z  t$ u8 @
◎语   言 日语% p4 w0 _6 c. i) M* K. q
◎上映日 期 1985-12-14(日本)& B6 ]7 f. y- b$ J7 k/ q
◎字   幕 简体字幕/繁体字幕7 f8 e, B1 V' y0 L
◎IMDB 评分  5.6/10 from 235 users* Y) ^7 P8 J' R# }* D5 ^% Q
◎豆瓣 评分  6.0/10 from 273 users
( z. ?( s4 B6 F◎视频尺 寸  1920x960p
3 @- r# J7 C& f- k( F8 S$ Q◎片   长 1.07.20
; `# A7 u* P3 K. p/ B2 H◎导   演 瀬川正仁/ F4 i5 E' u" m/ y6 v) v2 o
◎编   剧  佐伯俊道(脚本) / 団鬼六(原作)
$ z( n. p0 q1 k. Y6 W' h* |◎主   演 真咲乱/志麻泉
% G$ q; U: \& \' n1 l& C9 e: Y/ n% K# d- ?9 Y
- O' A7 ?# ]( S9 L8 b* q* t. b
◎简  介9 I$ i2 J+ n  A8 C' n

% s6 l2 T  @7 w6 Z" f7 g/ P; Z  国语教师法子要到乡下的高中去上任了。在简陋的车站,冈岛冴子开车来迎接法子了。在车要进入山道的时候,若林、大木,佐川三个流氓突然窜出了上前骚扰。全日本剑道冠军的法子用车内的木刀将三人痛打一通。不久,学校理事长的女儿田野仓由纪,把法子叫出了实验室。法子进到一房间,突然被 人从身后偷袭,失去了意识。等她醒过来,发现自己竟然躺在了学校勤务员森田的房间里。数日之后,由纪给法子寄了个包裹。里面竟然是法子全裸着被五花大绑的难堪姿态的照片。与此同时,还收到镇上的流氓的恐吓。“想要底片,就到剑道场来!”法子底下什么也没穿,披着道服和三个流氓同时较量。尽管是剑道冠军,也是难以招架三人的攻击。股间的阴部和肛门不断受到袭击。而且,当时的画面被清楚的录了下来。当晚,由纪安慰法子,招呼法子到田野仓家吃晚饭。但是,理事长田野仓聪竟然说:“我看过你的录影带了哦。”想要逃走的法子,被三人组带到了地下室,又被全裸的花大绑。田野仓聪,田野仓由纪,流氓三人组,还有勤务工森田,女教师冴子,全都到齐了。他们原来是一伙的。法子被强迫喝了很多的水,然后被扔到了水槽里。在周围,那一伙人在疯狂的纵欲。法子无法忍受,于是在水槽中大声叫喊起来。茶黄色的污秽物把水弄的越发肮脏混浊。数日之后,法子被吊在了隧道里,地下水不断的直击股间。地下水和股间的爱液混在一起,变成白浊的液体往下滴。成为了田野仓家的性奴的法子被快感刺激着,身体在不停的震动。2 Z& m3 O* z; I+ f
( X! L* [& U' d7 j" Q; p9 w
* h  D" G. ^4 r5 q
※※※※※※※ 参数信息 ※※※※※※※
1 {/ N1 q/ X: }, `5 f) A/ |7 U* {: g$ @% p  w- q
General
0 c8 o) g* @  `! N  b6 U, FUnique ID                      : 188935677417353816946930321344307780178 (0x8E23B0184187F7D5BBE5298DBCF5DA52)
6 {! S) \3 Q& QFormat                         : Matroska
$ U5 x/ j" k* H) N! j4 xFormat version                 : Version 4 / Version 2# |+ R/ W! P+ P
File size                      : 5.78 GiB, n% w$ G: \& z* \; C! F; X2 B+ p
Duration                       : 1 h 7 min! g. e( D, T  p* g. r
Overall bit rate               : 12.3 Mb/s
& k! O5 j1 t/ z3 OMovie name                     : kook
8 Y/ X/ w! o2 z  G1 n" BEncoded date                   : UTC 2018-04-19 12:47:11
: l# u4 e: K  I# ]" Z6 U- a/ Y/ lWriting application            : mkvmerge v9.4.2 ('So High') 64bit& a; A" H, o; R: T
Writing library                : libebml v1.3.4 + libmatroska v1.4.5
  s* m2 J2 g: X3 E6 s6 DAttachments                    : 正式海报.jpg / fzlbfw.ttf / fzlbjw.ttf
& c6 o& K  B+ A, {, ^5 v2 \Video
& s2 j$ Z1 H! A  f# \9 S0 oID                             : 1
* ]! V" c2 ~" [! @5 X  z% uFormat                         : AVC$ o7 j/ j% Y0 n- U4 ~
Format/Info                    : Advanced Video Codec
3 G  m; K+ X7 S1 z$ ?% |Format profile                 : High@L4.15 r: W) c8 x) x: ~) a: s( ^
Format settings, CABAC         : Yes/ r: C3 Z  w, k+ Z4 {
Format settings, ReFrames      : 4 frames
6 w! {. a& _) Q1 sCodec ID                       : V_MPEG4/ISO/AVC0 f  E% a3 s1 N5 m2 e
Duration                       : 1 h 7 min
. P1 |% Z, o( e: P* ZBit rate                       : 11.8 Mb/s, l3 k: g$ c5 W  Q8 e' i% j) ^/ e" a
Width                          : 1 920 pixels
& s1 f; Y) |- u+ OHeight                         : 960 pixels5 n6 K; X. x, n- r: S9 j. z- u( k$ E
Display aspect ratio           : 2.000
) E2 x3 z& K- h- q: XFrame rate mode                : Constant% d# J! K# E1 t7 v; A5 ]
Frame rate                     : 23.976 (24000/1001) FPS" z: @7 {3 n7 o/ x, Q' Z
Color space                    : YUV4 m! Q* f7 [4 X' _5 Z* R. O$ u$ Z0 T
Chroma subsampling             : 4:2:0
! `8 U# k3 B2 w7 ~Bit depth                      : 8 bits5 \' A  G: A' d4 ^
Scan type                      : Progressive
* s% `$ F& Q+ W8 j7 w2 l. KBits/(Pixel*Frame)             : 0.267
+ W# S+ L9 b4 C1 a$ X/ c$ Z: H2 TStream size                    : 5.56 GiB (96%)8 D0 }! a( }) |' N6 }. y0 t
Title                          : 环环@HDS
* {2 v' |6 P$ @: o, A9 h( g; OWriting library                : x264 core 148 r2699+6+41 29a38aa Yuuki [8-bit@4:2:0 X86_64][GCC 5.3.0]3 x' L$ e3 a! ^: [2 h: i1 Z
Encoding settings              : cabac=1 / ref=4 / deblock=1:-3:-3 / analyse=0x3:0x113 / me=umh / subme=11 / psy=1 / fade_compensate=0.00 / psy_rd=1.00:0.05 / mixed_ref=1 / me_range=32 / chroma_me=1 / trellis=2 / 8x8dct=1 / cqm=0 / deadzone=21,11 / fast_pskip=0 / chroma_qp_offset=-2 / threads=24 / lookahead_threads=4 / sliced_threads=0 / nr=0 / decimate=1 / interlaced=0 / bluray_compat=0 / constrained_intra=0 / fgo=0 / bframes=8 / b_pyramid=2 / b_adapt=2 / b_bias=0 / direct=3 / weightb=1 / open_gop=0 / weightp=2 / keyint=250 / keyint_min=23 / scenecut=40 / intra_refresh=0 / rc_lookahead=40 / rc=crf / mbtree=0 / crf=17.9000 / qcomp=0.60 / qpmin=0:0:0 / qpmax=69:69:69 / qpstep=4 / vbv_maxrate=50000 / vbv_bufsize=40000 / crf_max=0.0 / nal_hrd=none / filler=0 / ip_ratio=1.40 / pb_ratio=1.30 / aq=3:0.90# {5 H9 V% Z" f1 d- d
Default                        : Yes
4 r' j5 z* x5 b7 J$ }Forced                         : No
5 x) e' r/ s" g! ?Audio
: X* ]/ V# x+ k7 {ID                             : 2- F3 ]/ c& k9 f' b
Format                         : AC-3/ ~' p6 w6 x8 R& M) J
Format/Info                    : Audio Coding 3
0 _' h5 i" A" |; F9 S1 H. A) ZMode extension                 : CM (complete main)
- t3 E1 ?1 c. ~" m( X+ y2 z! O+ ?Format settings, Endianness    : Big
  x4 \5 p4 B0 C9 rCodec ID                       : A_AC3
7 N1 f, l1 [2 C, \4 {) NDuration                       : 1 h 7 min: |" f8 T* e6 Z3 m5 W" a
Bit rate mode                  : Constant6 _8 x: `" t( g' o8 W8 t1 R
Bit rate                       : 448 kb/s
) M; k$ O6 K" c7 f- p. TChannel(s)                     : 2 channels
, y$ e0 T' P! Z  wChannel positions              : Front: L R2 }: B8 m! O& }
Sampling rate                  : 48.0 kHz
9 U* p4 O2 C* m- ^Frame rate                     : 31.250 FPS (1536 spf)! f7 m/ ~- S9 [! I4 a7 F9 S
Compression mode               : Lossy2 I' x" x4 T) Z" {* t" N
Stream size                    : 216 MiB (4%)
' ^) ~3 O" o; j& FTitle                          : Japanese' r9 j, R; W) X4 I: a
Language                       : Japanese
! b$ _- }3 x7 _7 g% m9 rDefault                        : Yes( q3 ^* f4 S! x( C2 w" y2 J8 q* G
Forced                         : No
" L3 B2 T: \) X2 }7 AText #1! r! }0 _5 \+ a; T; t4 ?
ID                             : 30 Y& Q* g$ x, S  ?
Format                         : ASS
* ?* O. Z8 V4 q. {- \Codec ID                       : S_TEXT/ASS
7 v- m) O7 c1 @6 f% @, @$ h( V; H- uCodec ID/Info                  : Advanced Sub Station Alpha2 f3 m0 p" T( d" Z" y7 Y- r6 T
Duration                       : 1 h 7 min
& R' e0 B, K2 y3 c( F7 XBit rate                       : 47 b/s' L% F1 T: f& c7 ^( v
Count of elements              : 340
7 I& w: g% c2 f( u' HCompression mode               : Lossless5 T8 Z* F# H3 d  i+ v, z
Stream size                    : 23.5 KiB (0%)% r1 E- Y9 W0 t9 a; Q" K& l
Title                          : 简体字幕
+ @! R# P7 Q5 }' @9 eLanguage                       : Chinese& D2 T3 ?, c, ^; ?' ^/ C
Default                        : Yes
, w. p3 J) _; U( D4 N$ p. ?# _Forced                         : No) {0 w$ a) d2 T% N( x- X* B
Text #2
' z' }! m/ C1 x6 c0 N/ K7 I& hID                             : 4- u5 m! F5 W4 s
Format                         : ASS
* e$ k8 c7 R3 O$ e8 P+ xCodec ID                       : S_TEXT/ASS" ]6 B3 ~# r; ~( n1 c$ i" o% k- a0 t
Codec ID/Info                  : Advanced Sub Station Alpha4 a& Z  k6 ]% P# O. Z6 A1 v* j
Duration                       : 1 h 7 min
& K0 V7 A- @% rBit rate                       : 47 b/s
+ l1 s9 r  E0 k" zCount of elements              : 340
/ D  N2 p: t1 hCompression mode               : Lossless$ C4 M' v/ i2 Y1 Z4 O  S& D
Stream size                    : 23.5 KiB (0%)
- M* I9 e( ?8 f. qTitle                          : 繁体字幕
8 h" ~0 m8 I$ a7 rLanguage                       : Chinese
2 J; B8 }) W" |+ K) @; @Default                        : No# R* p' \4 o* h4 H  u' }
Forced                         : No! E$ W# h- i  ~1 ^* S& F) `* H5 T$ ?
' W; |  f! l' Q' j( K9 t
3.jpg
團鬼六:美教師地獄責罰 MKV.torrent (119.89 KB, 下載次數: 623)

尚未簽到

發表於 2018-6-7 21:34:10 來自手機 | 顯示全部樓層
這個我收藏了!謝謝分享!WK的資源越來越豐富,這少不了大大的辛勞!
累計簽到︰1 天
連續簽到︰1 天
發表於 2018-6-7 22:11:35 | 顯示全部樓層
Thank you for sharing.
累計簽到︰560 天
連續簽到︰3 天
發表於 2018-6-8 08:36:02 | 顯示全部樓層
谢谢楼主分享精彩影片。
累計簽到︰3 天
連續簽到︰3 天
發表於 2018-6-8 21:18:47 | 顯示全部樓層
絕對的好貼!謝謝啊!逐字逐圖地看完這個帖子以後,我的心久久不能平靜,感恩啊!

尚未簽到

發表於 2018-6-9 11:10:46 來自手機 | 顯示全部樓層
很讚的文章,謝謝咯!相信WK因為有你而更加精彩!

尚未簽到

發表於 2018-6-9 23:46:02 | 顯示全部樓層
感謝大大的無私分享! 太讚了!

尚未簽到

發表於 2018-6-10 10:15:45 | 顯示全部樓層
絕對的好貼!謝謝啊!逐字逐圖地看完這個帖子以後,我的心久久不能平靜,感恩啊!

尚未簽到

發表於 2018-6-10 12:55:20 | 顯示全部樓層
精妙絕倫的精品,感謝啊!期待你更多更好的創作哦!

尚未簽到

發表於 2018-6-10 15:40:07 | 顯示全部樓層
精妙絕倫的精品,感謝啊!期待你更多更好的創作哦!

回復樓主 親!! 下午好,中午養足了精神嗎?讓我們一起渡過下午茶時間,WK有您更精彩!

 分享同時學會感恩,一句感謝的話語,就是最大的支持!  歡迎交流討論
您需要登錄後才可以回帖 登錄 | 立即注册

本版積分規則

c重要聲明:本論壇是以即時上載言論的方式運作,WK論壇對所有言論的真實性、立場及版權等,不負任何法律責任。而一切言論只代表發佈者個人意見,並非本網站之立場,讀者及用戶務必自行判斷內容之真實性。 由於本論壇受到「即時上載言論」運作方式所規限,故不能完全監察所有言論,若讀者及用戶發現有內容出現「真實性、立場及版權」等問題,請聯絡我們:info@waikeung.net論壇有權刪除任何言論(刪除前或不會作事先警告及通知)| SiteMap[網站地圖]

發表新帖 返回頂部