WK綜合論壇, WK综合论坛

查看:22001 回復:22 發表於 2018-8-12 16:02:01
本主題由 212love 於 2018-8-12 10:35 解除高亮
累計簽到︰1498 天
連續簽到︰2 天
發表於 2018-8-10 10:59:31 | 顯示全部樓層 |閱讀模式

明日之屋 The.House.of.Tomorrow., 2018.[MKV / 8.1G] [複製鏈接]

影視分享
分類: 電影
題材: 劇情 
地區: 美國 
語言: 英语 
格式: MKV 
年份: 2018
資源: BT资源
1.jpg ) Y" R5 U' i6 E4 u
* K' d2 \, _$ }6 S
◎译  名 明日之屋
% ?" O3 M) x- u+ J, C0 \
7 z! ]2 o& l% }2 U5 X( P4 E/ n◎片  名 The House of Tomorrow6 x  f/ s+ t' a7 |! n, H
2 w1 A1 A2 _4 H% F
◎年  代 20178 ~+ \( k5 v( a# v" G$ G  A

2 x! L5 V8 g  Y2 n◎产  地 美国) z, X) W" s! x3 R" W5 w

% ]# U4 }& w: O2 R' A# f5 ]◎类  别 剧情
% w8 h, j) q5 @8 g3 C1 n
9 i$ p6 J+ k. V7 ^* G6 _7 P◎语  言 英语
# J% {# Z+ Y+ Y& R2 ~, @
% Z4 o+ i  S  _7 `% P◎上映日期 2017-04-08(旧金山电影节)/2018-04-27(美国部分上映)3 [7 ~# d5 H8 F$ t
4 w5 |! k. f; F6 ~  E
◎IMDb评分  6.3/10 from 216 users
0 Z6 q9 U0 x: O
# Q& r& u' a+ E9 v; t9 F◎IMDb链接  http://www.imdb.com/title/tt5910344/
% u" R) p, I+ ?4 h. a$ j6 x9 y$ j: p7 o* A5 ?
◎片  长 85分钟
0 v( k7 c( a7 L: C: A8 U1 H# O
- I8 ^/ F  S* k' q/ M2 c/ A◎导  演 Peter Livolsi5 b3 W" Q4 a! S2 d/ @) L
2 q3 ]9 q$ z0 ?4 U7 X' L* Q5 J
◎主  演 阿萨·巴特菲尔德 Asa Butterfield! c/ @6 T& x+ H( q. E$ s/ P

/ R" X. `; ?& y+ U" z      尼克·奥弗曼 Nick Offerman5 ], [- I4 p5 m( E, k
, Q: f: a: w' V4 a; \
      亚历克斯·沃尔夫 Alex Wolff( u8 ]1 Z; C3 E
; }# u, x+ Z( s+ b
      艾伦·伯斯汀 Ellen Burstyn
* N/ j" h4 R* h" R/ q+ S# _. ?% |6 e4 R" P7 d+ t# t+ G
      茉德·阿帕图 Maude Apatow1 K3 Q  I+ f) R- A9 }$ P

' w7 D: u- {2 `      麦可拉·沃金丝 Michaela Watkins$ H+ Y# ?! c& v! p' \0 \( e3 A

; F' \- ]& F- ~# y& ]% j      Alec George
* w1 t9 E% @  x* |- n. O6 _: W; K2 E* v2 o; q, w
      Valerie Rose' P4 G+ `3 i* B5 L) ~0 d+ A/ z

3 w, l" F* p8 ~+ Y7 t0 Y7 W      J. Vasko-Bezenek9 u! e4 `( u0 ?
; J( }5 {+ r0 j: {; e
      Paul Cram0 b! u( ?/ v. p4 {' J  D

0 h9 }+ `1 H% m3 T/ }, @! G; [* y- E      Karla Álvarez# O6 ?6 v' H! S, ], g# j

& v, b  S! z( ^; ~) n0 Y# U& @+ O0 L      Ryan J. Gilmer
3 ]  S3 C7 ?, g: Z. ~$ K6 g2 w+ K; P9 @# c/ F
      Dallas Hildie Smith5 W0 I8 L" r! u
' D0 k) z" l! E, u- H( z0 D6 z$ P
      Matt Lindholm
4 y  Y, C! g+ @
- c1 @, L6 |" r- G8 }, G  ^; I      Steven Segelstrom II- E# P) @; ]! ~  a9 s! D
& X( ]; w5 J) F0 C6 P# z

4 t, A+ C, e- h1 g  Q0 h" a# u- E* f0 z) j; {
◎简  介7 P: N$ `1 k' B
9 z5 C- |$ {  B& F
2 x- J: ]: D; g, U5 o

# V4 T. }! [9 l( n# }  The film tells futurist, architect, and inventor R. Buckminster Fuller's incredible story through two teens hoping to get laid, become punk gods, and survive high school.
0 a: f) b/ t3 @4 N& \
% ]8 f. x8 ~, L  x6 m0 |) N$ E8 f" `$ H3 m5 f3 ]5 a

0 G! J, U' `+ u+ U) |" m% q" b' P( q9 b) P, D5 d* Z
( i. f% G. c/ \" ^
Video5 A- t% ^* e9 ?7 T! y
ID : 1
, P/ r1 @; S' ~. S: m1 b3 E6 ~Format : AVC8 ]$ y5 a+ L$ f
Format/Info : Advanced Video Codec! M: M/ g$ k- y. i0 P* S) s* S  o
Format profile : High@L4.1) H/ X# p: B% h
Format settings : CABAC / 4 Ref Frames
$ E# l# J: |4 B) {Format settings, CABAC : Yes6 E8 n' x6 C9 x2 C  h" i" A$ T
Format settings, ReFrames : 4 frames
$ A. i, w! [- S; k' \: _Codec ID : V_MPEG4/ISO/AVC
* w4 o/ H2 o: eDuration : 1 h 25 min# z$ e" F! e) S/ G' a. p1 q
Bit rate : 10.7 Mb/s
* _$ j2 i! [/ ^# XWidth : 1 920 pixels( T( u/ K% I% ~4 e
Height : 1 036 pixels
* ]2 J2 w/ |+ s4 y$ yDisplay aspect ratio : 1.85:1
% {& b# P* T1 k+ U2 }- q4 m5 sFrame rate mode : Constant. R$ M6 i8 G$ ^3 U! O
Frame rate : 23.976 (24000/1001) FPS
' G3 v, [: J0 j7 jColor space : YUV: p4 P7 @" S. @
Chroma subsampling : 4:2:0
9 A( |$ w- g6 i5 Y  U$ sBit depth : 8 bits' F4 N$ Y: w/ R7 Z
Scan type : Progressive
: n2 i/ Y0 w/ w# H6 T3 ~5 w* YBits/(Pixel*Frame) : 0.225* q* r" a; S( |; @, m4 c
Stream size : 6.44 GiB (79%)# h3 L8 l9 e& ^5 B5 B" x, O
Writing library : x264 core 155 r2867+82 a249126 t_mod_Custom_2 [8-bit@all X86_64]7 F0 d, d  b( ]* V- E$ w" [
Encoding settings : cabac=1 / ref=4 / deblock=1:-3:-3 / analyse=0x3:0x113 / me=umh / subme=10 / psy=1 / fade_compensate=0.00 / psy_rd=1.00:0.05 / mixed_ref=1 / me_range=48 / chroma_me=1 / trellis=2 / 8x8dct=1 / cqm=0 / deadzone=21,11 / fast_pskip=0 / chroma_qp_offset=-2 / threads=12 / lookahead_threads=2 / sliced_threads=0 / nr=0 / decimate=1 / interlaced=0 / bluray_compat=0 / constrained_intra=0 / fgo=0 / bframes=8 / b_pyramid=2 / b_adapt=2 / b_bias=0 / direct=3 / weightb=1 / open_gop=0 / weightp=2 / keyint=250 / keyint_min=23 / scenecut=40 / intra_refresh=0 / rc_lookahead=40 / rc=crf / mbtree=0 / crf=18.0000 / qcomp=0.60 / qpmin=0:0:0 / qpmax=69:69:69 / qpstep=4 / vbv_maxrate=50000 / vbv_bufsize=45000 / crf_max=0.0 / nal_hrd=none / filler=0 / ip_ratio=1.40 / pb_ratio=1.30 / aq=3:0.90 / aq-sensitivity=10.00 / aq-factor=1.00:1.00:1.00 / aq2=0 / aq3=0  J/ N6 D6 M/ C. k5 q! r) K7 `
Language : English! w' M1 }7 X2 M+ K7 Z
Default : Yes. ?5 m7 d; N1 V4 r- R3 A8 z+ X
Forced : No( {5 T. i$ n  m/ _- H/ |6 H& k
Color range : Limited  p- d) d+ ^: I: y& T3 H4 D$ C
Matrix coefficients : BT.709% I) j1 S! S" m, O! K8 X# [

% g  ~# ~! c9 |* y* C  `/ n1 P; uAudio' ]8 }" M/ i, I' q
ID : 2
; c1 {/ m  g1 W& ]" _Format : DTS
0 T/ U) o) E/ W4 R2 bFormat/Info : Digital Theater Systems
3 p7 C2 w, C7 z& nFormat profile : MA / Core7 n5 f$ t, a$ v% y
Codec ID : A_DTS
2 z, s+ O9 k7 \% uDuration : 1 h 25 min" a' j! i+ u4 ]9 `% Y  N+ D9 `
Bit rate mode : Variable / Constant
4 V! M% Z) a0 ~& {( d9 ~Bit rate : 2 794 kb/s / 1 509 kb/s
1 h; `& l( E: L; @Channel(s) : 6 channels
2 t# B7 X2 R- M; U  O6 K7 u8 FChannel positions : Front: L C R, Side: L R, LFE
% S: [( @5 J/ A$ u% B  USampling rate : 48.0 kHz( g" D9 i0 L# q  {5 A: ?* p
Frame rate : 93.750 FPS (512 SPF)( o/ {# E& L3 A- X6 i. K2 @
Bit depth : 24 bits+ r+ ]4 A3 e" I5 b7 x3 |8 t
Compression mode : Lossless / Lossy
- M+ g9 @' W3 A- r* k( O# VStream size : 1.67 GiB (21%)7 F8 Z! g. h1 q( A% Z, r
Language : English
) [2 p, @2 ~: y+ c2 V* G# ODefault : Yes
1 j" ?/ }0 F  b8 D3 r4 l# z$ nForced : No; O7 Y! Z$ R9 f$ [. v! x: }9 ^

6 [4 X; c1 q6 X4 t* YMenu
7 {. k' i) \0 t1 l; V5 J00:00:00.000 : en:00:00:00.000' ]: R/ ~# d/ q  y3 C9 R
00:11:47.040 : en:00:11:47.040/ H: e# F+ |- E" V: @8 A
00:20:45.369 : en:00:20:45.369- P: s+ l# v& M" _- ?) V
00:25:45.002 : en:00:25:45.002( [7 G0 h, ~9 B+ ^+ w( K
00:32:16.059 : en:00:32:16.059
, k5 Y, S) K9 b0 ?00:38:07.619 : en:00:38:07.619$ x1 [  F+ G3 q
00:45:19.050 : en:00:45:19.0503 s( d" b' {0 ~: M
00:51:53.527 : en:00:51:53.527
! f* o- Z) w. j# g1 y2 b00:59:09.337 : en:00:59:09.337
# i6 X( R! E: ]01:06:34.449 : en:01:06:34.4495 `1 o& k, P4 ]0 ^0 {' J
01:12:47.530 : en:01:12:47.530( j- j; r# S3 O5 |" ^2 \
01:18:29.163 : en:01:18:29.163
! N$ @/ c0 N5 q& ^- U! T' M 明日之屋. MKV.torrent (81.67 KB, 下載次數: 802)

尚未簽到

發表於 2018-8-10 11:00:30 | 顯示全部樓層
感謝大大的辛勞分享!我會繼續在WK關注大大的文章!
累計簽到︰1189 天
連續簽到︰46 天
發表於 2018-8-10 11:04:50 | 顯示全部樓層
感謝大大的辛勞分享!我會繼續在WK關注大大的文章!

尚未簽到

發表於 2018-8-10 14:01:12 來自手機 | 顯示全部樓層
精妙絕倫的精品,感謝啊!期待你更多更好的創作哦!

尚未簽到

發表於 2018-8-10 16:58:52 來自手機 | 顯示全部樓層
很讚的文章,謝謝咯!相信WK因為有你而更加精彩!

尚未簽到

發表於 2018-8-10 19:59:44 來自手機 | 顯示全部樓層
精妙絕倫的精品,感謝啊!期待你更多更好的創作哦!

尚未簽到

發表於 2018-8-10 22:57:11 | 顯示全部樓層
絕對的好貼!謝謝啊!逐字逐圖地看完這個帖子以後,我的心久久不能平靜,感恩啊!
累計簽到︰928 天
連續簽到︰2 天
發表於 2018-8-10 23:59:30 | 顯示全部樓層
感謝大大的辛勞分享!我會繼續在WK關注大大的文章!

尚未簽到

發表於 2018-8-12 12:04:07 來自手機 | 顯示全部樓層
偶像^^小生一直都在關注你的原創!小生對你之仰慕如滔滔江水連綿不絕!

尚未簽到

發表於 2018-8-12 16:02:01 | 顯示全部樓層
絕對的好貼!謝謝啊!逐字逐圖地看完這個帖子以後,我的心久久不能平靜,感恩啊!

回復樓主 親!! 早上好! 心底有WK、心情就會飛翔,心中要個希望、笑容就會清爽!

 分享同時學會感恩,一句感謝的話語,就是最大的支持!  歡迎交流討論
您需要登錄後才可以回帖 登錄 | 立即注册

本版積分規則

c重要聲明:本論壇是以即時上載言論的方式運作,WK論壇對所有言論的真實性、立場及版權等,不負任何法律責任。而一切言論只代表發佈者個人意見,並非本網站之立場,讀者及用戶務必自行判斷內容之真實性。 由於本論壇受到「即時上載言論」運作方式所規限,故不能完全監察所有言論,若讀者及用戶發現有內容出現「真實性、立場及版權」等問題,請聯絡我們:info@waikeung.net論壇有權刪除任何言論(刪除前或不會作事先警告及通知)| SiteMap[網站地圖]

發表新帖 返回頂部