WK綜合論壇, WK综合论坛

查看:22067 回復:22 發表於 2018-8-12 16:02:01
本主題由 212love 於 2018-8-12 10:35 解除高亮
累計簽到︰1572 天
連續簽到︰1 天
發表於 2018-8-10 10:59:31 | 顯示全部樓層 |閱讀模式

明日之屋 The.House.of.Tomorrow., 2018.[MKV / 8.1G] [複製鏈接]

影視分享
分類: 電影
題材: 劇情 
地區: 美國 
語言: 英语 
格式: MKV 
年份: 2018
資源: BT资源
1.jpg . c1 G& `+ t6 ?
) ~4 s) {- U6 Z2 X. V  ?5 R7 S
◎译  名 明日之屋
; Y# p, W2 ^4 @: S; d0 t
/ X* H  F) S& X" |0 W- x◎片  名 The House of Tomorrow- Y! p2 V$ ]8 R- B8 ]

0 L8 h5 a  j5 V1 _- R◎年  代 2017
) h; X$ ^$ R1 p8 ~0 K
2 c7 t& R0 u8 C◎产  地 美国
9 J# g; b! B4 ]5 a: M- {4 ]
. K0 j6 Q, X0 T1 u◎类  别 剧情' A2 f  m& `* n! {$ z+ v. L

5 T' p6 D# _. n0 }. C◎语  言 英语. S) p: L# w5 ^1 l; Z

+ v/ u% D: F, r) `7 _' H◎上映日期 2017-04-08(旧金山电影节)/2018-04-27(美国部分上映)
  h( U5 Z  t, s7 m5 ~* p
8 ^% L" p3 `$ v4 ?2 N. c◎IMDb评分  6.3/10 from 216 users, j1 n4 S8 J$ ?7 A; d

  V" h0 a- b1 O! N) S" u7 W3 z◎IMDb链接  http://www.imdb.com/title/tt5910344/
% ^4 P! N# n/ x+ K4 @# Y+ b: W* X; V* t
◎片  长 85分钟: V" V9 h* `/ |7 s* X
- X% p9 @# }4 e, u/ F$ I2 O
◎导  演 Peter Livolsi
; P  u& s6 k2 m* T: f$ f
: k, J7 B+ W. f1 I) c8 C, y6 S◎主  演 阿萨·巴特菲尔德 Asa Butterfield$ ~& i. N1 K, _8 q! s; t, i) A
. q) h9 W4 |" N
      尼克·奥弗曼 Nick Offerman- B% r( P% G2 F/ r' b: d  p

# L+ G0 Q& T$ j- z) V. P; v      亚历克斯·沃尔夫 Alex Wolff
# x% {3 P% u: d! a% ~, _; `# }  M' L2 R5 X
      艾伦·伯斯汀 Ellen Burstyn9 \; ^9 @9 Z6 ^. l

$ h3 m" f2 u9 J5 I      茉德·阿帕图 Maude Apatow
- b& E/ L0 k- f/ m* `- y5 u) x# M$ _& P( R7 X. ~4 ?! {
      麦可拉·沃金丝 Michaela Watkins. j, Y4 l5 Z' ?4 G

  R' ~2 E; R( L2 p      Alec George
1 Z  R4 f! M" _' q$ z9 [/ e: c/ ^0 \# J7 J2 z  y3 R; h
      Valerie Rose
% b7 P/ ]% F6 _. W" P* n- c2 m3 A
. e8 e, [0 S) e+ K      J. Vasko-Bezenek
5 ~8 F7 d4 ?& S0 q8 B! ~) }$ l" G
+ X' W( R) d' _* ^      Paul Cram
0 K$ M& b1 J- C" w2 x
% i2 b- L2 I% a3 J! B5 Y      Karla Álvarez, o# Y* t3 o# G$ u. C+ X4 m

  S7 E) R  P4 J0 I- B5 p$ ~5 u      Ryan J. Gilmer& K5 Z! x; Y$ j# r$ j. J5 h- W
9 \' {. `: Y* t, s" L4 P
      Dallas Hildie Smith3 G. H& o1 j! ]

1 w! i( }) t) |) K5 }- O2 g      Matt Lindholm, R( c9 @' L/ K8 Z

! J- n& ?* C) ^( w+ g      Steven Segelstrom II
+ ~/ k% C, n/ g( E2 p* H1 H' S) C+ c
4 V8 h8 w/ h" u
- p. g8 D' P2 ]
9 D. r9 B1 y8 y  x3 c$ s◎简  介8 P$ D: `, U# |; h

6 @6 A* Q& W6 k5 b6 A. m0 W/ l% U: t; i! q. p  ~+ ~
0 [8 K: j7 h0 M! e
  The film tells futurist, architect, and inventor R. Buckminster Fuller's incredible story through two teens hoping to get laid, become punk gods, and survive high school.
! `+ J: N& I( V% Q% m
- W9 p. s& j$ M+ |$ s+ O) z: @! m8 r0 S% g+ o9 i9 [
( I2 t7 J& e9 c

+ @- I& m7 I7 `' ?$ y' y" ^6 P
9 k# p8 f4 S2 y& k- AVideo2 [! C# V- M4 {) c1 Y+ b6 N% ~
ID : 1
9 H, A* W4 x1 ~' U* O) oFormat : AVC; ]' D# l+ c- c. C6 k: N
Format/Info : Advanced Video Codec
! y( e* t* [* ~Format profile : High@L4.11 t4 U0 I8 U6 c7 Q
Format settings : CABAC / 4 Ref Frames
& D8 {( W, {# H: gFormat settings, CABAC : Yes
2 q; V, [' S7 W: j: `2 qFormat settings, ReFrames : 4 frames
, D& l, J% X* ?# j0 ~# p6 fCodec ID : V_MPEG4/ISO/AVC
1 [, S1 |& C% z3 kDuration : 1 h 25 min; p- T; t$ F5 m8 [, g% @. A
Bit rate : 10.7 Mb/s) a( r7 H4 @2 p( Z: l2 Y3 s5 k
Width : 1 920 pixels# ^" m% R. E0 Z9 f
Height : 1 036 pixels( `/ l6 B. S2 F; d9 S) A; F
Display aspect ratio : 1.85:1- T" X0 K9 F3 F3 h/ m, K
Frame rate mode : Constant
. K1 l; e/ Q- g# o! [" YFrame rate : 23.976 (24000/1001) FPS! h& b3 ^" O- v9 \5 F6 J
Color space : YUV9 t7 q# y/ L3 A4 b
Chroma subsampling : 4:2:0
( ]0 e  m, ^. Y" n" }" K$ KBit depth : 8 bits
# T# ?, y6 \% a4 L# _) T5 WScan type : Progressive; J- ]2 \9 k9 v  }5 Y$ C
Bits/(Pixel*Frame) : 0.2253 T' O1 T6 e4 w0 r: ^) J9 u
Stream size : 6.44 GiB (79%)
( K% J5 v: v/ T* \4 Q/ X% oWriting library : x264 core 155 r2867+82 a249126 t_mod_Custom_2 [8-bit@all X86_64], y4 `+ |7 q) H- o8 o
Encoding settings : cabac=1 / ref=4 / deblock=1:-3:-3 / analyse=0x3:0x113 / me=umh / subme=10 / psy=1 / fade_compensate=0.00 / psy_rd=1.00:0.05 / mixed_ref=1 / me_range=48 / chroma_me=1 / trellis=2 / 8x8dct=1 / cqm=0 / deadzone=21,11 / fast_pskip=0 / chroma_qp_offset=-2 / threads=12 / lookahead_threads=2 / sliced_threads=0 / nr=0 / decimate=1 / interlaced=0 / bluray_compat=0 / constrained_intra=0 / fgo=0 / bframes=8 / b_pyramid=2 / b_adapt=2 / b_bias=0 / direct=3 / weightb=1 / open_gop=0 / weightp=2 / keyint=250 / keyint_min=23 / scenecut=40 / intra_refresh=0 / rc_lookahead=40 / rc=crf / mbtree=0 / crf=18.0000 / qcomp=0.60 / qpmin=0:0:0 / qpmax=69:69:69 / qpstep=4 / vbv_maxrate=50000 / vbv_bufsize=45000 / crf_max=0.0 / nal_hrd=none / filler=0 / ip_ratio=1.40 / pb_ratio=1.30 / aq=3:0.90 / aq-sensitivity=10.00 / aq-factor=1.00:1.00:1.00 / aq2=0 / aq3=0/ i6 o8 w. o1 I) O( V# i& \
Language : English
* r7 t7 @# V; H1 L& A# DDefault : Yes
% _' V/ m. U* b* r+ d# `+ \+ g! f0 RForced : No
  R6 X3 u' N! O, s* O" e! P% vColor range : Limited* A4 y9 @( C$ J" G
Matrix coefficients : BT.709
8 D; ]1 u( V1 W6 A  V( z* u7 X7 t. Q* ]7 ^3 {* Y: ]  O$ ?8 r4 J
Audio; c9 w* Z& \9 i: K/ C
ID : 28 f# o( k; Q- N9 O9 K9 ]1 t
Format : DTS
: t* y5 W  |  v& G; w  W' H! KFormat/Info : Digital Theater Systems
8 C5 x, q2 O2 J" c2 Y% H8 HFormat profile : MA / Core. R0 C- q. I9 ^/ e; {
Codec ID : A_DTS: V. G9 O& o  D8 K$ S2 K5 x+ p
Duration : 1 h 25 min
5 ]' b8 J, Z3 t$ h% ABit rate mode : Variable / Constant
# m5 X' A( C$ k; U4 a& f6 aBit rate : 2 794 kb/s / 1 509 kb/s" @" E% U1 M" u" `' h
Channel(s) : 6 channels
9 i+ Z4 S3 d7 U3 X0 ^Channel positions : Front: L C R, Side: L R, LFE3 I' U* ?4 Q+ b$ r+ `. ~' E' u
Sampling rate : 48.0 kHz2 p5 k6 P/ e3 l2 d
Frame rate : 93.750 FPS (512 SPF)6 K; L# A& I) t) E* K# a
Bit depth : 24 bits
: S, O1 X1 u/ Q7 @( H" _$ @' h1 |Compression mode : Lossless / Lossy
( y2 \: F2 b( v  e# Z5 @+ `1 v6 G1 MStream size : 1.67 GiB (21%)" u. Y( a' k: \- D% J. b/ X
Language : English9 C- P; n6 |/ Y% t  f
Default : Yes
$ y/ [+ w% \4 qForced : No7 T% f3 o2 y( S/ I- X+ A

" y/ p9 y; i0 L) R' c/ Z" SMenu) ?/ |4 y% A& }" s
00:00:00.000 : en:00:00:00.000
6 W+ M* [6 h* a3 p: b  C00:11:47.040 : en:00:11:47.0407 N3 S( I* K, r, J$ W! H
00:20:45.369 : en:00:20:45.369
# f. [( ]' C3 P+ C4 g( \5 S$ J00:25:45.002 : en:00:25:45.002$ h. V5 R5 T. C& {. k3 _: g( s0 z
00:32:16.059 : en:00:32:16.0598 K2 H7 @1 G' U! j6 }
00:38:07.619 : en:00:38:07.619- c+ k+ [0 M) H$ |
00:45:19.050 : en:00:45:19.050$ |" b1 i$ o) m/ S) ^
00:51:53.527 : en:00:51:53.527
, T2 n# k% ^! g00:59:09.337 : en:00:59:09.337: b; x9 I0 o+ g7 A" f0 v( \2 C7 R1 A
01:06:34.449 : en:01:06:34.449
. K* U% v& J$ E$ g  o4 `01:12:47.530 : en:01:12:47.530, H- a) R) {% B; g, a$ D
01:18:29.163 : en:01:18:29.163
' }) d3 ?9 a- R4 T4 d7 N' u: F 明日之屋. MKV.torrent (81.67 KB, 下載次數: 802)

尚未簽到

發表於 2018-8-10 11:00:30 | 顯示全部樓層
感謝大大的辛勞分享!我會繼續在WK關注大大的文章!
累計簽到︰1263 天
連續簽到︰3 天
發表於 2018-8-10 11:04:50 | 顯示全部樓層
感謝大大的辛勞分享!我會繼續在WK關注大大的文章!

尚未簽到

發表於 2018-8-10 14:01:12 來自手機 | 顯示全部樓層
精妙絕倫的精品,感謝啊!期待你更多更好的創作哦!

尚未簽到

發表於 2018-8-10 16:58:52 來自手機 | 顯示全部樓層
很讚的文章,謝謝咯!相信WK因為有你而更加精彩!

尚未簽到

發表於 2018-8-10 19:59:44 來自手機 | 顯示全部樓層
精妙絕倫的精品,感謝啊!期待你更多更好的創作哦!

尚未簽到

發表於 2018-8-10 22:57:11 | 顯示全部樓層
絕對的好貼!謝謝啊!逐字逐圖地看完這個帖子以後,我的心久久不能平靜,感恩啊!
累計簽到︰979 天
連續簽到︰23 天
發表於 2018-8-10 23:59:30 | 顯示全部樓層
感謝大大的辛勞分享!我會繼續在WK關注大大的文章!

尚未簽到

發表於 2018-8-12 12:04:07 來自手機 | 顯示全部樓層
偶像^^小生一直都在關注你的原創!小生對你之仰慕如滔滔江水連綿不絕!

尚未簽到

發表於 2018-8-12 16:02:01 | 顯示全部樓層
絕對的好貼!謝謝啊!逐字逐圖地看完這個帖子以後,我的心久久不能平靜,感恩啊!

回復樓主 親!! 現在是後半夜!妳失眠啦?餓啦?通宵加班?還是想WK啦?

 分享同時學會感恩,一句感謝的話語,就是最大的支持!  歡迎交流討論
您需要登錄後才可以回帖 登錄 | 立即注册

本版積分規則

VIP精品区

c重要聲明:本論壇是以即時上載言論的方式運作,WK論壇對所有言論的真實性、立場及版權等,不負任何法律責任。而一切言論只代表發佈者個人意見,並非本網站之立場,讀者及用戶務必自行判斷內容之真實性。 由於本論壇受到「即時上載言論」運作方式所規限,故不能完全監察所有言論,若讀者及用戶發現有內容出現「真實性、立場及版權」等問題,請聯絡我們:info@waikeung.net論壇有權刪除任何言論(刪除前或不會作事先警告及通知)| SiteMap[網站地圖]

發表新帖 返回頂部