WK綜合論壇, WK综合论坛

查看:21946 回復:22 發表於 2018-8-12 16:02:01
本主題由 212love 於 2018-8-12 10:35 解除高亮
累計簽到︰1441 天
連續簽到︰38 天
發表於 2018-8-10 10:59:31 | 顯示全部樓層 |閱讀模式

明日之屋 The.House.of.Tomorrow., 2018.[MKV / 8.1G] [複製鏈接]

影視分享
分類: 電影
題材: 劇情 
地區: 美國 
語言: 英语 
格式: MKV 
年份: 2018
資源: BT资源
1.jpg
+ _" L6 z! }6 q5 m, J
0 v# [8 y# {2 N8 r- U. ~$ r3 ^◎译  名 明日之屋: j' D$ D' I. @- v4 v% D+ }

- U8 \1 Y' n2 ]- V0 g  @◎片  名 The House of Tomorrow
2 E; ?1 a  Q+ S1 |- J9 x. g$ }# i: ]9 z* Q) s+ [& Z/ [
◎年  代 2017
7 Q$ o; W+ k9 R) D7 T# n- `. f) V  o
9 `3 [5 ~% a  w3 e: ~5 Y◎产  地 美国
9 K* `# Q. o& l- F$ a8 Y8 L
% l1 I3 m8 b# P3 I! v$ @4 ~◎类  别 剧情
1 l$ B6 p+ f2 h; J4 C/ Y
, i/ X- M. I! j◎语  言 英语. ?2 u* r+ h# h: ?& P
3 }$ Y; d5 d8 q, C) D: A0 T! n# o
◎上映日期 2017-04-08(旧金山电影节)/2018-04-27(美国部分上映)
* ^7 ^# J6 e3 B, ?+ S9 j7 d0 I3 n: C* ]& z1 l# `/ s
◎IMDb评分  6.3/10 from 216 users: h$ T. Y3 H& |! R0 p! j

! `5 n: @) |( w( V% R◎IMDb链接  http://www.imdb.com/title/tt5910344/2 z4 r* w! x( v% X, j6 g

8 m) o6 m: \( l0 m: Q. ~◎片  长 85分钟% l, M  `$ B0 k

) N& s9 C; i: \" s◎导  演 Peter Livolsi! g$ ]1 g8 N1 U1 l

9 v# p8 q4 K) o◎主  演 阿萨·巴特菲尔德 Asa Butterfield
) o9 a) W! ^. n% j! c2 g* j( j' T. O3 {) A2 k1 x, W
      尼克·奥弗曼 Nick Offerman, t9 L$ b1 A  _2 W0 ~

0 D- y6 k# b- y/ N: \8 B, p; I      亚历克斯·沃尔夫 Alex Wolff
( o* ]( ?! Z) E
8 x- Y  C4 ]! O; T      艾伦·伯斯汀 Ellen Burstyn4 L8 h* }$ x+ M; S5 O7 B

8 I8 o2 z9 E$ _4 _, b0 i$ B# m      茉德·阿帕图 Maude Apatow
1 i# J+ [- `+ {8 w1 B# F4 G) O: `$ C, I9 o
      麦可拉·沃金丝 Michaela Watkins: a8 w0 W8 l$ N# l; j3 Y' y5 [4 O

6 I6 E; w* h$ z% h5 S( @! O      Alec George' ~* D/ b! J! ^, M
  K+ V5 N9 L$ ]5 M" e
      Valerie Rose
" t% O3 V- T9 q7 P/ @
0 {" Z3 Y+ ?" Y) y3 O$ g, F      J. Vasko-Bezenek
& H- E$ I0 o, w/ P6 z
' G$ P* |% n8 r$ z" J      Paul Cram, `$ q$ q! p- n& P

# d8 T# B8 u5 h- @! o7 X4 o      Karla Álvarez! c8 }8 E5 ]- E2 L% S8 ^. D8 _" o

4 W, R$ s- j2 F) o      Ryan J. Gilmer6 Q+ m# q5 P8 Y3 S+ _8 c5 Q$ K. c
1 a, l. k& h+ n$ c+ p
      Dallas Hildie Smith) j6 y5 {! }  T  l4 L2 v( T
: ]/ M) u! p# f1 n
      Matt Lindholm- B; A( C( l( t7 y

% Z* j3 ^, d* P+ e( a4 Q) D      Steven Segelstrom II4 f: n7 N+ l8 R% K; ?7 I2 @" U1 M

- m( v& q; ~5 G! s/ a  r" t2 ^& k; I4 k
+ ~/ j; L& ~) k& U% l
◎简  介6 P  S: t4 j/ ^! v
! G; `) l4 e9 v6 Z# g3 U3 q
$ M  N: J# e/ D4 ?; V' T" ]8 f! |
9 ~7 ?2 b( L7 F! ^
  The film tells futurist, architect, and inventor R. Buckminster Fuller's incredible story through two teens hoping to get laid, become punk gods, and survive high school.3 ?- b5 A5 V- y# Y; G; b' f
3 |. z  V! r0 l0 @9 x. s
6 \* R1 H; K* ~+ C& y+ Z

. \, n& w* y7 w! z! h% i
% ]# E' \0 {  ~7 S4 O( Y3 K) @7 O) F) j
Video$ x" \6 \+ Q  K0 e
ID : 1
: h+ W, |) S  U' _- gFormat : AVC; r: k# A9 w" E7 I
Format/Info : Advanced Video Codec
9 }/ y& O! E! A7 oFormat profile : High@L4.1
& r5 K2 Q! ~% x+ x6 V2 Z0 @$ _Format settings : CABAC / 4 Ref Frames# \- a/ `" g- v4 P$ `
Format settings, CABAC : Yes
1 R9 b6 f* l; b* t5 YFormat settings, ReFrames : 4 frames- U6 Y/ w; P$ v
Codec ID : V_MPEG4/ISO/AVC* z3 l: Z* g/ n! r3 ~; F
Duration : 1 h 25 min! c; s7 d) @& s: P% X
Bit rate : 10.7 Mb/s
" p& j7 E- Q1 x: v) G1 lWidth : 1 920 pixels- A& s" v  V( W0 P/ E
Height : 1 036 pixels
& `0 m# ]) m3 ?) q- IDisplay aspect ratio : 1.85:1" L% S) T& ^' ^
Frame rate mode : Constant" ~2 @9 Q$ a7 g
Frame rate : 23.976 (24000/1001) FPS4 Q1 X2 Q# \2 c$ R/ _9 h  y- X
Color space : YUV
* B. |" t& k- F( G9 U5 GChroma subsampling : 4:2:0
  i& x" z# u$ gBit depth : 8 bits
$ G+ a! q9 n6 \4 G% Z8 _  aScan type : Progressive
6 C$ z9 N( a* A8 y! f* eBits/(Pixel*Frame) : 0.225( o# I) d+ X7 v  u  f- a3 f6 O
Stream size : 6.44 GiB (79%)8 m9 D8 _5 O+ w
Writing library : x264 core 155 r2867+82 a249126 t_mod_Custom_2 [8-bit@all X86_64]
$ U( H9 g* T6 O& O. t# u+ q1 O" AEncoding settings : cabac=1 / ref=4 / deblock=1:-3:-3 / analyse=0x3:0x113 / me=umh / subme=10 / psy=1 / fade_compensate=0.00 / psy_rd=1.00:0.05 / mixed_ref=1 / me_range=48 / chroma_me=1 / trellis=2 / 8x8dct=1 / cqm=0 / deadzone=21,11 / fast_pskip=0 / chroma_qp_offset=-2 / threads=12 / lookahead_threads=2 / sliced_threads=0 / nr=0 / decimate=1 / interlaced=0 / bluray_compat=0 / constrained_intra=0 / fgo=0 / bframes=8 / b_pyramid=2 / b_adapt=2 / b_bias=0 / direct=3 / weightb=1 / open_gop=0 / weightp=2 / keyint=250 / keyint_min=23 / scenecut=40 / intra_refresh=0 / rc_lookahead=40 / rc=crf / mbtree=0 / crf=18.0000 / qcomp=0.60 / qpmin=0:0:0 / qpmax=69:69:69 / qpstep=4 / vbv_maxrate=50000 / vbv_bufsize=45000 / crf_max=0.0 / nal_hrd=none / filler=0 / ip_ratio=1.40 / pb_ratio=1.30 / aq=3:0.90 / aq-sensitivity=10.00 / aq-factor=1.00:1.00:1.00 / aq2=0 / aq3=0
5 k6 n* w) p. N( V9 x9 s6 ?Language : English$ n5 F1 D5 H9 \+ {. c& `& d
Default : Yes. P; @0 F, w8 h5 l* B% J, A/ Y- J
Forced : No  E5 P8 B& v% t0 }9 T% @
Color range : Limited6 l7 M* n5 P, H/ R" ?4 w
Matrix coefficients : BT.709
; f- V; a9 }; e& m+ t6 J3 |# `( R  G( f( n7 z5 k  U. V4 G
Audio  _5 S8 U' G/ P! T2 T5 Q
ID : 2
- Q( r  t$ N8 k$ q; xFormat : DTS8 n' P# \+ r1 p
Format/Info : Digital Theater Systems3 K) @2 e  O" T1 h) M4 H+ Z
Format profile : MA / Core  M/ K3 k9 V; W; ~  i
Codec ID : A_DTS
! c/ v+ h  Z* B/ oDuration : 1 h 25 min/ I5 U4 W0 [6 w* H
Bit rate mode : Variable / Constant! z4 Z0 Q1 ~+ _! `/ p! U  L
Bit rate : 2 794 kb/s / 1 509 kb/s7 T3 I9 ^6 O: l' N( M
Channel(s) : 6 channels/ ]5 S) j# q7 d8 I( N
Channel positions : Front: L C R, Side: L R, LFE
4 J, [% v2 _/ S; O) {5 ]Sampling rate : 48.0 kHz; F+ k, K3 G1 Y5 \7 m5 i1 D' Q( g
Frame rate : 93.750 FPS (512 SPF)5 p0 l/ }( M2 a/ N' e  h+ y: t
Bit depth : 24 bits9 ~' a+ A1 ]9 Q3 }& m8 H2 k: c
Compression mode : Lossless / Lossy
6 s" i/ L0 [# T; p0 r. [Stream size : 1.67 GiB (21%)
5 f( J5 P: D+ lLanguage : English9 S, s+ t7 f# ]3 S
Default : Yes! D5 q  v7 o' o1 [
Forced : No
! Z: ]' B" y+ f- i, _
9 Z9 X: X( r( o9 U  DMenu! F1 ~% ]. ]3 A1 L( `
00:00:00.000 : en:00:00:00.000* X4 |+ Z8 K; b1 |
00:11:47.040 : en:00:11:47.040) d7 B! x1 S# W1 b: j
00:20:45.369 : en:00:20:45.369- w- J; J8 z& R  t3 P- l. E, R
00:25:45.002 : en:00:25:45.002
* v. X, p3 Y  T* `: h. A8 R( f00:32:16.059 : en:00:32:16.059) W+ U& w$ E+ Z0 q
00:38:07.619 : en:00:38:07.619
3 [. i9 J) ^7 `  ?% M00:45:19.050 : en:00:45:19.050
# O/ m" [/ [% `; J1 T00:51:53.527 : en:00:51:53.527
: @0 i  ]/ W9 h. f4 a* {6 H00:59:09.337 : en:00:59:09.3375 D0 _0 n4 V# ^% Q. s9 U5 k
01:06:34.449 : en:01:06:34.449
# g1 X( J6 E' v. f' p( I) t01:12:47.530 : en:01:12:47.5301 e2 Q- I( c' C. p
01:18:29.163 : en:01:18:29.163
# P7 m+ n4 G/ @3 ^1 r  } 明日之屋. MKV.torrent (81.67 KB, 下載次數: 802)

尚未簽到

發表於 2018-8-10 11:00:30 | 顯示全部樓層
感謝大大的辛勞分享!我會繼續在WK關注大大的文章!
累計簽到︰1124 天
連續簽到︰480 天
發表於 2018-8-10 11:04:50 | 顯示全部樓層
感謝大大的辛勞分享!我會繼續在WK關注大大的文章!

尚未簽到

發表於 2018-8-10 14:01:12 來自手機 | 顯示全部樓層
精妙絕倫的精品,感謝啊!期待你更多更好的創作哦!

尚未簽到

發表於 2018-8-10 16:58:52 來自手機 | 顯示全部樓層
很讚的文章,謝謝咯!相信WK因為有你而更加精彩!

尚未簽到

發表於 2018-8-10 19:59:44 來自手機 | 顯示全部樓層
精妙絕倫的精品,感謝啊!期待你更多更好的創作哦!

尚未簽到

發表於 2018-8-10 22:57:11 | 顯示全部樓層
絕對的好貼!謝謝啊!逐字逐圖地看完這個帖子以後,我的心久久不能平靜,感恩啊!
累計簽到︰897 天
連續簽到︰2 天
發表於 2018-8-10 23:59:30 | 顯示全部樓層
感謝大大的辛勞分享!我會繼續在WK關注大大的文章!

尚未簽到

發表於 2018-8-12 12:04:07 來自手機 | 顯示全部樓層
偶像^^小生一直都在關注你的原創!小生對你之仰慕如滔滔江水連綿不絕!

尚未簽到

發表於 2018-8-12 16:02:01 | 顯示全部樓層
絕對的好貼!謝謝啊!逐字逐圖地看完這個帖子以後,我的心久久不能平靜,感恩啊!

回復樓主 親!! 現在是淩晨!妳失眠啦?餓啦?通宵加班?還是想WK啦?

 分享同時學會感恩,一句感謝的話語,就是最大的支持!  歡迎交流討論
您需要登錄後才可以回帖 登錄 | 立即注册

本版積分規則

c重要聲明:本論壇是以即時上載言論的方式運作,WK論壇對所有言論的真實性、立場及版權等,不負任何法律責任。而一切言論只代表發佈者個人意見,並非本網站之立場,讀者及用戶務必自行判斷內容之真實性。 由於本論壇受到「即時上載言論」運作方式所規限,故不能完全監察所有言論,若讀者及用戶發現有內容出現「真實性、立場及版權」等問題,請聯絡我們:info@waikeung.net論壇有權刪除任何言論(刪除前或不會作事先警告及通知)| SiteMap[網站地圖]

發表新帖 返回頂部