WK綜合論壇, WK综合论坛

查看:20715 回復:22 發表於 2018-8-13 11:29:49
本主題由 212love 於 2018-8-12 10:35 解除高亮
累計簽到︰1572 天
連續簽到︰1 天
發表於 2018-8-10 11:23:04 | 顯示全部樓層 |閱讀模式

煉獄信使 A.Prayer.Before.Dawn., 2017.[MKV / 8.4G] [複製鏈接]

影視分享
分類: 電影
題材: 劇情 
地區: 英國 法國 
語言: 英语 其他 
格式: MKV 
年份: 2017
資源: BT资源
1.jpg * m) i. o9 C! q
8 r7 I6 P7 H7 A) K" l
8 _; P# A% o, j! q# t! A% \) n
  Q' ~. A  ]3 p4 J
◎译  名 炼狱信使& L4 k6 k  Y) k5 u; K
$ ?0 {) H2 n8 R9 V2 c! b! G7 p
◎片  名 A Prayer Before Dawn% W/ D6 R, Z/ Z' q

" i2 A8 U* w2 m: \7 B2 X# J◎年  代 20178 M3 ~4 o+ p3 U% B- S4 x. y

) p6 u9 w9 L0 r◎产  地 英国/法国; t4 s" b; [" F
& k7 |0 L. C  z
◎类  别 剧情
% j5 b- K; [" J+ S# `& I
0 A7 a! A! L- ^/ t8 D. [◎语  言 英语/泰语7 z8 w) w3 @9 o  }1 H3 v
# M; d0 u; T$ S2 ?+ W
◎上映日期 2017-05-19(戛纳电影节)
, q; |8 \* p$ x  k  o+ C; y) I" V4 G/ U/ I
◎IMDb评分  7.0/10 from 3,920 users- _! U: \6 K( S) }4 u0 ]

, M' l& Z- X; P  v/ Q" k' V( b' P◎IMDb链接  http://www.imdb.com/title/tt4080956/
3 X7 h1 b* N* J3 n4 z* m
. B: W6 D/ f2 t4 V" u◎片  长 120分钟6 h1 B% n' e/ n; X% y" D) [. {7 L

$ F) W/ z/ B2 @; S# f◎导  演 Jean-Stéphane Sauvaire
9 l* M$ m6 M2 k: M% }
9 d; a/ S" o% a; Y◎主  演 乔·科尔 Joe Cole( K5 x7 Y& U2 j- D4 G5 L- r
6 G6 C1 S& o3 \  G2 Y! A
      维他亚·潘斯林加姆 Vithaya Pansringarm* Z5 s) M! R4 q5 g
: X% ^; `3 U, S, y* q/ D
      Panya Yimmumphai
6 Q- f- S8 @  e, H& c& x; u( y; u9 d# {3 Z  |( ?0 v2 f; J
      Nicolas Shake& B! W5 n- ~5 t! p  B" X, j& x) X
" k7 r$ q4 c7 a0 X
      Pornchanok Mabklang$ P$ w* Z8 O3 A- O" Z+ b

3 W! T% y% j9 E' P) \      Billy Moore
  y. w8 v9 ?9 I( }9 V5 w+ r' W" u9 ~. N2 D! U; j
      Somlock Kamsing
3 ~+ q4 q! J* k5 Y  f* l0 T+ V5 \! h
/ f( M& D% T( z% A8 {      Sura Sirmalai& }0 F2 P8 P( s; A5 S* j: C

% I) v/ `* C6 H# ^' ~# a      Sakda Niamhom- J* k( T0 M6 M/ ]* t
/ z4 [# ]- Y; I/ z3 `! V/ P
      Komsan Polsan
% H8 `+ `' H3 f+ p8 m; ^2 |% Z" E# `' l

& P) X# R: B4 b. d8 E8 Q" J' f
1 Q6 |4 a2 K9 `  \2 T( h◎简  介  i+ z" R6 D8 V

2 Y" Y0 [) ~8 c/ j+ A  d! [3 n" G( }2 d$ M) Z7 I) D" ^- U

$ i- J+ Y# g+ y, L' P" D7 S  在全球最严酷且恶名昭彰、被称为“曼谷希尔顿”的曼谷市郊孔普雷监狱,有十条法则:如果你不遵守,你非常有可能会死;如果你遵守,那你一定会死——这是比利·摩尔亲身经历的真实故事。但是,比尔拒绝妥协不甘枉死狱中,他开始置之死地而后生地学习泰拳,在此过程中找寻兄弟般的友谊,走上令人难以置信的救赎之路。# R! Y% _7 Q; U2 f

6 n" L. s2 r: }" a1 V0 h" ?( `
' J' c; C" B& c7 k' ?$ L3 l4 @) \0 a( ?' A0 J/ z# L1 D1 o6 W
Video
; b# h5 J5 _: }1 w( bID : 1
4 ?$ a& Y0 P8 g! ~; |/ A+ u$ ZFormat : AVC- ?. w8 K/ m: @4 |4 q
Format/Info : Advanced Video Codec
- c% X' {/ J/ Z9 t( Q( r0 A8 kFormat profile : High@L4
/ C: B6 r+ k' u% |4 xFormat settings : CABAC / 4 Ref Frames
; k) j9 j0 B2 O& O! YFormat settings, CABAC : Yes* ]. f4 u6 ]& n$ m6 i0 k+ d
Format settings, ReFrames : 4 frames0 A8 l4 [" q- q$ q* @
Codec ID : V_MPEG4/ISO/AVC
/ Z4 `* R" X/ ADuration : 1 h 57 min9 s: U/ _* r9 e: j
Bit rate : 9 633 kb/s7 D2 Y& d0 H% k0 V" i* H
Width : 1 920 pixels9 U7 G4 z- P- z8 x% u
Height : 800 pixels7 e$ y# t& t# V& g
Display aspect ratio : 2.40:1% ^' |6 V+ E- _! B: T' r4 {4 ?# @
Frame rate mode : Constant
- k+ w1 C( R2 F( e# N6 m; w- Q7 sFrame rate : 23.976 (24000/1001) FPS
0 r7 D8 ]% E, I! Q; i" Q1 Z% n3 ~- d+ uColor space : YUV
$ C- s9 C5 N4 N' t" |) n8 }* nChroma subsampling : 4:2:0- B0 m' h$ F$ s- J
Bit depth : 8 bits. O( [/ M; c" _% {
Scan type : Progressive
" X1 v5 W: i% GBits/(Pixel*Frame) : 0.262! \* K9 k2 s- \* w
Stream size : 7.88 GiB (94%)
! o" T6 ^  H+ ?5 o5 f; O0 SDefault : Yes) k( `7 c7 i% R/ Z2 b* f) W( @
Forced : No7 |" d) ]9 @9 g
Color range : Limited
. `* _% t! @8 v1 F2 w9 }Color primaries : BT.709
8 S# X/ ?: [! N' O( Y  G. jTransfer characteristics : BT.7094 O% I& @. G  p0 p1 C
Matrix coefficients : BT.709
$ g" D# d3 X, D0 J4 g3 x/ _4 ?3 A* A, I2 a7 E2 M  K
Audio9 S4 u5 e, p# B, Z
ID : 2
. m- K0 P0 x2 ~4 |% i6 GFormat : E-AC-3# c/ R$ U# N" J+ a) O& Q3 ?
Format/Info : Enhanced Audio Coding 35 X" @2 f9 V) d% H5 j% k) ~" Q# B/ x
Codec ID : A_EAC3' S- i; e1 z% m. P7 h1 x
Duration : 1 h 57 min
2 @0 z- ]1 j! r- A$ O# P" n* YBit rate mode : Constant
' G! ]: k+ z* ]Bit rate : 640 kb/s/ j2 u! y- P: ~6 w; U4 {  t
Channel(s) : 6 channels6 j" h3 C. k, ^4 p$ F! [
Channel positions : Front: L C R, Side: L R, LFE" C* W# i4 U  x* Q! ~2 j* f' n/ T8 ]
Sampling rate : 48.0 kHz
- g' p! _) z4 D$ N/ G8 aFrame rate : 187.500 FPS (256 SPF)
3 w' L, h( M; d+ eCompression mode : Lossy
" ^" K' z1 v1 ^5 I6 R8 jStream size : 536 MiB (6%)
5 Z, [" Z) ^6 }Language : English
' W* J5 P, t/ e8 c6 I% \' pService kind : Complete Main
9 ~8 A' ?+ f! j6 uDefault : Yes  h3 @) \9 `" o" D0 c# Z
Forced : No2 H9 t+ N/ b! F

6 Y! l" a; ~5 v) z/ Z* KText- k& m4 E4 H) J/ ~: b& g# X
ID : 3
& a. E  L4 g) C. n: _Format : UTF-8
9 O2 [' e; S) c, A" \4 s. i: y3 VCodec ID : S_TEXT/UTF8
: |% |& [& d" Z$ R1 {Codec ID/Info : UTF-8 Plain Text# P# ?: j8 V! N& T. J
Duration : 1 h 50 min
; K( z; q* d$ }6 m/ n- ~( SBit rate : 14 b/s- N$ L$ r9 i7 h$ h& M# T: @+ w7 V
Count of elements : 564  h, R* r$ c0 U, d& ~9 v
Stream size : 11.8 KiB (0%)
8 }) J; g( R5 v" MTitle : SDH
1 u0 f; C, }9 X; z5 u, o0 J6 aLanguage : English3 |! l2 g# N) r& v
Default : No
& V5 l9 g" i0 {! z' Y- FForced : No
6 N* q! ~% c8 a6 V8 x
( }. d. S* h  s
5 B: |3 H. E) ]1 z' Q! `- E

煉獄信使. MKV.torrent

84.62 KB, 下載次數: 837

尚未簽到

發表於 2018-8-10 11:24:03 | 顯示全部樓層
絕對的好貼!謝謝啊!逐字逐圖地看完這個帖子以後,我的心久久不能平靜,感恩啊!
累計簽到︰1263 天
連續簽到︰3 天
發表於 2018-8-10 11:28:48 | 顯示全部樓層
感謝大大的辛勞分享!我會繼續在WK關注大大的文章!

尚未簽到

發表於 2018-8-10 14:23:31 | 顯示全部樓層
絕對的好貼!謝謝啊!逐字逐圖地看完這個帖子以後,我的心久久不能平靜,感恩啊!

尚未簽到

發表於 2018-8-10 17:21:19 | 顯示全部樓層
精妙絕倫的精品,感謝啊!期待你更多更好的創作哦!

尚未簽到

發表於 2018-8-10 20:22:01 來自手機 | 顯示全部樓層
感謝大大的辛勞分享!我會繼續在WK關注大大的文章!

尚未簽到

發表於 2018-8-10 23:19:39 | 顯示全部樓層
絕對的好貼!謝謝啊!逐字逐圖地看完這個帖子以後,我的心久久不能平靜,感恩啊!

尚未簽到

發表於 2018-8-12 11:34:11 | 顯示全部樓層
這個我收藏了!謝謝分享!WK的資源越來越豐富,這少不了大大的辛勞!

尚未簽到

發表於 2018-8-12 15:34:30 來自手機 | 顯示全部樓層
感謝大大的辛勞分享!我會繼續在WK關注大大的文章!

尚未簽到

發表於 2018-8-13 11:29:49 | 顯示全部樓層
很讚的文章,謝謝咯!相信WK因為有你而更加精彩!

回復樓主 親!! 現在是後半夜!妳失眠啦?餓啦?通宵加班?還是想WK啦?

 分享同時學會感恩,一句感謝的話語,就是最大的支持!  歡迎交流討論
您需要登錄後才可以回帖 登錄 | 立即注册

本版積分規則

c重要聲明:本論壇是以即時上載言論的方式運作,WK論壇對所有言論的真實性、立場及版權等,不負任何法律責任。而一切言論只代表發佈者個人意見,並非本網站之立場,讀者及用戶務必自行判斷內容之真實性。 由於本論壇受到「即時上載言論」運作方式所規限,故不能完全監察所有言論,若讀者及用戶發現有內容出現「真實性、立場及版權」等問題,請聯絡我們:info@waikeung.net論壇有權刪除任何言論(刪除前或不會作事先警告及通知)| SiteMap[網站地圖]

發表新帖 返回頂部