WK綜合論壇, WK综合论坛

查看:20632 回復:22 發表於 2018-8-13 11:29:49
本主題由 212love 於 2018-8-12 10:35 解除高亮
累計簽到︰1498 天
連續簽到︰2 天
發表於 2018-8-10 11:23:04 | 顯示全部樓層 |閱讀模式

煉獄信使 A.Prayer.Before.Dawn., 2017.[MKV / 8.4G] [複製鏈接]

影視分享
分類: 電影
題材: 劇情 
地區: 英國 法國 
語言: 英语 其他 
格式: MKV 
年份: 2017
資源: BT资源
1.jpg 1 V0 H# E7 J4 S3 m! z  N7 |
% {) L9 n: V$ h1 ?

- [' A  P: ]8 x% Y) y
% }# `7 @6 H- R# v3 H2 Q◎译  名 炼狱信使  W( |7 B7 Q" y3 [8 w& L

+ R6 _0 S: c  b. N: B◎片  名 A Prayer Before Dawn
) g" M' P/ C. L; m+ R" g; D0 C0 X5 i2 }) H  n7 D
◎年  代 2017
4 n) Y- A# q* |  A" N# B" m; L- K3 D- d5 P* o- ^
◎产  地 英国/法国
' F: y/ A3 p3 ]" r+ D8 s$ u, j8 Q* J7 L* W: I; o# G( S
◎类  别 剧情
; l2 K# u5 I0 X* t
: U2 m. f6 a& P' K2 C! I% F4 ^◎语  言 英语/泰语* i( P- l0 g, H; ?# |  ?
% F* `. j, y& W; z( u
◎上映日期 2017-05-19(戛纳电影节)) _, C! ]5 v) t: U
1 [/ @5 F1 Q. H# @  a& w# }2 M
◎IMDb评分  7.0/10 from 3,920 users
; ^) r& u# P' U) o+ V
* u0 ~+ f+ u' v# w. D. @2 e1 H. C◎IMDb链接  http://www.imdb.com/title/tt4080956/
+ V" R/ w; R3 _2 s/ m6 I# P! o, V2 \9 X  L0 p/ X
◎片  长 120分钟
+ u" P/ G- Z9 J) I; }; Q% @; T  {6 h4 U- G5 l' Z
◎导  演 Jean-Stéphane Sauvaire6 H" e9 y& S) Q
* l, k2 O- z! q( d
◎主  演 乔·科尔 Joe Cole0 e! e: `4 F5 Z2 ]8 L9 l; c  e, A

" U  M1 [. d7 q# W5 B# a      维他亚·潘斯林加姆 Vithaya Pansringarm
+ Y2 u" W' x8 H8 G8 x" n# z  Y
      Panya Yimmumphai- q: e4 \9 e8 m1 Z& O
% ~3 ?9 C0 v/ x5 ^/ @/ C7 Z
      Nicolas Shake1 v* P7 h( R6 v

6 N4 w0 j2 B* P5 U8 ~2 a  H+ [$ F      Pornchanok Mabklang
- T# n% h. w! e' u1 y
+ `' I5 l8 I: x' Y8 v! z3 U, k9 w      Billy Moore) Z( v2 _3 [/ w

* r; f9 w* w1 D% m- O' a% s& J0 J      Somlock Kamsing
" X/ b% f* }4 ^# ~5 }( {! ]0 Z: I, O6 p5 J* ^; P7 I  }6 [! l& @
      Sura Sirmalai
: P  j# V3 |1 C& m/ ^! x! u( w1 h, M. @* {% w7 K
      Sakda Niamhom
: [9 P$ b3 G$ c" @4 _$ g% t. |, e; @% t: J0 J
      Komsan Polsan1 b% p+ f! O& P$ w+ }1 b

8 T4 ]1 s1 V7 D# F  L! @  G- p- U* |9 q
" [: m. V& H2 A
◎简  介
3 l5 g2 P3 o, p
+ h. \. p/ A4 m0 T: I9 p3 U, M, W( [* @

9 [3 s1 k1 a8 H% p/ ]3 d5 r  在全球最严酷且恶名昭彰、被称为“曼谷希尔顿”的曼谷市郊孔普雷监狱,有十条法则:如果你不遵守,你非常有可能会死;如果你遵守,那你一定会死——这是比利·摩尔亲身经历的真实故事。但是,比尔拒绝妥协不甘枉死狱中,他开始置之死地而后生地学习泰拳,在此过程中找寻兄弟般的友谊,走上令人难以置信的救赎之路。) k4 f; R) l) ]- c" u) S

' i& D! N, V/ h) M
  ~3 t9 X  ^% W2 D' S  |5 P
0 r. `$ ]; U9 x0 Y# ~3 [$ TVideo- f9 I# n$ Q' n( ^& l* @  S
ID : 1# ~' q2 N3 Z& v0 ]/ G2 _
Format : AVC
) y* _: N4 O. x$ f5 b: S' F8 ?Format/Info : Advanced Video Codec
' [$ p, u, O: ]$ q: Y9 @Format profile : High@L45 P0 o6 _; C/ z1 j5 T) ?! w
Format settings : CABAC / 4 Ref Frames! V) {$ ^  O7 u. Z$ i( y
Format settings, CABAC : Yes2 y. k# {$ k9 a# w0 I0 E& F8 S
Format settings, ReFrames : 4 frames
$ v* W' w5 e; W5 ~3 Y7 ACodec ID : V_MPEG4/ISO/AVC
9 f. M1 X, K7 a. R7 Q( x! xDuration : 1 h 57 min! `, o9 V* S. V5 }
Bit rate : 9 633 kb/s
8 R" ^; W: I8 a, V( vWidth : 1 920 pixels/ N+ [( i! W) L0 p$ i
Height : 800 pixels
' t. W8 c8 k# {; VDisplay aspect ratio : 2.40:1
+ N9 ?6 n* d2 J; L: iFrame rate mode : Constant2 F  H% ?+ r: b2 ~
Frame rate : 23.976 (24000/1001) FPS
; c* K) y* h: r$ jColor space : YUV
7 j1 E& s; ?( Q' ^- b9 g: V( HChroma subsampling : 4:2:0& Z1 B" ?' I% F- m6 {
Bit depth : 8 bits
9 C5 R; I( N" y. n7 ?$ oScan type : Progressive
* n7 L; S! h- h/ a  g0 u! BBits/(Pixel*Frame) : 0.262- S7 b6 g5 k' G
Stream size : 7.88 GiB (94%)# ^6 l7 Y4 d) ^
Default : Yes# d, }/ b* Q8 t( Z
Forced : No
& ?, }, a# O; ~; vColor range : Limited4 {$ y  Y! z& z! u. |+ w
Color primaries : BT.709
. U" t7 H. H  |  qTransfer characteristics : BT.709
9 V% j/ q7 S' q( ?9 k- G# s2 hMatrix coefficients : BT.709
5 u+ f, ?" Z, S( S% h, `, h
+ N, _( Q( Y* m2 X* H- G( |Audio
' t$ S: J) R8 @4 W/ h3 z8 T# TID : 24 b% g4 a+ W$ E6 Y
Format : E-AC-3
. P, _# \; s' U: H- OFormat/Info : Enhanced Audio Coding 3/ f3 J8 f6 @% W8 H
Codec ID : A_EAC3% ^1 P( N* r6 n" t# ]0 H& a
Duration : 1 h 57 min0 z% ~# u5 r& [2 g
Bit rate mode : Constant- t$ f% h2 g1 c' N  p
Bit rate : 640 kb/s! p' k# Q3 r0 }5 ~4 U; {3 ^
Channel(s) : 6 channels
  u( e& }* r# UChannel positions : Front: L C R, Side: L R, LFE
) a9 w( Y& B* |" xSampling rate : 48.0 kHz
) z' i3 _" d. j4 SFrame rate : 187.500 FPS (256 SPF)
; W  A, `$ j; z3 m& nCompression mode : Lossy
0 v. M) Z# ?, r; A% o; j& E8 V3 SStream size : 536 MiB (6%)
+ L. I3 L- U3 g; C, O& \Language : English
6 d5 M  X. a  V5 M- D5 w6 o" n; LService kind : Complete Main
! g1 O% ], U0 R! lDefault : Yes
  ~6 I9 l' u) f) k% \. k5 EForced : No
- i  m( d- r# @
3 U. ~/ h/ }* d! XText+ v$ p8 _) R# `! A
ID : 3
1 X3 D4 R; Y$ H1 o% ]  dFormat : UTF-8; g9 c% q* ?* ^. r$ y! t: D8 W
Codec ID : S_TEXT/UTF81 M, Z+ M: n3 O6 x" e# ]  c, M
Codec ID/Info : UTF-8 Plain Text% G* t/ s8 m0 ^: H) T& ~
Duration : 1 h 50 min
6 }' k: L2 I0 m# h  |7 ?# L" y) vBit rate : 14 b/s
+ f: v* i% ?8 n& Y( K: D0 SCount of elements : 5647 D% T4 s8 ]2 q& _. w! O
Stream size : 11.8 KiB (0%); X; W8 s$ M4 U
Title : SDH9 ]4 [4 D  a. c. ^" p: w8 }
Language : English- S3 r6 b! ^" [. B! y
Default : No& x. q+ ]- e7 B, c$ \0 L  }
Forced : No
7 m% \0 X, j8 U6 j1 c. f# P

* Q# m2 _3 G) p2 {& N
! K: M( y& R3 \8 N

煉獄信使. MKV.torrent

84.62 KB, 下載次數: 835

尚未簽到

發表於 2018-8-10 11:24:03 | 顯示全部樓層
絕對的好貼!謝謝啊!逐字逐圖地看完這個帖子以後,我的心久久不能平靜,感恩啊!
累計簽到︰1189 天
連續簽到︰46 天
發表於 2018-8-10 11:28:48 | 顯示全部樓層
感謝大大的辛勞分享!我會繼續在WK關注大大的文章!

尚未簽到

發表於 2018-8-10 14:23:31 | 顯示全部樓層
絕對的好貼!謝謝啊!逐字逐圖地看完這個帖子以後,我的心久久不能平靜,感恩啊!

尚未簽到

發表於 2018-8-10 17:21:19 | 顯示全部樓層
精妙絕倫的精品,感謝啊!期待你更多更好的創作哦!

尚未簽到

發表於 2018-8-10 20:22:01 來自手機 | 顯示全部樓層
感謝大大的辛勞分享!我會繼續在WK關注大大的文章!

尚未簽到

發表於 2018-8-10 23:19:39 | 顯示全部樓層
絕對的好貼!謝謝啊!逐字逐圖地看完這個帖子以後,我的心久久不能平靜,感恩啊!

尚未簽到

發表於 2018-8-12 11:34:11 | 顯示全部樓層
這個我收藏了!謝謝分享!WK的資源越來越豐富,這少不了大大的辛勞!

尚未簽到

發表於 2018-8-12 15:34:30 來自手機 | 顯示全部樓層
感謝大大的辛勞分享!我會繼續在WK關注大大的文章!

尚未簽到

發表於 2018-8-13 11:29:49 | 顯示全部樓層
很讚的文章,謝謝咯!相信WK因為有你而更加精彩!

回復樓主 親!! 早上好! 心底有WK、心情就會飛翔,心中要個希望、笑容就會清爽!

 分享同時學會感恩,一句感謝的話語,就是最大的支持!  歡迎交流討論
您需要登錄後才可以回帖 登錄 | 立即注册

本版積分規則

c重要聲明:本論壇是以即時上載言論的方式運作,WK論壇對所有言論的真實性、立場及版權等,不負任何法律責任。而一切言論只代表發佈者個人意見,並非本網站之立場,讀者及用戶務必自行判斷內容之真實性。 由於本論壇受到「即時上載言論」運作方式所規限,故不能完全監察所有言論,若讀者及用戶發現有內容出現「真實性、立場及版權」等問題,請聯絡我們:info@waikeung.net論壇有權刪除任何言論(刪除前或不會作事先警告及通知)| SiteMap[網站地圖]

發表新帖 返回頂部