WK綜合論壇, WK综合论坛

查看:20556 回復:22 發表於 7 天前
本主題由 212love 於 2018-8-12 10:35 解除高亮
累計簽到︰1441 天
連續簽到︰38 天
發表於 2018-8-10 11:23:04 | 顯示全部樓層 |閱讀模式

煉獄信使 A.Prayer.Before.Dawn., 2017.[MKV / 8.4G] [複製鏈接]

影視分享
分類: 電影
題材: 劇情 
地區: 英國 法國 
語言: 英语 其他 
格式: MKV 
年份: 2017
資源: BT资源
1.jpg
+ k& ^9 j1 G3 @0 }9 T7 @
* v& y" L! A, ?7 v5 ^3 }! M6 y- @
5 S, h, I  u# U) i* U' ~$ ]# D& _& ^* ~
◎译  名 炼狱信使
; x" S3 ~0 v/ `; J* J; Z: Q; O" d% g; U
◎片  名 A Prayer Before Dawn
- [. }/ ]8 S) A' F- o) W
5 ]# M1 G$ q4 p$ h2 S◎年  代 2017& r8 |7 w, i. [' b+ h$ c' `3 _1 T

8 g  U1 Q! ]+ C' t◎产  地 英国/法国: t8 \/ ]) C5 Y7 z- ?
! W/ X# f/ G4 J
◎类  别 剧情
3 C2 v" X" @$ S3 E1 y
/ H# I3 x* K5 S/ X5 t- N2 ~" @% a◎语  言 英语/泰语
* j5 ?; J6 ]0 n( o  l6 e" P. i4 L, e; C
◎上映日期 2017-05-19(戛纳电影节); G* e# q6 \1 k! t+ \/ n2 Z' q+ p

$ _+ f8 D7 H& E0 u% ^◎IMDb评分  7.0/10 from 3,920 users6 `7 t7 z' s# A$ Z6 R8 Q

* D; P: ^6 I/ [. D! A8 w" e  T0 H◎IMDb链接  http://www.imdb.com/title/tt4080956/1 Z" f  N- H+ `
9 M2 ]. ~. ^$ e2 @2 b
◎片  长 120分钟2 H6 U  s$ R' X% m4 t

; s. x6 \; K6 y/ B- r8 M$ M9 t% P# A◎导  演 Jean-Stéphane Sauvaire7 N* ]. i3 E% N. M$ V- I
, i0 }' l3 o9 O3 P. J
◎主  演 乔·科尔 Joe Cole# Q' s3 U. O/ h8 X, m0 E; I- i

# V/ R  G0 z- K5 W6 l+ _4 ?+ F      维他亚·潘斯林加姆 Vithaya Pansringarm9 c7 \' Z" m# Z3 W8 Y; E

9 j2 I* l0 y1 |4 A+ y      Panya Yimmumphai/ b5 a( W* I! ]3 |! @) B" w% n
* M4 G6 W* `+ u- l' b
      Nicolas Shake
5 y8 o( n; G+ j* F# f/ i4 d- B; \4 ]9 q; j$ _, f
      Pornchanok Mabklang' v4 b+ N# Q3 H& ~1 x$ i
" t8 D; E, B5 K1 {" Q
      Billy Moore& P/ {1 ]* d& A% s" f

) K- n# q6 @/ s3 g7 U# a- a, H      Somlock Kamsing3 I1 h" Q+ C2 @  m

* P' I: d& O% _0 |      Sura Sirmalai
( g) c! o, c7 ]! Q
. U# r9 j7 D: a0 O3 G. g2 v, q      Sakda Niamhom; t" x' t& N! J' e3 F. N: C% a

2 ]3 M( j1 X1 [0 |% M0 L2 Q      Komsan Polsan
7 _2 y! g+ d+ V
8 r# Q- R7 H6 x7 E  S7 `
; I% e+ M- ?- I+ R" n# z+ L, f, K! |7 _# t
◎简  介- M& A* }( l- m
8 W2 J. o4 ]& v, p2 ^
" f- B6 R* v; v: H  \
) o2 K* h/ s  S" e- V
  在全球最严酷且恶名昭彰、被称为“曼谷希尔顿”的曼谷市郊孔普雷监狱,有十条法则:如果你不遵守,你非常有可能会死;如果你遵守,那你一定会死——这是比利·摩尔亲身经历的真实故事。但是,比尔拒绝妥协不甘枉死狱中,他开始置之死地而后生地学习泰拳,在此过程中找寻兄弟般的友谊,走上令人难以置信的救赎之路。7 \$ d" V( i! R5 u
9 u4 _& A) N$ ?2 s. e
) g, c( q# h: s, m4 p# U3 I

2 q( P  y$ C% F3 UVideo
: O! p7 t1 p& B6 ?ID : 1
+ M& `6 {% }1 b. I6 DFormat : AVC
/ A. z, @1 Y6 ?* y  I/ bFormat/Info : Advanced Video Codec
# }) v6 m) h/ s( j5 d  J6 nFormat profile : High@L4( ~+ @  Z$ |6 Y( f! Z
Format settings : CABAC / 4 Ref Frames
3 @6 V% L6 o6 J8 b8 gFormat settings, CABAC : Yes
) U" c" X6 ], K* G$ N$ @/ ^- AFormat settings, ReFrames : 4 frames
, x) E3 Q3 b- y6 E3 I, L1 FCodec ID : V_MPEG4/ISO/AVC% h& Q( x0 @/ p5 C( [% j% n
Duration : 1 h 57 min. e) u6 \+ n4 T; F
Bit rate : 9 633 kb/s
% G" f. B5 y$ R0 ]% ^7 x9 y4 b) C2 gWidth : 1 920 pixels
1 M2 Y. X1 I7 x( H, n9 SHeight : 800 pixels
, a2 F9 W2 p# N5 aDisplay aspect ratio : 2.40:1
$ `9 y: [% b' U; H- kFrame rate mode : Constant+ v5 ~4 l: c+ g2 g) T+ k, ]- `( z
Frame rate : 23.976 (24000/1001) FPS+ L$ {6 H' O( r! r/ I
Color space : YUV
, H$ w) p# E9 a2 z' aChroma subsampling : 4:2:01 j; z8 h( p- y! I
Bit depth : 8 bits
6 Q" d: Y! ^, p$ z! H( L9 Q3 dScan type : Progressive" r- ~/ j4 p5 f8 e! _: ^
Bits/(Pixel*Frame) : 0.262
& z* i" U) q" B, z5 BStream size : 7.88 GiB (94%)
. r$ Y1 ?8 q7 }: ODefault : Yes
# C, }5 m+ K! eForced : No3 `* G8 u) z* l0 H* x. T: Q5 w9 ]
Color range : Limited
5 Q" D' A/ _: p. |9 k' P1 a9 \Color primaries : BT.709
  K" K, ]2 S6 s! [$ cTransfer characteristics : BT.709/ l# ]$ R. `% W$ _
Matrix coefficients : BT.709+ r$ r0 w$ [, V9 i% M
1 D' L4 J( l: e) \. Z8 J8 ]4 O
Audio
# J  w, ?* t/ D/ ~) \! P  d# ]! VID : 2$ k. P( K$ N6 U8 _9 g$ E( I' p
Format : E-AC-3$ p* s. v! d" V" J, @! w
Format/Info : Enhanced Audio Coding 3
7 C1 M7 ^& [% OCodec ID : A_EAC3
) t+ C8 R  r) }) ODuration : 1 h 57 min) |7 L( c) d) @3 Z5 T' E) p% w
Bit rate mode : Constant. t, x! \2 ?; C6 Y
Bit rate : 640 kb/s
, t$ W% x) z% h; eChannel(s) : 6 channels
0 T2 a2 G) F9 Q. {6 |0 s" OChannel positions : Front: L C R, Side: L R, LFE
5 w2 }% j# N( K' v0 ^0 c2 QSampling rate : 48.0 kHz9 _. x: a/ `: t' ~: N* ?
Frame rate : 187.500 FPS (256 SPF). ~! [4 P, V  l9 z8 j& H
Compression mode : Lossy1 b8 m) V! C" j. Z- W! q
Stream size : 536 MiB (6%)+ P. A- K8 H# N
Language : English
! W0 I# T+ d. J) v, n/ ^Service kind : Complete Main
  r+ `$ @& m( q4 Z- G* gDefault : Yes
, U- P( h0 |# F- w  e1 ?* yForced : No9 G$ s& J$ o& |3 f7 c" i' x" ]

2 q! t/ `) M; ^% I+ r! q8 YText9 ^( _2 _7 m% v$ J( w2 Q% H$ n
ID : 3
4 D5 ^7 n9 X) i/ {: oFormat : UTF-8
3 Y: E0 o* _: F% ^$ u2 E+ k+ bCodec ID : S_TEXT/UTF8
1 S7 K0 _* k& U6 YCodec ID/Info : UTF-8 Plain Text5 o; p8 L% h2 v5 j1 s1 T$ g' H
Duration : 1 h 50 min
' ^. A6 C: w$ I3 e* j4 m- Q1 R, CBit rate : 14 b/s" E* c) c: D  P; B$ P+ B$ m. m4 E
Count of elements : 5645 y$ d3 z1 ?1 g
Stream size : 11.8 KiB (0%)7 b/ w4 q. d4 s4 m- H0 K
Title : SDH
; X, o) o2 ~9 H  e4 Z( aLanguage : English7 A1 R. u3 [' {
Default : No
5 G" P0 p/ X$ k, _. K/ BForced : No

6 j7 Q+ p; [3 I# S/ j3 `6 o* ~3 Y  v
) ^1 ?& s' C5 ^5 g2 _8 U: x( f- m- s

煉獄信使. MKV.torrent

84.62 KB, 下載次數: 829

尚未簽到

發表於 2018-8-10 11:24:03 | 顯示全部樓層
絕對的好貼!謝謝啊!逐字逐圖地看完這個帖子以後,我的心久久不能平靜,感恩啊!
累計簽到︰1124 天
連續簽到︰480 天
發表於 2018-8-10 11:28:48 | 顯示全部樓層
感謝大大的辛勞分享!我會繼續在WK關注大大的文章!

尚未簽到

發表於 2018-8-10 14:23:31 | 顯示全部樓層
絕對的好貼!謝謝啊!逐字逐圖地看完這個帖子以後,我的心久久不能平靜,感恩啊!

尚未簽到

發表於 2018-8-10 17:21:19 | 顯示全部樓層
精妙絕倫的精品,感謝啊!期待你更多更好的創作哦!

尚未簽到

發表於 2018-8-10 20:22:01 來自手機 | 顯示全部樓層
感謝大大的辛勞分享!我會繼續在WK關注大大的文章!

尚未簽到

發表於 2018-8-10 23:19:39 | 顯示全部樓層
絕對的好貼!謝謝啊!逐字逐圖地看完這個帖子以後,我的心久久不能平靜,感恩啊!

尚未簽到

發表於 2018-8-12 11:34:11 | 顯示全部樓層
這個我收藏了!謝謝分享!WK的資源越來越豐富,這少不了大大的辛勞!

尚未簽到

發表於 2018-8-12 15:34:30 來自手機 | 顯示全部樓層
感謝大大的辛勞分享!我會繼續在WK關注大大的文章!

尚未簽到

發表於 7 天前 | 顯示全部樓層
很讚的文章,謝謝咯!相信WK因為有你而更加精彩!

回復樓主 親!! 現在是淩晨!妳失眠啦?餓啦?通宵加班?還是想WK啦?

 分享同時學會感恩,一句感謝的話語,就是最大的支持!  歡迎交流討論
您需要登錄後才可以回帖 登錄 | 立即注册

本版積分規則

c重要聲明:本論壇是以即時上載言論的方式運作,WK論壇對所有言論的真實性、立場及版權等,不負任何法律責任。而一切言論只代表發佈者個人意見,並非本網站之立場,讀者及用戶務必自行判斷內容之真實性。 由於本論壇受到「即時上載言論」運作方式所規限,故不能完全監察所有言論,若讀者及用戶發現有內容出現「真實性、立場及版權」等問題,請聯絡我們:info@waikeung.net論壇有權刪除任何言論(刪除前或不會作事先警告及通知)| SiteMap[網站地圖]

發表新帖 返回頂部