WK綜合論壇, WK综合论坛

查看:31281 回復:26 發表於 2018-9-9 08:19:25
本主題由 212love 於 2018-9-10 09:27 解除高亮
累計簽到︰1523 天
連續簽到︰11 天
發表於 2018-9-8 10:51:41 | 顯示全部樓層 |閱讀模式

侏羅紀世界2 Jurassic.World.Fallen.Kingdom., 2018.[MKV/12.28G] [複製鏈接]

影視分享
分類: 電影
題材: 動作 冒險 科幻 
地區: 美國 
語言: 英语 
格式: MKV 
年份: 2018
資源: BT资源
1.jpg
$ o5 E" x2 A; O) ~5 m
) |& S( k% F3 E; {4 x, J
6 V5 U% n4 [2 J- _! I7 b◎译  名 侏罗纪世界2/侏罗纪世界:殒落国度(台)/侏罗纪世界:迷失国度(港)/侏罗纪世界2:失落王国/侏罗纪世界2:堕落王国/侏罗纪公园5
$ W7 I/ Z4 [- [2 |  V
0 f, ~* Q- e* C9 Q) m) A. U◎片  名 Jurassic World: Fallen Kingdom
5 _1 z' n7 t8 S8 t) h9 W( B4 S
7 U" \0 k* E8 ?% ^◎年  代 2018
2 ]7 e. w7 y+ g" {, A" |( i; c1 m$ Y# T' ^8 i1 B) T; j
◎产  地 美国/西班牙! o7 X+ N- X. @! v$ ~

; J; j) p2 X( t  @- E◎类  别 动作/科幻/冒险; e$ T5 e" F8 u9 X
& a, j4 ~5 ?% E  i) Q8 P, s# T+ m+ u/ U2 E
◎语  言 英语
% N; Y3 C; D7 k1 b4 a+ I! l, ~' Z' ~3 Q( k8 h; j: k: w9 }6 z& R
◎上映日期 2018-06-15(中国大陆)/2018-06-22(美国)9 a) s# o( g$ S0 W: U& J
! D% W# J1 V; C9 [& I
◎BT之家整理 http://www.btbtt.us/; z) \% f2 ^. x, O: f7 v

* I! q: |- g9 n2 |◎片  长 128分钟
% a8 u$ _6 V1 d# Q: f& L# R
9 G! n$ ~9 L* Y◎导  演 胡安·安东尼奥·巴亚纳 Juan Antonio Bayona/ t! v1 Y; X3 B  X
1 b& m1 T4 d9 ~5 @9 I1 G+ p
◎主  演 克里斯·帕拉特 Chris Pratt9 a. Z" C" ?  i. c! o# N

& m) J. t: z% x; z7 s3 Q  [      布莱丝·达拉斯·霍华德 Bryce Dallas Howard$ d3 U8 F- I3 X$ o) Y4 N
$ U5 K. O5 x! D. C7 j- j1 v# J
      贾斯蒂斯·史密斯 Justice Smith8 C0 w, i6 y! X$ O% k: e7 R
5 m5 P9 f1 ]' O2 ]
      伊莎贝拉·瑟蒙 1394999
; o, w8 |8 ?) X9 N( B' q: ?, s
4 }3 y$ U- p1 x1 h% Z      拉菲·斯波 Rafe Spall
/ m) M( ~# ~' [" e; h
  Y. C# q; v' y4 V& S& [      托比·琼斯 Toby Jones0 J3 ?; F8 ~0 j+ k
2 @/ M" L2 O. G7 q
      泰德·拉文 Ted Levine0 Y  g8 |# {7 S
3 C2 p2 F) h$ |8 I$ _% W! g
      詹姆斯·克伦威尔 James Cromwell
) w0 j( c% n+ S; L( o7 @; w) t& \7 ?2 {! O( w
      黄荣亮 B.D. Wong
& l/ ?" p' S- R+ k( k. |1 Q5 i- d2 n0 s9 {$ Z+ c- ?
      丹妮艾拉·皮内达 Daniella Pineda; _: M/ s' o; F# {! J0 Z

8 Q9 Z2 q" A! N/ L0 K4 _      杰拉丁·卓别林 Geraldine Chaplin
; j: E2 s# B& U. ]9 {$ R, p6 m3 I) E! Q: T; \  }8 Y; J) q& Y- L
      杰夫·高布伦 Jeff Goldblum
6 s2 A# {" L# y! c- \* M
/ Q  g) w; F5 Q/ Z$ b3 W      卡米尔·雷米泽斯基 Kamil Lemieszewski
0 M/ r: `- U+ q" f" A) A
- O( Y! D/ t/ l2 g- j9 R( e      丹尼尔·斯蒂森 Daniel Stisen
3 I3 F4 [* S( j/ L5 h0 A% o. Y5 J
      皮特·杰森 Peter Jason
- g5 ?4 m9 x$ V& a4 p5 N% e& k" l8 e5 R% v* W2 ?
      迈克尔·帕帕约翰 Michael Papajohn5 M( ?8 Y* o/ d$ ^. N
& S5 q* Z5 K/ T1 ]$ H4 U
      罗伯特·埃姆斯 Robert Emms% k. F0 \' L8 q- ?' }1 ~
0 ~8 b8 V: z" U) ?$ e( |
      罗南·萨莫尔斯 Ronan Summers* p8 S; _0 i6 T/ p

( g1 O6 _5 J2 ~/ c7 g; R# b      麦克斯·贝克 Max Baker
4 t1 E! g3 e3 U: p2 d% M
8 n- A! I, P2 C' @% l0 w' m      丹尼尔·厄根 Daniel Eghan  i! d) F. l  y  [& z

7 X. S( }! G% a0 g, I* c0 x      戴维·奥拉瓦莱·阿印德 David Olawale Ayinde9 M% U7 y  v2 l6 ^; K  M$ o: {* ~  H! S

2 p7 b9 u5 S3 r( J( T2 N- z' R5 m  Z
( [5 f* E& c! c% x& r
0 L9 O7 H2 D% Z2 m; y* c
◎简  介, a7 Y# x4 b$ A4 a* `+ C( V" N

! P( f- z. d7 i. V. K3 E, w. c: T  f5 C  ^- ]9 F# I0 h9 ^
2 q+ t2 F9 f9 d8 M
* m" {% V8 B2 W* E8 ]$ H; M7 \
  自侏罗纪世界的骚乱以来,种类繁多的恐龙在努布拉岛度过了三年无拘无束的时光。然而该岛火山活动频繁,随时有喷发的危险。致力于恐龙保护的克莱尔·戴宁(布莱丝·达拉斯·霍华德 Bryce Dallas Howard 饰)受到班杰明•洛克伍德的邀请。班杰明及其下属伊莱·米尔斯(拉菲·斯波 Rafe Spall 饰)希望她和相关技术人员前往努布拉岛拯救那里的恐龙,并将它们安置在新的栖息地。受到感染的克莱尔设法找来欧文(克里斯·帕拉特 Chris Pratt 饰)一同前往,欧文则希望救出他亲手驯养的迅猛龙小蓝。当他们踏足这座隔绝之岛时,却发现事情没那么简单。
3 O; n2 ?& K$ E" X6 w& ^- f* k' ?' F+ J* ?; I  H
  火山蠢蠢欲动,随时爆发,而混乱之中丑恶的阴谋悄然酝酿……
# d+ y$ I/ P* |  u7 G$ t
$ l2 L' n# A8 C! T% m3 [) r8 A, _- E, R% |% R) w& S

5 T! |( ^3 S( M5 W, O1 [' CMediaInfo «
5 T1 U  w3 t' U  e- W9 d6 TVideo
" e. p4 Y7 H7 rID : 1
3 t1 [6 k/ U( fFormat : AVC6 g) ^! `0 l; [6 f+ ?+ X  s) B0 ]1 I
Format/Info : Advanced Video Codec3 [& q7 d' u. R3 J
Format profile : High@L4.1, j2 T: i0 \6 U; w( h
Format settings : CABAC / 5 Ref Frames6 y- m+ J* a- w1 T' t. T
Format settings, CABAC : Yes5 ]( p& z/ n! M2 f( p1 \3 q( o
Format settings, RefFrames : 5 frames
6 k- l- z  a7 X5 W9 pCodec ID : V_MPEG4/ISO/AVC
% V4 U2 {* [, \3 NDuration : 2 h 8 min% w; f8 v5 i2 I
Bit rate : 9 468 kb/s- p: ^3 ^- r) d9 v# }; Q+ }
Width : 1 920 pixels, w& j( G0 N: `' Q( I4 n
Height : 808 pixels
% d" ^/ l( A0 ~' fDisplay aspect ratio : 2.40:16 E9 \1 }8 r2 G0 e2 T* b; R/ h+ x
Frame rate mode : Constant; o( p3 B1 N, Y5 w! a$ K
Frame rate : 23.976 (24000/1001) FPS
' M5 h: a+ l, G7 j/ L7 c/ gColor space : YUV9 z4 [% [, D& d$ |; R# d' A
Chroma subsampling : 4:2:0- ^5 h0 T3 ]# q" h# ^
Bit depth : 8 bits7 [: H/ J7 p% G6 D
Scan type : Progressive1 }5 j( s2 i4 ?3 O, C6 d
Bits/(Pixel*Frame) : 0.255
% k" g2 i! K% W1 f: tStream size : 8.48 GiB (86%)' O2 A# j/ @2 B( L
Writing library : x264 core 157 r2932 303c484
6 |) O" @5 ]3 ~2 Z* M0 c% zEncoding settings : cabac=1 / ref=5 / deblock=1:-3:-3 / analyse=0x3:0x113 / me=umh / subme=8 / psy=1 / psy_rd=1.00:0.00 / mixed_ref=1 / me_range=16 / chroma_me=1 / trellis=1 / 8x8dct=1 / cqm=0 / deadzone=21,11 / fast_pskip=1 / chroma_qp_offset=-2 / threads=24 / lookahead_threads=4 / sliced_threads=0 / nr=0 / decimate=1 / interlaced=0 / bluray_compat=0 / constrained_intra=0 / bframes=3 / b_pyramid=2 / b_adapt=1 / b_bias=0 / direct=3 / weightb=1 / open_gop=0 / weightp=2 / keyint=250 / keyint_min=23 / scenecut=40 / intra_refresh=0 / rc_lookahead=50 / rc=2pass / mbtree=1 / bitrate=9468 / ratetol=1.0 / qcomp=0.60 / qpmin=0 / qpmax=69 / qpstep=4 / cplxblur=20.0 / qblur=0.5 / ip_ratio=1.40 / aq=1:1.00! G2 O' p1 f8 w
Language : English% }3 ]( U, |# a$ S! {3 o9 K
Default : Yes
8 @- m4 q: N( Z  m; o9 t" LForced : No
0 V7 }7 k! U8 L( L+ {; y$ }& v. b
Audio- t/ w+ |4 y2 `; W) ]
ID : 2! M# M" l) }# M8 g6 G1 s) d
Format : DTS
4 Z9 H5 h& `2 RFormat/Info : Digital Theater Systems
0 L* @% J1 n' G: [Mode : 16
* b% _/ w; e+ j& j. ^4 g) CFormat settings, Endianness : Big
$ D$ L4 O5 F/ n5 }3 h4 v* ]Codec ID : A_DTS4 X' v8 b# f5 n6 M6 Z) y
Duration : 2 h 8 min! `. c/ n: _  _6 l- W; Q
Bit rate mode : Constant( N4 O/ p* N3 b- W
Bit rate : 1 509 kb/s$ x7 l* I% d' H) U
Channel(s) : 6 channels
1 `& i% Z" [2 BChannel positions : Front: L C R, Side: L R, LFE: n( P: f/ z- n# I6 ?' R" q  N
Sampling rate : 48.0 kHz0 I$ ^. \# Q4 }1 u' r( Q0 z: P* z
Frame rate : 93.750 FPS (512 SPF)$ L* w( B# @4 q" P4 M/ n; {
Bit depth : 24 bits1 o. w& Y0 z2 t
Compression mode : Lossy
; a3 S7 f" B! u; v9 |Stream size : 1.35 GiB (14%)1 |5 ~- u% \3 A% S9 @
Language : English
6 Z0 A/ P; S! U' Z) Y5 f, |7 I/ [Default : Yes
. \, c8 f3 y) @! _5 SForced : No
) @6 J9 ~! }/ K

侏羅紀世界2. MKV.torrent

99.63 KB, 下載次數: 1110

尚未簽到

發表於 2018-9-8 10:52:40 | 顯示全部樓層
精妙絕倫的精品,感謝啊!期待你更多更好的創作哦!

尚未簽到

發表於 2018-9-8 13:52:44 | 顯示全部樓層
這個我收藏了!謝謝分享!WK的資源越來越豐富,這少不了大大的辛勞!

尚未簽到

發表於 2018-9-8 16:45:59 | 顯示全部樓層
偶像^^小生一直都在關注你的原創!小生對你之仰慕如滔滔江水連綿不絕!
累計簽到︰1588 天
連續簽到︰15 天
發表於 2018-9-8 18:21:12 | 顯示全部樓層
這個我收藏了!謝謝分享!WK的資源越來越豐富,這少不了大大的辛勞!

尚未簽到

發表於 2018-9-8 21:13:00 | 顯示全部樓層
偶像^^小生一直都在關注你的原創!小生對你之仰慕如滔滔江水連綿不絕!

尚未簽到

發表於 2018-9-9 00:03:22 | 顯示全部樓層
感謝大大的辛勞分享!我會繼續在WK關注大大的文章!

尚未簽到

發表於 2018-9-9 02:51:32 | 顯示全部樓層
很讚的文章,謝謝咯!相信WK因為有你而更加精彩!

尚未簽到

發表於 2018-9-9 05:35:36 | 顯示全部樓層
這個我收藏了!謝謝分享!WK的資源越來越豐富,這少不了大大的辛勞!

尚未簽到

發表於 2018-9-9 08:19:25 | 顯示全部樓層
偶像^^小生一直都在關注你的原創!小生對你之仰慕如滔滔江水連綿不絕!

回復樓主 親!! 現在是後半夜!妳失眠啦?餓啦?通宵加班?還是想WK啦?

 分享同時學會感恩,一句感謝的話語,就是最大的支持!  歡迎交流討論
您需要登錄後才可以回帖 登錄 | 立即注册

本版積分規則

c重要聲明:本論壇是以即時上載言論的方式運作,WK論壇對所有言論的真實性、立場及版權等,不負任何法律責任。而一切言論只代表發佈者個人意見,並非本網站之立場,讀者及用戶務必自行判斷內容之真實性。 由於本論壇受到「即時上載言論」運作方式所規限,故不能完全監察所有言論,若讀者及用戶發現有內容出現「真實性、立場及版權」等問題,請聯絡我們:info@waikeung.net論壇有權刪除任何言論(刪除前或不會作事先警告及通知)| SiteMap[網站地圖]

發表新帖 返回頂部