WK綜合論壇, WK综合论坛

查看:31206 回復:26 發表於 2018-9-9 08:19:25
本主題由 212love 於 2018-9-10 09:27 解除高亮
累計簽到︰1472 天
連續簽到︰19 天
發表於 2018-9-8 10:51:41 | 顯示全部樓層 |閱讀模式

侏羅紀世界2 Jurassic.World.Fallen.Kingdom., 2018.[MKV/12.28G] [複製鏈接]

影視分享
分類: 電影
題材: 動作 冒險 科幻 
地區: 美國 
語言: 英语 
格式: MKV 
年份: 2018
資源: BT资源
1.jpg # A$ s6 ^! `$ N* h5 n* a

0 g; I) f0 {( ~; U1 e2 A! F. o- H4 X7 {  U3 N# G  N3 R0 Y
◎译  名 侏罗纪世界2/侏罗纪世界:殒落国度(台)/侏罗纪世界:迷失国度(港)/侏罗纪世界2:失落王国/侏罗纪世界2:堕落王国/侏罗纪公园5
9 R) l! m4 r( O1 F3 z9 o
0 w7 ]3 G+ z8 i- F& b◎片  名 Jurassic World: Fallen Kingdom% F! n. E4 s3 w1 T9 G
& E2 u3 V3 p0 X
◎年  代 2018
$ o7 U$ a$ i, a4 M9 C. J' ~/ i1 F' p) E& @* m' G+ B
◎产  地 美国/西班牙
5 f5 ^; A. s" I3 C
, @7 v$ s% l8 C" m% i6 H+ j◎类  别 动作/科幻/冒险2 ?% E5 H% h* H+ v4 \4 _

: ^2 L2 p; g5 i) v% U' |; C◎语  言 英语9 N- m7 m& K2 R
! _/ R4 m6 }% M& z# J- I* O
◎上映日期 2018-06-15(中国大陆)/2018-06-22(美国)) s$ |( M" Z- ^( B
1 U8 m# }- Q0 F4 o5 ?+ |
◎BT之家整理 http://www.btbtt.us/# q4 v/ N& a! h. U6 K4 _/ m
% b+ J5 q  k9 E
◎片  长 128分钟/ d% n0 ]/ v! q

1 s! V. d9 J5 j& ?◎导  演 胡安·安东尼奥·巴亚纳 Juan Antonio Bayona
. z8 T  a- O& X
6 F% A* D  o( A8 q! s◎主  演 克里斯·帕拉特 Chris Pratt
, \) b. O: Q. o; d5 U" t# K% W/ a0 q: j3 S# E) D
      布莱丝·达拉斯·霍华德 Bryce Dallas Howard
. N* r* O+ a* z. D
0 M" z1 l$ C/ w1 N5 L" f      贾斯蒂斯·史密斯 Justice Smith
8 s/ K$ q7 }, J! ~) A; J6 O3 Q
- A& `0 n( c" E" F2 n5 t      伊莎贝拉·瑟蒙 13949999 \0 N5 z9 M" h: E$ [

8 }* J1 F6 O% n7 ?1 J3 D* Z/ w, c3 p      拉菲·斯波 Rafe Spall$ I' p) s( R( M

. w0 W+ X! @4 v0 {2 \+ ~6 }      托比·琼斯 Toby Jones
% w% P8 F" h( h
0 o! S& L4 p  @5 k* Q2 E" U) X* X      泰德·拉文 Ted Levine
. Z  N" ~( g1 t& h: `% d" R! n% Y* [, @7 {0 E2 d( w# s5 b, t: |
      詹姆斯·克伦威尔 James Cromwell
" |# I# l! r" ?; t" {* p5 G/ |- ^8 {" j& U9 H) q' I, O$ b
      黄荣亮 B.D. Wong1 S0 Y7 ?# t. t2 s* N

6 k" [3 J+ n  r* [8 f/ l4 ~      丹妮艾拉·皮内达 Daniella Pineda
% T$ D8 R$ |9 }5 ^7 ?7 i' O3 q, [( g5 W' U+ n! L9 K7 D
      杰拉丁·卓别林 Geraldine Chaplin
& {" }. F; G5 D0 g9 R
) R" i( P1 D; ]      杰夫·高布伦 Jeff Goldblum- ~; D8 [/ O( f& s4 a$ j
/ V7 Q$ f# {5 X! E& Q
      卡米尔·雷米泽斯基 Kamil Lemieszewski
! F/ Y/ j1 g& ^! x
/ C9 m5 ~/ P/ O0 C* g( h; U  x      丹尼尔·斯蒂森 Daniel Stisen
; w. u8 ^, o8 A6 D" i' G5 R: @8 D) ]2 B# P0 d, u) ?1 ^3 `
      皮特·杰森 Peter Jason& k& Z/ [% p1 o( u1 P3 m' j

; C5 R+ i! D" Q7 P# h      迈克尔·帕帕约翰 Michael Papajohn
/ K- p- K7 V: v% N2 k9 m) J; {/ G
7 ^2 D2 a2 M, z: N% G5 c      罗伯特·埃姆斯 Robert Emms
% A& x5 {9 O6 e0 D% N% o% e+ d' d& r& Y0 J8 h
      罗南·萨莫尔斯 Ronan Summers6 Z4 C2 @- R9 N$ t: }: e4 b8 y3 [0 {% U: n
- ~, B& Q5 b4 [4 K0 q! V
      麦克斯·贝克 Max Baker4 D( ~5 }4 m1 H4 }8 A: c

7 c  j4 J5 z9 v+ O9 b, Y; @      丹尼尔·厄根 Daniel Eghan
8 [' B4 a6 |0 h' y# S
/ H, }2 v9 a4 Q! q      戴维·奥拉瓦莱·阿印德 David Olawale Ayinde1 H$ w+ i+ u. e2 k' O8 O; }) u$ i8 d2 X- p
1 n! d  C6 ^4 s3 L. N& M, d

5 |* g* A- _; Z8 v$ n! H5 L9 d/ ~4 x# a- e4 q: i/ u4 `& m+ H# F
' ?) ~7 y8 b/ }( l2 Z& j$ z
◎简  介6 t  l$ w0 u! O6 n

: h: R" S. P8 l; I( z. D7 b" \# Y3 q4 ?2 u) N8 f+ X" X% `

/ T/ e6 X' t$ Y6 {" f
4 p' u8 Q) P/ ]4 |- v+ j  自侏罗纪世界的骚乱以来,种类繁多的恐龙在努布拉岛度过了三年无拘无束的时光。然而该岛火山活动频繁,随时有喷发的危险。致力于恐龙保护的克莱尔·戴宁(布莱丝·达拉斯·霍华德 Bryce Dallas Howard 饰)受到班杰明•洛克伍德的邀请。班杰明及其下属伊莱·米尔斯(拉菲·斯波 Rafe Spall 饰)希望她和相关技术人员前往努布拉岛拯救那里的恐龙,并将它们安置在新的栖息地。受到感染的克莱尔设法找来欧文(克里斯·帕拉特 Chris Pratt 饰)一同前往,欧文则希望救出他亲手驯养的迅猛龙小蓝。当他们踏足这座隔绝之岛时,却发现事情没那么简单。3 `8 g  v6 _" ]& D9 S
! I+ K* y+ B$ n5 m; Z# U
  火山蠢蠢欲动,随时爆发,而混乱之中丑恶的阴谋悄然酝酿……" C( |% `+ ]/ n9 i6 ]. o9 m
6 F  Q7 b3 H/ E$ b# L& L" v

5 J. o! e( A1 e3 ]( ~% L# j7 f- R' `
MediaInfo « / P# C7 L* v+ e. o/ |; l
Video1 J+ l9 H# `: {5 I7 o0 n- R
ID : 1' G% L" |" p" v( Z( u0 C
Format : AVC* A! D' Z0 b& X
Format/Info : Advanced Video Codec8 S9 R+ P6 z4 Z( x/ l& \5 f
Format profile : High@L4.13 B& f% H! L1 g4 F  H# M3 q
Format settings : CABAC / 5 Ref Frames
- w  A( ^  O- q9 h: l  s# o4 T7 {! `# uFormat settings, CABAC : Yes/ i% y; k, ~2 m# M7 q% W
Format settings, RefFrames : 5 frames) J& P  Y% Y7 z  J
Codec ID : V_MPEG4/ISO/AVC
  D9 K8 Y* `: z5 cDuration : 2 h 8 min' t6 k( d0 m4 W1 h- X
Bit rate : 9 468 kb/s
) J6 B# Z$ x; E) ~3 kWidth : 1 920 pixels
0 ]1 ~+ t, P9 D( }2 s+ gHeight : 808 pixels
' b$ i8 M* D- ^& X$ ~  o/ p" _Display aspect ratio : 2.40:11 N$ \2 }4 M% e" c: Y- }4 O" b
Frame rate mode : Constant
" ~1 h  y. m" I  p2 p/ Y! FFrame rate : 23.976 (24000/1001) FPS* `: w4 i. v1 j9 m# B
Color space : YUV' N0 g7 B5 g! |8 G
Chroma subsampling : 4:2:0
' U  d+ S  P7 n+ j1 W5 a3 I8 RBit depth : 8 bits; X+ b1 B# {4 ]7 [) l+ s0 N1 {- o; b  |
Scan type : Progressive
( [7 c3 w, b' l: {; b! B0 k5 ZBits/(Pixel*Frame) : 0.255  h# S) e& P. g( ^+ {
Stream size : 8.48 GiB (86%)
. j5 H4 Z6 I* c% D. {Writing library : x264 core 157 r2932 303c484
) V5 a" N* B4 @' m' X: x; DEncoding settings : cabac=1 / ref=5 / deblock=1:-3:-3 / analyse=0x3:0x113 / me=umh / subme=8 / psy=1 / psy_rd=1.00:0.00 / mixed_ref=1 / me_range=16 / chroma_me=1 / trellis=1 / 8x8dct=1 / cqm=0 / deadzone=21,11 / fast_pskip=1 / chroma_qp_offset=-2 / threads=24 / lookahead_threads=4 / sliced_threads=0 / nr=0 / decimate=1 / interlaced=0 / bluray_compat=0 / constrained_intra=0 / bframes=3 / b_pyramid=2 / b_adapt=1 / b_bias=0 / direct=3 / weightb=1 / open_gop=0 / weightp=2 / keyint=250 / keyint_min=23 / scenecut=40 / intra_refresh=0 / rc_lookahead=50 / rc=2pass / mbtree=1 / bitrate=9468 / ratetol=1.0 / qcomp=0.60 / qpmin=0 / qpmax=69 / qpstep=4 / cplxblur=20.0 / qblur=0.5 / ip_ratio=1.40 / aq=1:1.00
2 X1 Q) z2 `: ]  o3 d) [# XLanguage : English
% b8 }0 [8 m8 j7 I9 p" T1 fDefault : Yes
+ z1 s$ `6 j/ s; o4 X' jForced : No
; E! i4 e9 X' I: F: g  w7 G: V9 p* X% U" r$ E
Audio
# D3 a( M4 x5 S. _' f* }$ X: HID : 2
1 N& y2 P+ n' E5 ^- i, D/ G6 ]Format : DTS$ _" R% F) s) R' B3 |# }/ x
Format/Info : Digital Theater Systems
) {9 P7 ^2 e) e& L0 R: G. s+ r5 hMode : 16! g$ A( B, g. j) \6 h
Format settings, Endianness : Big  {( m7 u3 \: Q; s# @! b
Codec ID : A_DTS
3 \- ]5 o& A% S5 N3 e1 V7 KDuration : 2 h 8 min& _$ o0 H: F& n- z
Bit rate mode : Constant0 o: E" w' [5 a+ |, I
Bit rate : 1 509 kb/s2 \" q6 g- _3 ^6 o- P
Channel(s) : 6 channels
8 l+ U) [- S  p" f3 YChannel positions : Front: L C R, Side: L R, LFE0 Z; C1 h) |! h
Sampling rate : 48.0 kHz
( u5 v3 `6 P( k3 rFrame rate : 93.750 FPS (512 SPF)
( d0 n0 d& c2 U7 R3 zBit depth : 24 bits# x, s  L# {4 s( y4 ~  z) \5 u
Compression mode : Lossy
: o7 K" a- N$ _2 bStream size : 1.35 GiB (14%)
7 \; D. w" m+ C2 v6 lLanguage : English
, g, w- k* I  Y! HDefault : Yes' E* ~) I& t% W& A+ W
Forced : No

) s( F# n" m6 p! ?: t6 o

侏羅紀世界2. MKV.torrent

99.63 KB, 下載次數: 1106

尚未簽到

發表於 2018-9-8 10:52:40 | 顯示全部樓層
精妙絕倫的精品,感謝啊!期待你更多更好的創作哦!

尚未簽到

發表於 2018-9-8 13:52:44 | 顯示全部樓層
這個我收藏了!謝謝分享!WK的資源越來越豐富,這少不了大大的辛勞!

尚未簽到

發表於 2018-9-8 16:45:59 | 顯示全部樓層
偶像^^小生一直都在關注你的原創!小生對你之仰慕如滔滔江水連綿不絕!
累計簽到︰1535 天
連續簽到︰45 天
發表於 2018-9-8 18:21:12 | 顯示全部樓層
這個我收藏了!謝謝分享!WK的資源越來越豐富,這少不了大大的辛勞!

尚未簽到

發表於 2018-9-8 21:13:00 | 顯示全部樓層
偶像^^小生一直都在關注你的原創!小生對你之仰慕如滔滔江水連綿不絕!

尚未簽到

發表於 2018-9-9 00:03:22 | 顯示全部樓層
感謝大大的辛勞分享!我會繼續在WK關注大大的文章!

尚未簽到

發表於 2018-9-9 02:51:32 | 顯示全部樓層
很讚的文章,謝謝咯!相信WK因為有你而更加精彩!

尚未簽到

發表於 2018-9-9 05:35:36 | 顯示全部樓層
這個我收藏了!謝謝分享!WK的資源越來越豐富,這少不了大大的辛勞!

尚未簽到

發表於 2018-9-9 08:19:25 | 顯示全部樓層
偶像^^小生一直都在關注你的原創!小生對你之仰慕如滔滔江水連綿不絕!

回復樓主 親!! 早上好! 心底有WK、心情就會飛翔,心中要個希望、笑容就會清爽!

 分享同時學會感恩,一句感謝的話語,就是最大的支持!  歡迎交流討論
您需要登錄後才可以回帖 登錄 | 立即注册

本版積分規則

c重要聲明:本論壇是以即時上載言論的方式運作,WK論壇對所有言論的真實性、立場及版權等,不負任何法律責任。而一切言論只代表發佈者個人意見,並非本網站之立場,讀者及用戶務必自行判斷內容之真實性。 由於本論壇受到「即時上載言論」運作方式所規限,故不能完全監察所有言論,若讀者及用戶發現有內容出現「真實性、立場及版權」等問題,請聯絡我們:info@waikeung.net論壇有權刪除任何言論(刪除前或不會作事先警告及通知)| SiteMap[網站地圖]

發表新帖 返回頂部