WK綜合論壇, WK综合论坛

查看:28322 回復:25 發表於 2018-9-9 11:17:05
本主題由 212love 於 2018-9-10 09:27 解除高亮
累計簽到︰1472 天
連續簽到︰19 天
發表於 2018-9-8 13:40:56 | 顯示全部樓層 |閱讀模式

下層人 Lowlife., 2017.[MKV / 9.6G] [複製鏈接]

影視分享
分類: 電影
題材: 劇情 喜劇 犯罪 
地區: 美國 
語言: 英语 
格式: MKV 
年份: 2017
資源: BT资源
1.jpg
% z  D% b3 Z( T& F1 ]! n  b! T) N( t8 K! U
◎译  名 下层人
4 u( i% h. `$ L  Z; Q% D& I: U& |4 T! R& v' p
◎片  名 Lowlife
3 X, `( l8 L7 ?% V8 {2 c/ m# Q7 E$ j
◎年  代 2017
& Z: G- U3 R/ j4 x, H+ H; M8 ]
( X3 m$ D$ G* c; _% i◎产  地 美国; y( m. c' Z) o5 b' X1 U9 A
, c# f  L# [4 B
◎类  别 剧情/喜剧/犯罪) l% e6 v6 k) }# Q

3 o% w. a3 @( Y$ U# d◎语  言 英语
: G6 l' W, \5 {3 x& q4 j" p
& C- ]) g  {$ E  V  M/ B◎上映日期 2017-07(加拿大)
4 w7 X; x- d/ s: S- _% v) G/ l; S
: }6 X) V: }! b+ o6 u* {◎片  长 96分钟
3 v+ i, q  y! J% i- s+ Z
1 i: d3 N' F1 |◎导  演 Ryan Prows/ b6 n9 O- ?: \# I  e( d) [% ?
1 ~; ]; l) E8 L% P
◎主  演 Nicki Micheaux9 B* `1 a+ C& c! g

! h, m9 U& k7 M. T      Ricardo Adam Zarate
7 |/ R- N4 v# H; N
: f* |7 \- ]1 _, w6 G2 ]      Jon Oswald( F8 q4 d; S9 s4 i' Q1 q

! t5 \! A' G2 P; S( _' S
+ W0 I% c) M  S* N" Z) ?* d% H
+ z5 X/ ?5 Y, h' M" ?( u) i8 j◎简  介/ F% i: @: E2 y' p! j4 g

1 W! g/ y% G2 h
3 N8 V# e9 y$ Q/ N& P% ~+ N
" v8 N" h- K# l7 v9 ^8 W6 P  The sordid lives of an addict, an ex-con, and a luchador collide when an organ harvesting caper goes very, very wrong.
; h: V$ K$ S) f+ V) h$ H+ i0 W
9 z4 x% K1 {+ A( r: U2 o, S+ x
# z" g4 c2 |1 @  E1 Y. A( K/ h( Z- ^& D
Video
  p, X2 }( G4 Q  m0 X* gID : 1
  u8 x  a+ A4 w9 g$ F; y% JFormat : AVC: m. C: q1 d2 b" D
Format/Info : Advanced Video Codec( [. w" Q( s' i1 R/ q  Z& {; S
Format profile : High@L4; m6 W" }! `. f) O. ~/ a9 f3 g- l
Format settings : CABAC / 4 Ref Frames
- a# M, i" W. h$ N& LFormat settings, CABAC : Yes
8 j; N( ]7 M( Q& n- b* Z9 BFormat settings, ReFrames : 4 frames
0 P2 ]# M! j( R$ V( T" m1 {- bCodec ID : V_MPEG4/ISO/AVC/ j; q. ^8 r7 ]5 O6 w1 k
Duration : 1 h 36 min$ N0 @/ b/ v) p  C% }7 S8 B) ^
Bit rate mode : Variable
7 l3 j0 [+ x  x, ?% }9 bBit rate : 13.6 Mb/s  v4 g8 z; J, b5 Q7 `2 q$ N
Maximum bit rate : 15.0 Mb/s* y; m  c  G: G* |, x: k8 X) M
Width : 1 920 pixels
: J4 e7 a# s( S, H! NHeight : 800 pixels
3 B8 ?2 a# d8 o/ Q9 zDisplay aspect ratio : 2.40:1  u! n( V- w/ Y% r
Frame rate mode : Constant
. y! L* Y) r, \; s, C9 DFrame rate : 23.976 (24000/1001) FPS
% E, H  p6 r6 f1 t2 x  k8 yColor space : YUV; {/ L  F( g8 E; }
Chroma subsampling : 4:2:0& _! D$ v5 U# j
Bit depth : 8 bits
) J: g) o! _% N& b3 ~Scan type : Progressive
& }  Y% w0 n* s; p0 `: ~Bits/(Pixel*Frame) : 0.370
$ ?2 z% @7 @1 U3 H& hStream size : 9.16 GiB (95%)
! D% e% {- w4 H: ^3 ODefault : Yes9 r9 f+ s( U. P% R+ F/ A% K  w
Forced : No
( y" N1 }0 T" v+ sColor range : Limited$ o- X: S" P6 ?1 t6 d/ y, w
Color primaries : BT.7096 F( m# |* `" v3 U7 Y& q: _0 R
Transfer characteristics : BT.709. V/ U1 l- e. m" {* G4 ?
Matrix coefficients : BT.709
) h" H' K% D. L/ M7 I
0 r' R% l6 B+ O% r7 _' mAudio+ p5 E+ v7 W$ T" U  S/ E% N
ID : 2
; z/ B( p4 z+ D4 A0 y! w$ I# HFormat : E-AC-3
- Y( t; j+ }; T7 V5 ?Format/Info : Enhanced Audio Coding 3
$ t9 z2 M$ Y. Q1 u# H% {Codec ID : A_EAC3
4 n0 p6 w! N7 ^* W( o# P- ADuration : 1 h 36 min
5 F5 ^! m& d4 ?( ^  {$ HBit rate mode : Constant
) V; ~5 j+ W% k" QBit rate : 640 kb/s  O4 B* h# x. Q0 H
Channel(s) : 6 channels) Z- F( m1 ?: N0 H5 V2 r; z
Channel positions : Front: L C R, Side: L R, LFE
0 l: o- c$ d- {9 g! |$ F- ESampling rate : 48.0 kHz
) J& t) q7 b' ~Frame rate : 187.500 FPS (256 SPF)4 A* e9 @" P3 g: v2 I' j
Compression mode : Lossy
) Z: d% K* F; U5 z' X3 g. DStream size : 441 MiB (4%)
$ T! b) j( e, GLanguage : English! i( n4 d; {( I* ]* Y' \
Service kind : Complete Main
% f! q* R) u& s$ \Default : Yes
. A& Q" q: r/ l4 A* D. uForced : No3 d( I0 S( h1 j, m& M' [

0 a/ c) v( v. {8 v" b3 QText #1
  ^$ |4 b: f- e* k) w. xID : 3  _8 L$ g4 |7 k+ x- Q* \
Format : UTF-8
. s6 I7 e/ V7 c0 wCodec ID : S_TEXT/UTF8
/ o+ c3 D" u- DCodec ID/Info : UTF-8 Plain Text
- t& M5 ]4 [: Q$ iDuration : 1 h 30 min
: q. N/ w2 }1 w. T' U& GBit rate : 36 b/s
. l8 ?% }, u5 ~Count of elements : 885( ?, D; d) C# D+ b; e+ h' r& p
Stream size : 24.3 KiB (0%)" E* }/ v  T& c7 q+ i3 _! b
Language : English
& S% R# Y) B* O% ?3 aDefault : No( H) R. e+ L5 A6 L
Forced : No
) P# o; t! ]0 c/ Q/ h$ X# [7 j
% F! I6 u, K  |( p" b! @: yText #2
+ r8 I/ f8 t. ^" O2 D+ ^ID : 42 s: S$ e5 q9 X
Format : UTF-81 b1 z$ g7 S% h2 h/ q
Codec ID : S_TEXT/UTF8& X/ l& r! x$ i7 M
Codec ID/Info : UTF-8 Plain Text
8 p, Q' r4 D/ P1 ZDuration : 1 h 35 min
; @+ ~# N9 K5 k$ q. @6 c# NBit rate : 42 b/s
8 Q, d' Z1 |) `9 q+ A' zCount of elements : 1186
) [) O4 q% y, q6 i+ SStream size : 29.3 KiB (0%)$ R2 _- p2 x" W5 r. q1 J1 U
Title : SDH0 g1 P5 ~) |, E/ Q7 ]
Language : English+ Z% F6 e- h6 W* q& V: h
Default : No# p: a! W9 H! j1 \
Forced : No
% w' C6 U. K" v2 b8 d) e) ?

$ l4 k! w' f( l
1 a* V- g9 o+ m$ a

下層人. MKV.torrent

96.49 KB, 下載次數: 982

尚未簽到

發表於 2018-9-8 13:41:58 來自手機 | 顯示全部樓層
絕對的好貼!謝謝啊!逐字逐圖地看完這個帖子以後,我的心久久不能平靜,感恩啊!

尚未簽到

發表於 2018-9-8 16:36:03 | 顯示全部樓層
絕對的好貼!謝謝啊!逐字逐圖地看完這個帖子以後,我的心久久不能平靜,感恩啊!

尚未簽到

發表於 2018-9-8 16:36:05 | 顯示全部樓層
這個我收藏了!謝謝分享!WK的資源越來越豐富,這少不了大大的辛勞!

尚未簽到

發表於 2018-9-8 19:26:12 來自手機 | 顯示全部樓層
感謝大大的辛勞分享!我會繼續在WK關注大大的文章!

尚未簽到

發表於 2018-9-8 22:16:49 來自手機 | 顯示全部樓層
感謝大大的辛勞分享!我會繼續在WK關注大大的文章!

尚未簽到

發表於 2018-9-9 01:08:31 | 顯示全部樓層
精妙絕倫的精品,感謝啊!期待你更多更好的創作哦!

尚未簽到

發表於 2018-9-9 03:54:39 | 顯示全部樓層
精妙絕倫的精品,感謝啊!期待你更多更好的創作哦!

尚未簽到

發表於 2018-9-9 06:39:00 | 顯示全部樓層
很讚的文章,謝謝咯!相信WK因為有你而更加精彩!

尚未簽到

發表於 2018-9-9 11:17:05 | 顯示全部樓層
絕對的好貼!謝謝啊!逐字逐圖地看完這個帖子以後,我的心久久不能平靜,感恩啊!

回復樓主 親!! 早上好! 心底有WK、心情就會飛翔,心中要個希望、笑容就會清爽!

 分享同時學會感恩,一句感謝的話語,就是最大的支持!  歡迎交流討論
您需要登錄後才可以回帖 登錄 | 立即注册

本版積分規則

c重要聲明:本論壇是以即時上載言論的方式運作,WK論壇對所有言論的真實性、立場及版權等,不負任何法律責任。而一切言論只代表發佈者個人意見,並非本網站之立場,讀者及用戶務必自行判斷內容之真實性。 由於本論壇受到「即時上載言論」運作方式所規限,故不能完全監察所有言論,若讀者及用戶發現有內容出現「真實性、立場及版權」等問題,請聯絡我們:info@waikeung.net論壇有權刪除任何言論(刪除前或不會作事先警告及通知)| SiteMap[網站地圖]

發表新帖 返回頂部