WK綜合論壇, WK综合论坛

查看:28386 回復:25 發表於 2018-9-9 11:17:05
本主題由 212love 於 2018-9-10 09:27 解除高亮
累計簽到︰1523 天
連續簽到︰11 天
發表於 2018-9-8 13:40:56 | 顯示全部樓層 |閱讀模式

下層人 Lowlife., 2017.[MKV / 9.6G] [複製鏈接]

影視分享
分類: 電影
題材: 劇情 喜劇 犯罪 
地區: 美國 
語言: 英语 
格式: MKV 
年份: 2017
資源: BT资源
1.jpg ; Z% i: z8 Z0 `* }
0 [4 p. K! U& R6 x. u0 N, P+ ~
◎译  名 下层人
+ ?3 c( w5 n' Z- K! `( l& u- ^1 m
◎片  名 Lowlife
* O! u! \2 O2 A% v/ R8 B, g2 Z
◎年  代 2017# l6 L7 ?; w' B9 V/ V  m. u
( M0 k6 ?% h/ h! t+ m, T# P% @
◎产  地 美国
: B& F' T+ b& t. R+ ]% O
7 A4 \$ ^' n) r1 \+ e◎类  别 剧情/喜剧/犯罪
8 A: f+ F6 t+ i! R$ K  r( J( h/ w! \# p. f, |
◎语  言 英语
+ b  W" d; f0 {& u! f' O4 ?! k/ \' x5 S+ I. h$ y) b
◎上映日期 2017-07(加拿大)
2 p$ |' U! S) a2 w- y; U+ m) y/ w
- @- H) F* O1 m% {◎片  长 96分钟2 p: V% R0 F% s" _4 V
3 X5 z$ I! |: ~) r) @
◎导  演 Ryan Prows
$ l8 B9 U3 n/ W. ]9 E* S" R' G9 \3 o6 l8 a7 e$ e
◎主  演 Nicki Micheaux; ^6 U$ @% A! ]5 e9 ]
! P3 E% A/ T4 G7 T& g/ P& N
      Ricardo Adam Zarate
) i2 s1 p1 n+ `0 |
' V& n7 ~* |& _' R5 t! ]      Jon Oswald5 q! W( c4 ?& D* P% c' t

% U) P* g  d; e# a5 [# S6 |  j  e% y% G* g

8 A3 K+ B5 b, |7 B: x◎简  介
, j2 P* P: P1 k/ Y# ?1 O
' o3 j1 G( z2 D; S5 q0 }
" a4 i2 p+ z" z
( E6 [% S9 C( A4 r/ ~5 @  The sordid lives of an addict, an ex-con, and a luchador collide when an organ harvesting caper goes very, very wrong.
' c7 k3 J* S/ j4 ^1 R! @
$ G9 m2 C9 l- Y: L+ T7 |6 q$ r, t) i2 U% F# T

6 N9 `) r1 S7 v, }- B& sVideo5 d" F$ B( {3 L( `+ y/ L
ID : 1  `& `* k, U, v
Format : AVC
) I+ M4 k9 h2 T" q0 GFormat/Info : Advanced Video Codec- Y( }6 Y& }. {5 `
Format profile : High@L4* a  O3 X8 A7 m% q
Format settings : CABAC / 4 Ref Frames9 Q) D( T, w' `3 k; _
Format settings, CABAC : Yes5 I: \4 _# x9 [$ ^9 n' x6 L0 Y. i
Format settings, ReFrames : 4 frames
& Z% O1 |- K; QCodec ID : V_MPEG4/ISO/AVC
9 j" J! j8 e5 ~5 ^8 kDuration : 1 h 36 min
- A, N8 S( y3 E, F) B" |4 G8 G1 eBit rate mode : Variable
: \( e$ Z+ p1 h" B: ZBit rate : 13.6 Mb/s
" h, C$ {, L4 vMaximum bit rate : 15.0 Mb/s
5 r' a# n( _+ P2 EWidth : 1 920 pixels7 T7 s$ j5 N1 X# M' e8 W+ \
Height : 800 pixels1 w. M" D* w  v6 L2 R) m
Display aspect ratio : 2.40:1- j7 A; |8 V( l7 D8 e2 z
Frame rate mode : Constant6 V- G5 B; G. H
Frame rate : 23.976 (24000/1001) FPS
  q4 J0 M/ t# b' SColor space : YUV
3 G0 h% {, e- X8 TChroma subsampling : 4:2:0
  D3 _6 a- g- q$ @5 O& BBit depth : 8 bits4 n2 r, A2 p& t$ T3 S+ c* y
Scan type : Progressive, O0 K2 J  W, n- [: L0 H1 n
Bits/(Pixel*Frame) : 0.370
$ |; `2 |, r, F, Y8 ?+ p" d4 SStream size : 9.16 GiB (95%). E/ X% k, A0 e+ l" f
Default : Yes; F: ^; W% J/ ]2 r
Forced : No
. g% y% B/ \: S  k' ZColor range : Limited- J) ~  O9 t* Z% E& `4 @5 K
Color primaries : BT.709; Q9 Z( ?1 h# l1 h3 t
Transfer characteristics : BT.709
* l7 s; ]  P- P8 B4 F' S  h$ }" k% oMatrix coefficients : BT.709
4 G2 J0 n* E: h  ?
+ o+ P9 i/ z1 ]' `4 fAudio+ f0 S8 D8 K3 p7 q* {$ {
ID : 2
  ~3 u3 g( Z  u/ ]0 SFormat : E-AC-3, A6 D# k; I. m' b
Format/Info : Enhanced Audio Coding 3
! P8 k* Z) d5 Y& B: v! S; {Codec ID : A_EAC3
8 J* l% Z( {& C! g: ^Duration : 1 h 36 min
/ l: G% ]2 m; [Bit rate mode : Constant, _& t: n# J. Y" i& j( `
Bit rate : 640 kb/s
4 b% L' Y$ q5 I4 z, TChannel(s) : 6 channels1 R; A1 s$ R- x3 t, a/ i
Channel positions : Front: L C R, Side: L R, LFE: r- j4 B1 `" o- M" Q/ Z
Sampling rate : 48.0 kHz
8 X: {/ C6 H+ a# }/ SFrame rate : 187.500 FPS (256 SPF)
* S: B" Q2 N0 ]  E- s2 ~Compression mode : Lossy& t. k) s# ^) }7 W# ]' I1 D
Stream size : 441 MiB (4%)
1 X0 l0 K, N  S) O% }; Z" wLanguage : English5 k( |, Q$ B8 \; i, h4 M
Service kind : Complete Main
; V% x% q. N. T* z7 }Default : Yes/ ^; F& r8 W  v: o
Forced : No4 K9 {! S! N/ X- o7 [
% Z- F! F# O% T8 J3 o
Text #1
9 p7 F, s* C$ c6 v6 Z( R/ ]$ VID : 3' K1 `( f9 v. @3 I; M2 g- V3 C
Format : UTF-8/ T$ Y  B- C: ?4 W
Codec ID : S_TEXT/UTF8
+ ?$ `6 C/ T& o3 G* }5 j- ]Codec ID/Info : UTF-8 Plain Text
0 @+ o2 ]' G& |4 @( S6 I" JDuration : 1 h 30 min
& W' y$ l; ]/ L7 ^Bit rate : 36 b/s7 O0 ^+ ]; W1 c; \
Count of elements : 885- b, K$ X% p* k- c" ]. j8 L
Stream size : 24.3 KiB (0%)
% N" L$ `9 u8 _( n4 k+ u4 wLanguage : English
3 C: t+ t* D) ]Default : No
& _+ H9 ~2 z% R& w8 D6 W4 sForced : No0 B4 A1 j5 ?- L! \% T4 w; I, S
- c: l1 _; N9 q/ H  I7 Z4 ~$ F
Text #29 N0 w# Q9 c& M. F
ID : 4. @' H( C/ A5 }* B- e1 D2 q
Format : UTF-8
7 U( g5 z3 z6 m6 a3 L+ QCodec ID : S_TEXT/UTF82 h9 N9 i6 l, x* B
Codec ID/Info : UTF-8 Plain Text5 u- L& k/ I3 R2 `2 k
Duration : 1 h 35 min
( K6 b, n5 u3 |. }Bit rate : 42 b/s6 k% x8 p5 K) Q
Count of elements : 1186
+ y% B0 c& r+ J5 e8 o# cStream size : 29.3 KiB (0%)" R2 Y6 F4 q/ b8 {2 G
Title : SDH
: ~0 D* s3 I- \0 ZLanguage : English  ^; C5 @6 r- B. f: Y3 a# T
Default : No
0 {7 u5 ]4 V6 s; A1 MForced : No

4 n' S/ b4 E: E# {" P2 Z
0 X- q3 E& w. }# j  W3 y  i" }$ f5 g, C; t7 n7 c0 U  W

下層人. MKV.torrent

96.49 KB, 下載次數: 982

尚未簽到

發表於 2018-9-8 13:41:58 來自手機 | 顯示全部樓層
絕對的好貼!謝謝啊!逐字逐圖地看完這個帖子以後,我的心久久不能平靜,感恩啊!

尚未簽到

發表於 2018-9-8 16:36:03 | 顯示全部樓層
絕對的好貼!謝謝啊!逐字逐圖地看完這個帖子以後,我的心久久不能平靜,感恩啊!

尚未簽到

發表於 2018-9-8 16:36:05 | 顯示全部樓層
這個我收藏了!謝謝分享!WK的資源越來越豐富,這少不了大大的辛勞!

尚未簽到

發表於 2018-9-8 19:26:12 來自手機 | 顯示全部樓層
感謝大大的辛勞分享!我會繼續在WK關注大大的文章!

尚未簽到

發表於 2018-9-8 22:16:49 來自手機 | 顯示全部樓層
感謝大大的辛勞分享!我會繼續在WK關注大大的文章!

尚未簽到

發表於 2018-9-9 01:08:31 | 顯示全部樓層
精妙絕倫的精品,感謝啊!期待你更多更好的創作哦!

尚未簽到

發表於 2018-9-9 03:54:39 | 顯示全部樓層
精妙絕倫的精品,感謝啊!期待你更多更好的創作哦!

尚未簽到

發表於 2018-9-9 06:39:00 | 顯示全部樓層
很讚的文章,謝謝咯!相信WK因為有你而更加精彩!

尚未簽到

發表於 2018-9-9 11:17:05 | 顯示全部樓層
絕對的好貼!謝謝啊!逐字逐圖地看完這個帖子以後,我的心久久不能平靜,感恩啊!

回復樓主 親!! 現在是後半夜!妳失眠啦?餓啦?通宵加班?還是想WK啦?

 分享同時學會感恩,一句感謝的話語,就是最大的支持!  歡迎交流討論
您需要登錄後才可以回帖 登錄 | 立即注册

本版積分規則

c重要聲明:本論壇是以即時上載言論的方式運作,WK論壇對所有言論的真實性、立場及版權等,不負任何法律責任。而一切言論只代表發佈者個人意見,並非本網站之立場,讀者及用戶務必自行判斷內容之真實性。 由於本論壇受到「即時上載言論」運作方式所規限,故不能完全監察所有言論,若讀者及用戶發現有內容出現「真實性、立場及版權」等問題,請聯絡我們:info@waikeung.net論壇有權刪除任何言論(刪除前或不會作事先警告及通知)| SiteMap[網站地圖]

發表新帖 返回頂部