WK綜合論壇, WK综合论坛

查看:90888 回復:24 發表於 2018-10-12 09:18:54
本主題由 212love 於 2018-10-13 10:08 解除高亮
累計簽到︰1604 天
連續簽到︰13 天
發表於 2018-10-11 09:28:17 | 顯示全部樓層 |閱讀模式

地球脈動 第二季 Planet Earth Season 2, [MKV /97.95GB] 简体字幕 [複製鏈接]

影視分享
分類: 紀錄片
題材: 其它 
地區: 英國 
語言: 中文字幕 英语 
格式: MKV 
年份: 2016
資源: BT资源
1.jpg " f  Y1 ~! Y: |

/ z5 P3 G5 H% ], w( u
0 z- j2 u; M+ E" U& S[地球脉动 第二季/行星地球 第二季 Planet Earth Season 2][BluRay.x265.10bit.SDR.DTS-HD.MA.5.1][2160P][97.95GB]
# @+ X/ k( K  W% {4 T! D! h& |◎译  名 地球脉动 第二季/行星地球 第二季/我们的地球 第二季/地球无限 第二季
4 G) y, v$ g. R+ b& v- |) g◎片  名 Planet Earth Season 2
4 t' Q: L( g6 g- T. z0 S! Q! R◎年  代 2016) m" P" O" S4 B- |) v
◎产  地 英国
% S0 }7 U* S, f◎类  别 纪录片
& A0 e" U/ \5 a◎语  言 英语# D2 H2 I: P' @& i0 n
◎上映日期 2016-11-06(英国)
: r3 O; f8 Z3 |3 P2 l& a◎IMDb评分  9.6/10 from 38,788 users
+ e% E1 `8 `, Y: Y4 S  V' D% I: j◎IMDb链接  http://www.imdb.com/title/tt5491994/
# i9 G1 O. \% X3 w& P6 c( m◎豆瓣评分 9.9/10 from 27,833 users
% s, w: h0 T# S◎豆瓣链接 https://movie.douban.com/subject/26733371/
& r8 a8 _' u" V) t- m1 y6 w◎集  数 6! w* c; L* I& Z. W" e# _
◎片  长 50分钟
: {8 G( `$ t) n1 ]" ^  C0 y◎主  演 戴维·阿滕伯勒 David Attenborough
8 [! L# X8 a* |  `◎英配解说:        大卫·爱登堡5 w+ s4 _# A% |2 p& y
◎简  介9 C8 ~% g- c% D# X7 `* {) H9 W) d# M

% t8 m* i5 r% v5 U& k6 O) P$ T  据外媒The Atlantic 报道,《地球脉动2》将在今年晚些时候正式播出,并继续由英国生物学家David Attenborough担任旁白。
# e# ~3 ?6 _+ p4 k5 M9 `: w# N+ n  “在2006年播出时,首次全程采用高清摄像机拍摄的《地球脉动》是当时BBC摄制成本最高的一部纪录片。《地球脉动2》将运用同样的前瞻性思维,在过去三年中我们采用超高清4K摄影机拍摄,同时使用了无人机和远程控制拍摄技术。 《地球脉动2》播出后极有可能成为4K电视机的助推器。”$ p) d! o0 x8 s  Y& y- z2 w
  据悉,《地球脉动》第二季将分为6个系列片。 
6 h5 C3 I3 t0 ], F! _! H! H7 W4 f: F- `
2.jpg
- G' c/ N8 z7 F- |* x( ^- v5 N+ I
3.jpg ( o+ G6 Z- Q8 p) G  S% O" K; |
. m+ h$ r4 r, @# ?
4.jpg
- l' G4 l% I+ R; f: H& o: h; @/ a0 H+ l' [, A5 j" I
5.jpg
/ B' \3 d. q$ ~8 A( N, a$ h7 o" m, [
6.jpg ' t! d3 u# w! l2 f, U! y

  _; u9 V+ t& H1 M. ~ 7.jpg ; l3 z2 b/ f+ V8 D4 n  j! }9 k
' e! L$ N$ t1 m9 N* j: w
8.jpg
8 g6 ?+ Q: v5 F; x5 ^6 w
( [9 A0 r, X- ?* R! S' z. @4 q 9.jpg
8 r8 P6 [- l" {  o2 v) k4 B4 k8 c& o2 m8 [
10.jpg
1 ?! K' P( U. V' |$ c) U# u. \) y" v# U7 P! g6 s; E, [
11.jpg " q6 K  I: \. d- {

' S! b( s0 W3 k. n- i' D( T' \5 s- C
Video
& L: F1 N% d- C3 f% O% m' U( ?ID                                       : 1) }1 J. }  D. O0 a, F8 r' g& J
Format                                   : HEVC
9 k! T9 H2 H0 d# o6 pFormat/Info                              : High Efficiency Video Coding4 I+ E. p' `; W% _! d2 p
Format profile                           : Main 10@L5.1@High& H  J1 R2 |% r9 b6 p4 B" J
Codec ID                                 : V_MPEGH/ISO/HEVC
" e$ [- m) R; r  O- ^" w9 I/ ?% pDuration                                 : 52 min 12 s
( N8 {: X4 ~# @Bit rate                                 : 48.2 Mb/s
% R  [& g8 {$ `. q2 o" w- H; vWidth                                    : 3 840 pixels
! Y, g  S/ p' t) p( p! V3 oHeight                                   : 2 160 pixels# f. \8 a+ V- K- ~- p
Display aspect ratio                     : 16:9, K! H; g5 ~1 [  b/ v
Frame rate mode                          : Constant; {" d# M3 |+ M
Frame rate                               : 23.976 (24000/1001) FPS$ m; N' e6 n, B# U
Color space                              : YUV" t' R  c- c  M0 G, V" B
Chroma subsampling                       : 4:2:0+ h' M: @: g  x1 X4 R! r( b. k, u
Bit depth                                : 10 bits! d9 _3 S1 A% E
Bits/(Pixel*Frame)                       : 0.242
$ q" R3 B) p. t7 z5 JStream size                              : 17.6 GiB (94%)
2 D) g0 o& [+ h% d/ B" b5 oTitle                                    : Planet.Earth.II.S01E03.Jungles.2160p.BluRay.x265.10bit.SDR.DTS-HD.MA.5.1-SWTYBLZ
5 x/ U4 y0 W4 p" k7 iWriting library                          : x265 2.5+4-b4a5bcfe29c7:[Windows][GCC 4.9.3][64 bit] 10bit, E& F1 p! X7 K- y1 J
Encoding settings                        : cpuid=1173503 / frame-threads=16 / numa-pools=20 / wpp / no-pmode / no-pme / no-psnr / no-ssim / log-level=2 / input-csp=1 / input-res=3840x2160 / interlace=0 / total-frames=0 / level-idc=51 / high-tier=1 / uhd-bd=0 / ref=3 / no-allow-non-conformance / repeat-headers / annexb / aud / hrd / info / hash=0 / no-temporal-layers / no-open-gop / min-keyint=1 / keyint=24 / bframes=4 / b-adapt=2 / b-pyramid / bframe-bias=0 / rc-lookahead=25 / lookahead-slices=4 / scenecut=40 / no-intra-refresh / ctu=64 / min-cu-size=8 / no-rect / no-amp / max-tu-size=32 / tu-inter-depth=1 / tu-intra-depth=1 / limit-tu=0 / rdoq-level=0 / dynamic-rd=0.00 / no-ssim-rd / signhide / no-tskip / nr-intra=0 / nr-inter=0 / no-constrained-intra / strong-intra-smoothing / max-merge=2 / limit-refs=3 / no-limit-modes / me=1 / subme=2 / merange=57 / temporal-mvp / weightp / no-weightb / no-analyze-src-pics / deblock=0:0 / no-sao / no-sao-non-deblock / rd=3 / no-early-skip / rskip / no-fast-intra / no-tskip-fast / no-cu-lossless / no-b-intra / rdpenalty=0 / psy-rd=2.00 / psy-rdoq=0.00 / no-rd-refine / analysis-reuse-mode=0 / no-lossless / cbqpoffs=0 / crqpoffs=0 / rc=crf / crf=16.0 / qcomp=0.60 / qpstep=4 / stats-write=0 / stats-read=0 / vbv-maxrate=160000 / vbv-bufsize=160000 / vbv-init=0.9 / crf-max=0.0 / crf-min=0.0 / ipratio=1.40 / pbratio=1.30 / aq-mode=1 / aq-strength=1.00 / cutree / zone-count=0 / no-strict-cbr / qg-size=32 / no-rc-grain / qpmax=69 / qpmin=0 / no-const-vbv / sar=1 / overscan=0 / videoformat=5 / range=0 / colorprim=2 / transfer=2 / colormatrix=2 / chromaloc=0 / display-window=0 / max-cll=0,0 / min-luma=0 / max-luma=1023 / log2-max-poc-lsb=8 / vui-timing-info / vui-hrd-info / slices=1 / opt-qp-pps / opt-ref-list-length-pps / no-multi-pass-opt-rps / scenecut-bias=0.05 / no-opt-cu-delta-qp / no-aq-motion / no-hdr / no-hdr-opt / no-dhdr10-opt / analysis-reuse-level=5 / scale-factor=0 / refine-intra=0 / refine-inter=0 / refine-mv=0 / no-limit-sao / ctu-info=0
( G/ d0 P5 {% mLanguage                                 : English
; Z7 I  |! U: C/ Z8 ]$ J* X4 O; t3 V. WDefault                                  : Yes* O7 D4 G4 Y: H% W& L7 ?: c
Forced                                   : No
, N9 ~5 m$ h  U8 P* J
& y8 w# g9 ]$ ]9 m! J7 m7 C) `- @Audio #1
+ }0 l5 r+ P2 o6 E. O$ EID                                       : 2
# Y4 U" T# m& h( Z' l/ w' n, iFormat                                   : DTS
# s' [: [, k1 I! r, q' [8 [' LFormat/Info                              : Digital Theater Systems: W. b, G9 R8 I% T- }6 j" r( n
Format profile                           : MA / Core/ s- m) c$ X2 J3 _1 F1 s
Mode                                     : 160 ]) d# N! h4 n! v
Format settings, Endianness              : Big
4 u& p( Y" E, y; e) e1 @Codec ID                                 : A_DTS- H% P# j# ^* k+ ]' N
Duration                                 : 52 min 12 s
& e) d) o/ `2 m; J+ lBit rate mode                            : Variable / Constant1 I0 Q6 K' X) s
Bit rate                                 : 2 290 kb/s / 1 509 kb/s. m: L* ~+ u0 G, H
Channel(s)                               : 6 channels5 E, o- S3 B' G/ u: J! k! i2 X
Channel positions                        : Front: L C R, Side: L R, LFE
7 T' m* a' E" F* O. v) Q# L( Z: SSampling rate                            : 48.0 kHz
  X9 C' |7 K8 v$ c2 W8 zFrame rate                               : 93.750 FPS (512 spf)
2 ?1 u) [# \# k, H4 _1 K/ nBit depth                                : 16 bits' [7 b, W* |# {& ?1 X  Q
Compression mode                         : Lossless / Lossy
$ j! \: s# F# \6 e* JStream size                              : 855 MiB (4%)* v, F2 n+ w( J- |
Title                                    : Planet.Earth.II.S01E03.Jungles.2160p.BluRay.x265.10bit.SDR.DTS-HD.MA.5.1-SWTYBLZ1 c3 d( i# U% x
Language                                 : English
! n% g- V: Y8 U% @! X! e8 Q! tDefault                                  : Yes
% h( @. ]& z2 w' @' R% NForced                                   : No
( j# y. e, y! `- v: x- [. `/ t2 c* q1 |) I) M
Audio #2, F4 u# B; ]" L. q0 \8 F1 l- u
ID                                       : 3: m, r8 B* s- G+ r( i: q/ e
Format                                   : AC-3
/ E7 r8 M9 M% Z5 V; z2 bFormat/Info                              : Audio Coding 3
; s: H& a5 j  E. G: H9 OFormat settings, Endianness              : Big
3 l  e# {% L+ M( e9 }; rCodec ID                                 : A_AC3
0 D6 X9 _% A- k3 M3 NDuration                                 : 52 min 12 s3 j0 X7 n6 f  h
Bit rate mode                            : Constant
: K% D& C6 Y& f6 e' @9 x6 hBit rate                                 : 640 kb/s
; v$ d. S' M+ [9 D% U- I1 yChannel(s)                               : 6 channels
; T6 r( D% o" y; O) }; E4 gChannel positions                        : Front: L C R, Side: L R, LFE
9 c; @; L4 d/ ]8 F) J8 r: rSampling rate                            : 48.0 kHz
9 E% `0 [1 F9 x, \5 iFrame rate                               : 31.250 FPS (1536 spf)/ Z! ], z/ B9 I: B* c' C
Bit depth                                : 16 bits& {& \4 |! o1 E$ F1 U* a
Compression mode                         : Lossy
: E. j2 N) `" z  \/ f% v) ZStream size                              : 239 MiB (1%)
/ |! q4 ]- m, w4 U# g3 {Title                                    : Planet.Earth.II.S01E03.Jungles.2160p.BluRay.x265.10bit.SDR.DTS-HD.MA.5.1-SWTYBLZ; @  l( E9 j  T3 b0 N
Language                                 : English- _& o- x0 O7 V+ ]8 f
Service kind                             : Complete Main3 o) [5 _6 m9 i
Default                                  : No5 s& @& D0 u4 O; J
Forced                                   : No1 }8 ~4 j0 P/ n+ _
: f0 a, s" l4 Z5 A: k6 z0 c
Text #1* I7 v" C, }# Y/ o( W
ID                                       : 4" `0 E: T2 Y* j6 f; }7 n
Format                                   : UTF-8
" E) X+ ?% h  lCodec ID                                 : S_TEXT/UTF8
$ ^6 z0 `# x. e$ [Codec ID/Info                            : UTF-8 Plain Text
! g4 W* F" r0 }6 \# i. aDuration                                 : 50 min 51 s  D9 n8 r/ h" \
Bit rate                                 : 44 b/s
) B# p6 w8 z: r. r, v, h" jCount of elements                        : 365. o: |- |/ G8 |+ p/ g! M7 p. d
Stream size                              : 16.6 KiB (0%)3 V* R: I- n2 x1 t! v* q
Title                                    : English-SRT
; [/ y  ^- V& H9 Q) s. sLanguage                                 : English
) ~, S6 D# o% ?! \; \! G( m& fDefault                                  : Yes
, V0 q4 \: N& ~5 ?. n8 @. EForced                                   : No
2 H  }  r1 s5 g/ K/ P2 a/ u
# D; i1 P! _& ^Text #2! S" u3 u- J  T! b
ID                                       : 5
6 K- x# ]2 n, x% i; B- XFormat                                   : PGS
" s- d; t4 w0 y9 M, x% z8 ?: F/ ZMuxing mode                              : zlib
8 E! x4 a% K" v, w% YCodec ID                                 : S_HDMV/PGS; d- Y. O4 x+ Y: l( e
Codec ID/Info                            : Picture based subtitle format used on BDs/HD-DVDs; m; k7 L3 I# K7 W, R5 t
Duration                                 : 51 min 30 s
0 {5 b* x& d: \7 G) x8 A9 [Bit rate                                 : 26.2 kb/s6 s0 p- w0 g/ s7 n0 Z
Count of elements                        : 7706 h* N* Z- I7 y$ G# p  u
Stream size                              : 9.64 MiB (0%)
5 r/ p- ]+ F# A- aTitle                                    : English-PGS0 z' g7 n) p9 B0 V# T3 l0 g* X/ S
Language                                 : English
; c+ U9 M( X$ V: UDefault                                  : No( z/ H$ P. E. z# `
Forced                                   : No5 |6 s6 e4 c0 O, }
) r2 S* \$ E4 ]) d1 s
Menu
5 |" |7 \& l) A6 V( b; W/ ]00:00:00.000                             : en:Chapter 1/ u  X6 {9 [. G) Y$ M
00:12:08.519                             : en:Chapter 2& `6 A- `* P, R8 H
00:20:35.817                             : en:Chapter 3
* o% F0 {$ t& ]# [% B) c00:31:02.986                             : en:Chapter 4
8 x3 O' y( g0 j! w& {00:41:59.892                             : en:Chapter 5
3 Z& U1 ]  {% l# t7 X! R

地球脈動 第二季. MKV.torrent

257.69 KB, 下載次數: 312

尚未簽到

發表於 2018-10-11 09:30:20 | 顯示全部樓層
精妙絕倫的精品,感謝啊!期待你更多更好的創作哦!

尚未簽到

發表於 2018-10-11 11:59:54 | 顯示全部樓層
感謝大大的辛勞分享!我會繼續在WK關注大大的文章!
累計簽到︰1 天
連續簽到︰1 天
發表於 2018-10-11 13:17:58 來自手機 | 顯示全部樓層
偶像^^小生一直都在關注你的原創!小生對你之仰慕如滔滔江水連綿不絕!

尚未簽到

發表於 2018-10-11 13:18:02 | 顯示全部樓層
偶像^^小生一直都在關注你的原創!小生對你之仰慕如滔滔江水連綿不絕!

尚未簽到

發表於 2018-10-11 13:56:25 | 顯示全部樓層
偶像^^小生一直都在關注你的原創!小生對你之仰慕如滔滔江水連綿不絕!
累計簽到︰1673 天
連續簽到︰8 天
發表於 2018-10-11 18:46:06 | 顯示全部樓層
感謝大大的辛勞分享!我會繼續在WK關注大大的文章!

尚未簽到

發表於 2018-10-12 07:58:06 來自手機 | 顯示全部樓層
感謝大大的辛勞分享!我會繼續在WK關注大大的文章!

尚未簽到

發表於 2018-10-12 08:40:15 | 顯示全部樓層
精妙絕倫的精品,感謝啊!期待你更多更好的創作哦!

尚未簽到

發表於 2018-10-12 09:18:54 | 顯示全部樓層
精妙絕倫的精品,感謝啊!期待你更多更好的創作哦!

回復樓主 親!! 早上好! 心底有WK、心情就會飛翔,心中要個希望、笑容就會清爽!

 分享同時學會感恩,一句感謝的話語,就是最大的支持!  歡迎交流討論
您需要登錄後才可以回帖 登錄 | 立即注册

本版積分規則

c重要聲明:本論壇是以即時上載言論的方式運作,WK論壇對所有言論的真實性、立場及版權等,不負任何法律責任。而一切言論只代表發佈者個人意見,並非本網站之立場,讀者及用戶務必自行判斷內容之真實性。 由於本論壇受到「即時上載言論」運作方式所規限,故不能完全監察所有言論,若讀者及用戶發現有內容出現「真實性、立場及版權」等問題,請聯絡我們:info@waikeung.net論壇有權刪除任何言論(刪除前或不會作事先警告及通知)| SiteMap[網站地圖]

發表新帖 返回頂部