WK綜合論壇, WK综合论坛

查看:75 回復:2 發表於 6 天前
本主題由 212love 於 5 天前 刪除回復
累計簽到:2124 天
連續簽到:1 天
發表於 2021-1-10 10:38:50 | 顯示全部樓層 |閱讀模式
VIP精品區,資源無限好賺金任務區,輕松賺金幣
加入VIP,享受高級特權宣傳賺金又升級,超級棒

勇士迷蹤 The.Legion., 2020.[MKV / 4.38G] [複製鏈接]

影視分享
分類: 電影
題材: 動作 冒險 曆史 
地區: 美國 
語言: 英语 
格式: MKV 
年份: 2020
資源: BT资源
1.jpg
2 c3 ^3 S7 P: i: f8 J
+ X$ K5 |& f6 ?  V◎译  名 勇士迷踪/The Legion/军团的踪迹- ?# r/ |+ T% s
◎片  名 Legionnaire's Trail! O' l  p" {6 v0 e" T: I! }5 k
◎年  代 2020  m! q% Z: R" K1 ~7 ?: C+ F
◎产  地 美国# z4 j  j7 s* P
◎类  别 动作 / 历史 / 冒险6 ]  U/ h4 l' k, A
◎语  言 英语  o- h2 q% h( }8 R: L$ Q! j" C
◎上映日期 2020-05-08(美国)$ ?- l9 f7 B4 p7 e! a
◎IMDb评分 /10 from 527 users# B/ H6 F0 n& X% C& Z  v' V
◎IMDb链接 https://www.imdb.com/title/tt8318284/
2 |; {0 T+ K: ~# F: V◎豆瓣评分 /10 from 0 users
9 v' R+ |8 n. H* I◎豆瓣链接 https://movie.douban.com/subject/34445270/: t: G; |6 \; D
◎片  长 96分钟$ }5 v) ?2 n5 e
◎导  演 何塞·马根 Jose Magan
$ n! ^6 j) M" g. I: R◎编  剧 Alberto Vázquez Figueroa / 何塞·马根 Jose Magan9 P6 C7 D( h; W- Q& j& c
◎主  演 米基·洛克 Mickey Rourke
& f/ Z* t$ {+ ?- X% _& v5 s      白灵 Ling Bai( h6 q: \& o9 k3 ^& A& H) H% Z
      弗拉基米尔库利奇 Vladimir Kulich* v% |' U( I1 y# F$ k% A5 P# y
      乔昆姆·德·阿尔梅达 Joaquim de Almeida
0 K( \$ k1 B0 U/ m4 }- l2 C& b0 x      马克西姆·马特维耶夫 Maksim Matveev( F$ X7 W9 n* G7 s
/ N% Q6 N8 |3 q5 ]% L% W+ G
◎标  签 白灵 | 跑 | 米基洛基 | [歐美]) F/ G4 m& W) m% {" w  a, Y6 r
  t; }" M' |/ }
◎简  介 / l% |: m  Z4 U/ K5 C- w
8 n5 e& i0 H9 F9 m, O& X
  Nero's reign. The invasion of Parthia has been a fiasco. Two Roman legions have been brought to a stand still in the snowy mountains of Armenia, and the men are dying slowly in the cold. The rest of the Roman army is in Syria, only two weeks march away but the mountains swarm with Parthian patrols. Noreno, a half-Roman, is entrusted the mission of crossing the mountains to ask for help. However, he might not be the best option, he's an expert runner, but he despises Rome.
, i% k% U6 ], H7 L. ?& ~/ XVideo
% _1 _& J( L; C6 H- ]ID : 1  X. d) ]0 i# I; C# S; s2 O( v1 O4 @
Format : AVC9 f2 [1 y' z1 N& n4 L- `
Format/Info : Advanced Video Codec
2 f# H3 B, F6 U. ~7 T5 XFormat profile : [email protected]
2 H- G) R+ H4 x1 e$ R1 h9 X( s, WFormat settings : CABAC / 5 Ref Frames
4 e0 g1 h- k8 x' Q2 S7 ^  nFormat settings, CABAC : Yes
3 L2 d; a' g& ^9 ]9 |. |8 PFormat settings, Reference frames : 5 frames3 Y8 Z5 U8 K. I7 t. U- @  \7 W) E
Codec ID : V_MPEG4/ISO/AVC
% u7 e- c5 M7 g  o# FDuration : 1 h 35 min% h3 w* ]8 @! B$ L5 j7 s5 T0 F0 p- `
Bit rate : 4 803 kb/s
$ P, X: l+ K% b( M) h, q4 x5 IWidth : 1 920 pixels$ C; M# b9 Z+ w; e7 {
Height : 804 pixels
! e) c/ n) ^$ f- cDisplay aspect ratio : 2.40:1- ^- I# H2 C' K
Frame rate mode : Constant8 E9 Y9 l8 {7 |7 W, X( g: Z, a
Frame rate : 23.976 (24000/1001/189150) FPS! C  h& Z, X& a! y1 @7 R! r
Color space : YUV+ v* v! k" v) f& C8 G9 c) g7 j
Chroma subsampling : 4:2:0# j! N7 K3 X' ~
Bit depth : 8 bits& W/ a6 s1 k, k3 g: k& P8 i
Scan type : Progressive
/ \( k  O7 e& \6 hBits/(Pixel*Frame) : 0.1305 f1 a8 u% r  O, w) e; q
Stream size : 3.21 GiB (73%)$ Z0 S; w9 a+ T3 e# z
Writing library : x264 core 161 r3027 4121277
: A% |! @5 q- \) \# D2 E, i; \  v$ GEncoding settings : cabac=1 / ref=5 / deblock=1:-3:-3 / analyse=0x3:0x133 / me=umh / subme=9 / psy=1 / psy_rd=1.00:0.00 / mixed_ref=1 / me_range=16 / chroma_me=1 / trellis=2 / 8x8dct=1 / cqm=0 / deadzone=21,11 / fast_pskip=0 / chroma_qp_offset=-2 / threads=25 / lookahead_threads=2 / sliced_threads=0 / nr=0 / decimate=1 / interlaced=0 / bluray_compat=0 / constrained_intra=0 / bframes=3 / b_pyramid=2 / b_adapt=2 / b_bias=0 / direct=3 / weightb=1 / open_gop=0 / weightp=2 / keyint=250 / keyint_min=23 / scenecut=40 / intra_refresh=0 / rc_lookahead=60 / rc=crf / mbtree=1 / crf=17.0 / qcomp=0.60 / qpmin=0 / qpmax=69 / qpstep=4 / ip_ratio=1.40 / aq=1:1.00( f: d/ F2 L& L1 E; K4 h5 L
Language : English
" @0 A! r" f7 GDefault : Yes1 j: u6 ]5 u1 d+ k! `; v
Forced : No0 l+ M) L  `/ r7 v. t7 R
+ Q& {3 a# S9 u1 U# b- L+ Z1 q+ Y1 V1 _
Audio
/ ~# {& |, H% W" c4 w) W+ X: SID : 21 z5 f1 m+ X5 P# x! C
Format : DTS XLL  V8 w+ {% a: i
Format/Info : Digital Theater Systems
0 \, J0 _+ t& C4 DCommercial name : DTS-HD Master Audio* G( j: Z8 F/ D- e8 s& @- A' ?0 p* e
Codec ID : A_DTS
8 B* h& k3 g1 b" A! q  a! `Duration : 1 h 35 min! v5 y" M: z/ }/ s( c8 \% c/ [
Bit rate mode : Variable/ Z0 g; ^. T2 L, {5 d' Z- s
Bit rate : 1 732 kb/s
4 L2 _3 T7 \+ [$ c" `2 h/ }Channel(s) : 6 channels
& T$ x( c: \/ r- C0 iChannel layout : C L R Ls Rs LFE9 [! [/ E) H0 k5 a
Sampling rate : 48.0 kHz
5 E/ M) T3 Y8 X2 FFrame rate : 93.750 FPS (512 SPF)  L, S8 u5 C% a; V; w
Bit depth : 16 bits
' m  n! Q9 p7 b" cCompression mode : Lossless& P2 v  e5 t: d) ?5 A
Stream size : 1.16 GiB (26%)* G# N) Z9 ]' C, f) J& r
Language : English
2 b' R7 ?3 d1 G0 FDefault : Yes2 T0 K4 g  ?7 E
Forced : No* I+ A4 d/ ?+ R

+ l. u+ @" b: ~) ZText& |. s5 n! V$ L# o7 _- y
ID : 3
. w( u5 p, b8 E& P1 R$ n4 u- }Format : PGS
# j6 D$ e. f% Y( P( f# z5 @" {% |) zMuxing mode : zlib$ n1 V3 I# {# l* W8 j( w8 c' T# p
Codec ID : S_HDMV/PGS
- r( A4 C# Y# c8 ^, h! Y; N. F: dCodec ID/Info : Picture based subtitle format used on BDs/HD-DVDs6 e; ]0 l7 X: p( z* O" ?# l
Duration : 1 h 29 min
# m3 |  O- h9 D2 R4 JBit rate : 15.7 kb/s
$ U7 V4 i; ?+ w, n2 w& zCount of elements : 1009
, D0 K1 W# J/ S! D- p! s* A' bStream size : 10.1 MiB (0%)0 i( x' k0 Y! W+ {1 i
Language : German
( I  d% h4 f9 `, B, H1 Z8 ODefault : No
0 Y/ A! q6 R- j* [, h1 F/ H  qForced : No: [) C* D8 @0 n' w3 B3 b) ]$ m4 a
( [- @- y0 V) V) |6 Q9 K
Menu# S* K& j5 u( ?+ l
00:00:00.000 : en:Kapitel 01/ z; j3 J" Z9 Z) p* ?
00:04:11.084 : en:Kapitel 027 Q8 R* |) X/ w( a: q
00:11:20.430 : en:Kapitel 03
1 O. t6 f) v' x3 i9 g0 G8 o00:21:18.694 : en:Kapitel 04% q0 }3 t9 C, f0 Z5 u
00:28:52.105 : en:Kapitel 05, e( @( J$ p" U
00:37:21.448 : en:Kapitel 06
/ j/ R1 C3 G, o00:43:15.384 : en:Kapitel 07
& z% j: T. R; L: D+ `" r5 @00:46:50.099 : en:Kapitel 08
2 z+ U" g9 d7 z" L- Y9 e1 P& ]00:54:44.990 : en:Kapitel 09
! m: X  ]6 R0 M9 E01:05:41.229 : en:Kapitel 106 Z7 E( {+ B% Q. R* [
01:17:22.471 : en:Kapitel 11
/ X' c2 V6 b* I- Q& ?8 u01:30:39.100 : en:Kapitel 12
* H( d: k8 m! ~$ P6 ?+ Y6 ^. Z  ?
+ A4 a0 s" q( I5 Q

' E: o! X1 @# T( Y

勇士迷蹤. MKV.torrent

44.41 KB, 下載次數: 45

累計簽到:2 天
連續簽到:1 天
發表於 2021-1-10 17:15:35 | 顯示全部樓層
VIP精品區,資源無限好賺金任務區,輕松賺金幣
加入VIP,享受高級特權宣傳賺金又升級,超級棒
感謝大大的辛勞分享!我會繼續在WK關注大大的文章!

尚未簽到

發表於 6 天前 | 顯示全部樓層
相信WK因為有你而更加精彩!

回復樓主 親!! 現在是後半夜!妳失眠啦?餓啦?通宵加班?還是想WK啦?

 分享同時學會感恩,一句感謝的話語,就是最大的支持!  歡迎交流討論
您需要登錄後才可以回帖 登錄 | 立即注册

本版積分規則

c重要聲明:本論壇是以即時上載言論的方式運作,WK論壇對所有言論的真實性、立場及版權等,不負任何法律責任。而一切言論只代表發佈者個人意見,並非本網站之立場,讀者及用戶務必自行判斷內容之真實性。 由於本論壇受到「即時上載言論」運作方式所規限,故不能完全監察所有言論,若讀者及用戶發現有內容出現「真實性、立場及版權」等問題,請聯絡我們:[email protected]論壇有權刪除任何言論(刪除前或不會作事先警告及通知)| SiteMap[網站地圖]

發表新帖 返回頂部