WK綜合論壇, WK综合论坛

查看:194 回復:1 發表於 2021-4-9 09:19:06
本主題由 212love 於 7 天前 解除高亮
累計簽到:2126 天
連續簽到:2 天
發表於 2021-4-7 13:13:10 | 顯示全部樓層 |閱讀模式
VIP精品區,資源無限好賺金任務區,輕松賺金幣
加入VIP,享受高級特權宣傳賺金又升級,超級棒

無處可避 Rose., 2020.[MKV / 3.97G] 1080p [複製鏈接]

影視分享
分類: 電影
題材: 恐怖 
地區: 英國 
語言: 英语 
格式: MKV 
年份: 2020
資源: BT资源
1.jpg
+ t: Y* s1 X; @9 X, N2 L. t
2 `* r9 e3 u! M- r+ ^7 B  u◎译  名 无处可避/Rose: A Love Story( @! {+ B. ^1 g# x
◎片  名 Rose& Q( y8 X: R/ z0 Y4 W( o8 o4 R5 }
◎年  代 20205 C6 o$ z' q3 {1 n/ n8 u* z
◎产  地 英国
+ d. Z# U. `" ]0 Y5 t6 q◎类  别 恐怖/ `; |7 u4 F8 {3 ?
◎语  言 英语8 T& ?- T+ V0 U( O9 n$ U
◎上映日期 2020-10-13(英国)
9 i0 @/ B+ y. m5 @+ ]. A$ V7 X◎IMDb评分 7.2/10 from 60 users# X% x3 [: n* z6 G: A  c- N
◎IMDb链接 https://www.imdb.com/title/tt9643228/5 R  G: o9 r* y  A$ w
◎豆瓣评分 /10 from 0 users
  n! R+ w- }; w◎豆瓣链接 https://movie.douban.com/subject/34607685/9 Z( n: h4 Q% r! ]
◎片  长 86分钟
7 f! f6 j) k! J# w- h, g◎编  剧 马特·斯托克 Matt Stokoe+ f' b5 R# @. m% v0 M' p
◎主  演 苏菲·兰朵 Sophie Rundle
; H+ U0 [5 L4 W      内森·麦克伦 Nathan McMullen
3 U" y- t2 F- v6 w0 T" N      马特·斯托克 Matt Stokoe
6 t* C0 P7 C2 j      奥利维亚·格兰特 Olivia Grant
1 V+ n" B* V& e$ t
) B) {0 [7 @/ D8 j9 q( n7 W◎标  签 英国电影 | 苏菲兰格 | 恐怖. i7 {7 Y' n  d" C3 Q
4 `4 I) A/ G2 }+ \
◎简  介
1 r  e8 e* A' G* d) w7 J& Q, l& m- o0 ?
  Gripped by a violent, terrifying illness, Rose lives in seclusion with her husband, but the arrival of a stranger shatters the fragile refuge they have built.
, [; I& C6 l, w. _, y$ \) f* _' P, l+ R( A1 s
◎获奖情况2 l6 l9 L& l  ]0 D* r  T2 a

9 p- r7 W- }  p* o; z  第23届英国独立电影奖 ?(2020)
0 F0 h( W% I9 d  瑞丹斯奖(提名)
9 W$ y4 k9 P+ G- U: M% K) {3 Y8 {Video
7 b2 v/ b3 r- {6 n$ x4 m) {, F2 [ID : 1' ~% n4 m6 w) m8 d' v$ @+ R3 D/ B
Format : AVC& N# ~3 L# j: W. P
Format/Info : Advanced Video Codec1 u8 T$ f( Z% i0 l
Format profile : [email protected]
+ }* K7 ^7 u* b4 c! m4 G! fFormat settings : CABAC / 4 Ref Frames
- q5 r' X% `& {' {' EFormat settings, CABAC : Yes/ m* ?( E. R$ W1 F
Format settings, Reference frames : 4 frames% r7 u1 B' M9 s& |8 K
Codec ID : V_MPEG4/ISO/AVC8 b6 ]) p7 W! y- ~$ p
Duration : 1 h 26 min+ ?/ _8 @2 Y* f9 N
Bit rate mode : Constant+ k$ Q  H' j! g4 y0 G4 d3 @
Bit rate : 5 926 kb/s. D6 Y0 a7 y2 W( _2 D3 g5 x5 {
Nominal bit rate : 10 000 kb/s
) ?) O, A# [1 R8 iWidth : 1 920 pixels
5 o" z9 i, f4 [/ T  d5 IHeight : 1 080 pixels
# X/ s- f0 W+ `% q. W: g! k- }Display aspect ratio : 16:9
/ j' _: t) N& v- n3 m3 O, JFrame rate mode : Constant/ t8 A1 ]& S( h6 T/ E( b
Frame rate : 24.000 FPS) a' Q) @: r8 C& M6 t( l8 @8 t
Color space : YUV/ D( O* H, g5 R, \9 f  `4 t
Chroma subsampling : 4:2:0- k7 t% W+ n9 J7 ]4 z/ j, Q9 F
Bit depth : 8 bits6 |: w/ L. a3 K6 {9 H
Scan type : Progressive( a; `9 A/ g- G" S1 ~6 `1 K
Bits/(Pixel*Frame) : 0.1190 N+ ?6 q% @4 R: ]7 s
Stream size : 3.58 GiB (90%)
0 I' D& v# t; H4 uDefault : Yes
, \: g% j* v3 r& K# d. ?) t( ?Forced : No
/ P) O( W& D  u4 T. r0 V" _Color range : Limited. W% G3 V. c3 S
Color primaries : BT.709
) y$ s: s, j1 @0 O& Z1 u; jTransfer characteristics : BT.7090 V/ e: j) Q3 r0 Y( v% x  }
Matrix coefficients : BT.709
$ j1 F7 ~* d1 ^" _' g
8 g( D1 k3 H+ c8 }" X: `2 K% vAudio2 U+ G7 D: y7 J! S- f2 Y/ @, d0 @
ID : 2' F( E3 ]* a  z
Format : E-AC-3+ c. T: y$ u/ F  x3 m
Format/Info : Enhanced AC-3
9 Y* i9 Z' m- M. `; [; {Commercial name : Dolby Digital Plus) f3 Q, O# y! f$ x; }0 `
Codec ID : A_EAC3
  I% p0 B0 ?, H+ K0 SDuration : 1 h 26 min
4 u2 G# r7 L. A, ]6 {" lBit rate mode : Constant0 Q# ~  C: `. h! \
Bit rate : 640 kb/s
9 e2 L; S8 v3 {% b; I8 Q+ e% wChannel(s) : 6 channels0 s+ [) ?$ B6 A4 H
Channel layout : L R C LFE Ls Rs! ]1 @2 Y6 ^5 d
Sampling rate : 48.0 kHz
% F, B' i( [' E6 T7 r! @3 h. U: ~Frame rate : 31.250 FPS (1536 SPF)' ~# V. {. r: J
Compression mode : Lossy
/ B( M: W# v4 [/ C6 h# xStream size : 396 MiB (10%)" S1 g: U6 ?% `. {, }0 d% I
Language : English; m& ^+ t0 \: A# m1 B4 g
Service kind : Complete Main1 s+ c9 f$ e; V6 O
Default : Yes
3 y& f4 S* C1 x$ M& C0 SForced : No

" g$ U9 v' ?% M- y
: e7 ^# ]- b% j

無處可避 MKV.torrent

40.18 KB, 下載次數: 29

本帖點贊的會員︰

累計簽到:1036 天
連續簽到:134 天
發表於 2021-4-9 09:19:06 | 顯示全部樓層
VIP精品區,資源無限好賺金任務區,輕松賺金幣
加入VIP,享受高級特權宣傳賺金又升級,超級棒
辛苦了版主,謝謝您無私分享

回復樓主 親!! 下午好,中午養足了精神嗎?讓我們一起渡過下午茶時間,WK有您更精彩!

 分享同時學會感恩,一句感謝的話語,就是最大的支持!  歡迎交流討論
您需要登錄後才可以回帖 登錄 | 立即注册

本版積分規則

c重要聲明:本論壇是以即時上載言論的方式運作,WK論壇對所有言論的真實性、立場及版權等,不負任何法律責任。而一切言論只代表發佈者個人意見,並非本網站之立場,讀者及用戶務必自行判斷內容之真實性。 由於本論壇受到「即時上載言論」運作方式所規限,故不能完全監察所有言論,若讀者及用戶發現有內容出現「真實性、立場及版權」等問題,請聯絡我們:[email protected]論壇有權刪除任何言論(刪除前或不會作事先警告及通知)| SiteMap[網站地圖]

發表新帖 返回頂部