WK綜合論壇, WK综合论坛

查看:2401 回復:26 發表於 2015-4-20 21:35:55
累計簽到︰172 天
連續簽到︰1 天
發表於 2015-3-31 17:52:51 | 顯示全部樓層 |閱讀模式

[欧美流行] Adele - Skyfall [複製鏈接]

64675332201304051025004022484854788_01.jpg 64675332201304051025004022484854788_003.jpg 64675332201304051025004022484854788_004.jpg , r+ @+ O2 k( c' H1 g2 m* X9 ]
5 q0 S2 e9 N" c- s& N" ^% I
/ _9 o  n5 Y! X. o4 V; P
Exact Audio Copy V1.0 beta 3 from 29. August 2011/ v4 y7 N( K7 ?2 n8 c" {
) n+ s/ k. X* \
EAC extraction logfile from 9. December 2012, 16:408 k5 k( i( |2 @' Q' o
0 i5 a7 e/ W# S9 ]/ d* B  A3 X$ Q
Adele / Skyfall) c& [0 x, g2 ?" u' T- [5 d7 P

$ V3 f5 f: G) r" }3 x# _Used drive  : hp      DVD RW AD-7581S   Adapter: 1  ID: 0
4 N3 N* x  @5 p" {3 _% r, K2 [* ]
+ F0 d( Q! s5 Q5 b' Z, |Read mode               : Secure* \/ m& o  D# s0 k! u" X$ W
Utilize accurate stream : Yes: T' f+ f& m4 s& [
Defeat audio cache      : Yes, q. l9 R8 _8 i% L# w
Make use of C2 pointers : No* S3 p" }& e% v7 `' u
; n& p$ k' e( D! j/ {
Read offset correction                      : 6
' B6 \0 |' C- v2 J+ W* ZOverread into Lead-In and Lead-Out          : No
% `) c7 r$ R7 v* E  F/ T% tFill up missing offset samples with silence : Yes# a/ g. r2 z+ E1 p7 r. T
Delete leading and trailing silent blocks   : No. G- S0 y8 n) f, N! p
Null samples used in CRC calculations       : Yes
0 X! O; g; }$ s3 k2 W2 eUsed interface                              : Native Win32 interface for Win NT & 2000) w3 x0 b  e# N

, c4 o! A5 C" w9 mUsed output format : Internal WAV Routines
- N/ P8 `8 r8 z( h& H/ @Sample format      : 44.100 Hz; 16 Bit; Stereo
$ V( E2 r5 |' o/ ]' O5 k9 g. y- h" u7 ]" w! x4 n+ C
. D; q( A% L; z- x2 d  m
TOC of the extracted CD
( G) w3 B2 i3 G0 z6 `( ]+ M+ J% I2 r& |4 E& i9 O( d. _
     Track |   Start  |  Length  | Start sector | End sector
7 _( L' |3 S) s; y6 K7 ?1 L9 R/ x    ---------------------------------------------------------
: j! }* k5 l7 J9 ?* B" @* l- L        1  |  0:00.00 |  4:49.05 |         0    |    21679   
* t* E, g+ C, }0 k4 \6 D  a( d( D  U        2  |  4:49.05 |  3:51.35 |     21680    |    39039   
: t. x( u3 R' A3 P0 I        3  |  8:40.40 |  4:03.63 |     39040    |    57327   
: C7 A8 X! c. w6 D+ }        4  | 12:44.28 |  3:32.52 |     57328    |    73279   & u7 G5 {, T6 [0 c5 V. l
        5  | 16:17.05 |  4:46.06 |     73280    |    94735   7 ]; m$ n9 ?- W7 ]+ u
        6  | 21:03.11 |  4:29.17 |     94736    |   114927   
* r) C7 O& K% m        7  | 25:32.28 |  4:03.63 |    114928    |   133215   
* o+ F4 ^9 q7 P        8  | 29:36.16 |  3:34.14 |    133216    |   149279   
9 A2 g- u8 ?! L& @6 Y        9  | 33:10.30 |  5:18.38 |    149280    |   173167   / N8 G! y# M, h, J" ?) W
       10  | 38:28.68 |  4:28.28 |    173168    |   193295   
0 i# s9 E9 {" f  f       11  | 42:57.21 |  3:45.37 |    193296    |   210207   " i) m2 [) e0 q) w
       12  | 46:42.58 |  3:19.35 |    210208    |   225167   , T5 O' z7 v- {
       13  | 50:02.18 |  4:11.07 |    225168    |   243999   
" Z0 u, Z- N5 Q3 ?       14  | 54:13.25 |  4:45.33 |    244000    |   265407   
8 h0 P8 h: R1 z
1 F; `$ `& q2 a/ b# {' {2 J6 @& u  F5 R3 J) l: g. l
Range status and errors; [& ?& {8 ?! ?; w2 z6 s8 A

! D, G0 e0 C0 w( x3 z; R4 ~. {( B9 @Selected range) ^7 ?6 O& L* q* H( Q
/ Q+ y. Y# w0 t1 z
     Filename F:\名盘经典\Adele - Skyfall\Adele - Skyfall.wav
* R7 M8 p. F$ H. [
) v6 T; N' p2 T- C7 U# E     Peak level 99.9 %" M1 [+ x4 @5 D; k
     Extraction speed 2.5 X! o9 T! K& ]. D! O" f  ~
     Range quality 99.9 %8 W+ O- h5 F0 C) n: z
     Copy CRC 32BEE540- i0 v2 v6 b3 ~! `7 |
     Copy OK
0 a1 u/ \* ?$ j( ~9 A5 p( D: w1 N& W' A4 D, [
No errors occurred4 R8 h: n/ p& O. [) Q

; F, B, Z" J- ]) L" b- \) I* l- t1 U: ?7 |/ R! S6 N6 ]
AccurateRip summary: r# e. I' d2 t) K/ u2 X

1 U( x3 B6 e$ z* |! qTrack  1  not present in database
1 E# S$ [" ?8 JTrack  2  not present in database9 g: V+ Z6 |/ D; w# U# G  @
Track  3  not present in database
7 n* x- a7 z" A- t1 a3 UTrack  4  not present in database
. I& o. y! [! Y- n8 uTrack  5  not present in database" z7 c/ @, S2 w. n5 T
Track  6  not present in database  x' O, W2 R6 o( [: D
Track  7  not present in database3 l- ]: X4 ^/ N& ]; g
Track  8  not present in database6 l+ P8 v7 R: A: [+ G' ~) Y
Track  9  not present in database; D4 R7 w& ?6 s7 K7 s2 `6 T4 K% A
Track 10  not present in database
5 a) w) p. B# p4 ]8 z( c2 iTrack 11  not present in database% R; c# J) {$ h
Track 12  not present in database) [# W/ D9 m0 c) ]9 S# O
Track 13  not present in database4 y/ S& H: |0 R; m, b' \
Track 14  not present in database
% H/ e9 w+ ~" {' J/ _4 g) ^  `3 k* i6 f
7 }$ d; X0 I( N, |None of the tracks are present in the AccurateRip database
3 T3 [. n  ]! ~' ?9 t
* x' C) p4 ?& ]1 F5 H, mEnd of status report, e, r/ o/ x7 ^, O

' A$ q- f- v+ @# Y+ |' d4 y! `' ^==== Log checksum 1DA5A47D072EB2D841A5F03EF8B76712B991E0178EE9C7026D2F8F03D8113950 ====
3 X  l: E2 N6 C+ N) _2 P, x
) K6 v( K0 D5 o  d( z4 [0 i% z" e, f/ L" f5 c

. m! g' w4 x7 h& W# D; T& b
遊客,如果您要查看本帖隱藏內容請回復
( f7 ?$ ]$ X6 L$ i) N, |+ w

- D$ e: c" Y* W

尚未簽到

發表於 2015-3-31 21:37:20 | 顯示全部樓層
great to have your work

尚未簽到

發表於 2015-3-31 21:43:47 | 顯示全部樓層
great to have your work

尚未簽到

發表於 2015-4-1 10:47:31 | 顯示全部樓層
不错,感谢楼主的无私分享,谢谢
累計簽到︰10 天
連續簽到︰1 天
發表於 2015-4-1 14:37:43 | 顯示全部樓層
這個我收藏了!謝謝分享!WK的資源越來越豐富

尚未簽到

發表於 2015-4-3 22:51:23 | 顯示全部樓層
: K$ u0 f& x# d7 h
這個我收藏了!謝謝分享!WK的資源越來越豐富

尚未簽到

發表於 2015-4-8 22:50:16 | 顯示全部樓層
$ I. b' \. [" m6 k
這個我收藏了!謝謝分享!WK的資源越來越豐富

尚未簽到

發表於 2015-4-14 10:57:46 | 顯示全部樓層
很讚的文章,謝謝咯!相信WK因為有你而更加精彩!
累計簽到︰4 天
連續簽到︰1 天
發表於 2015-4-20 21:35:55 | 顯示全部樓層
很讚的文章,謝謝咯!相信WK因為有你而更加精彩!

回復樓主 親!! 現在是後半夜!妳失眠啦?餓啦?通宵加班?還是想WK啦?

 分享同時學會感恩,一句感謝的話語,就是最大的支持!  歡迎交流討論
您需要登錄後才可以回帖 登錄 | 立即注册

本版積分規則

c重要聲明:本論壇是以即時上載言論的方式運作,WK論壇對所有言論的真實性、立場及版權等,不負任何法律責任。而一切言論只代表發佈者個人意見,並非本網站之立場,讀者及用戶務必自行判斷內容之真實性。 由於本論壇受到「即時上載言論」運作方式所規限,故不能完全監察所有言論,若讀者及用戶發現有內容出現「真實性、立場及版權」等問題,請聯絡我們:info@waikeung.net論壇有權刪除任何言論(刪除前或不會作事先警告及通知)| SiteMap[網站地圖]

發表新帖 返回頂部