WK綜合論壇, WK综合论坛

查看:3105 回復:26 發表於 2015-4-20 21:35:55
累計簽到︰172 天
連續簽到︰1 天
發表於 2015-3-31 17:52:51 | 顯示全部樓層 |閱讀模式

[欧美流行] Adele - Skyfall [複製鏈接]

64675332201304051025004022484854788_01.jpg 64675332201304051025004022484854788_003.jpg 64675332201304051025004022484854788_004.jpg
) L. J9 i. x: v- P# n$ O; x! R
, d" S7 Q+ S; j
. }! W4 k/ f$ d% a9 uExact Audio Copy V1.0 beta 3 from 29. August 2011' T$ @/ t/ f* s9 l
) l! ?7 p! m/ q7 n3 h
EAC extraction logfile from 9. December 2012, 16:40
9 w9 t  z# J+ Y
6 d- {4 H) l: \' k( a# JAdele / Skyfall
& d6 H# x$ M  R  N; w, ?0 O* Q: _: ?
Used drive  : hp      DVD RW AD-7581S   Adapter: 1  ID: 0! G9 a! Z5 c( x# k  @

& |" U3 U3 D8 s* q  KRead mode               : Secure
- H8 `0 E6 Y: K& Y8 r- @Utilize accurate stream : Yes+ M+ v$ }9 T% J/ p& t# _) j. n
Defeat audio cache      : Yes; U. j, f- E% g4 S0 x( K5 C6 a6 O+ I
Make use of C2 pointers : No/ G' c- E5 m$ X9 m% R

6 a) Y2 }. e5 ?9 m3 a/ KRead offset correction                      : 6
) B5 T: J0 K3 j* D6 W" f. UOverread into Lead-In and Lead-Out          : No
$ y7 l( V! S2 m1 MFill up missing offset samples with silence : Yes
: I9 m$ T! ?3 ADelete leading and trailing silent blocks   : No5 }0 Q8 ~! j$ T% y
Null samples used in CRC calculations       : Yes9 Y' b: [3 @( A1 J' @6 |! ]4 J  v
Used interface                              : Native Win32 interface for Win NT & 2000
' E( d9 e; {4 s% J5 A
6 l' l% f2 O+ s. b. WUsed output format : Internal WAV Routines
5 r) c( R' m  }  t& c. USample format      : 44.100 Hz; 16 Bit; Stereo
9 }. s( [3 ~" `& E& t) @" Y! I0 s2 Z/ o, b- w

' }6 H/ w1 p3 e. O& f; j5 M# zTOC of the extracted CD
4 d/ k" W; I4 n9 }% w
5 V+ t* T  R! X6 z  Z     Track |   Start  |  Length  | Start sector | End sector
' N# }/ {9 H1 @; T) n; ^3 {    ---------------------------------------------------------) l" H6 B) j1 e$ l, X; H) n. ~
        1  |  0:00.00 |  4:49.05 |         0    |    21679   ) D! \- Y7 Q( D0 Q  V, \8 i
        2  |  4:49.05 |  3:51.35 |     21680    |    39039   
( z6 t& c) w4 O8 F6 V$ b4 I! P        3  |  8:40.40 |  4:03.63 |     39040    |    57327   
3 w/ W+ p2 P. ^1 C0 [: k" D. Z        4  | 12:44.28 |  3:32.52 |     57328    |    73279   
6 t) |# w" D3 Y3 @) x- L  {        5  | 16:17.05 |  4:46.06 |     73280    |    94735   ' i/ J/ B% t: ^* [; X' z
        6  | 21:03.11 |  4:29.17 |     94736    |   114927   . ]* @+ y% r. ]9 [8 N" D
        7  | 25:32.28 |  4:03.63 |    114928    |   133215   ( \+ O; a3 w4 J+ D3 A' {
        8  | 29:36.16 |  3:34.14 |    133216    |   149279   2 J4 y8 p/ s; y! u3 E
        9  | 33:10.30 |  5:18.38 |    149280    |   173167   
& P& g/ B# W8 q0 j$ ?       10  | 38:28.68 |  4:28.28 |    173168    |   193295   
$ Z. s# q$ R5 K9 w4 y4 k/ j! ?       11  | 42:57.21 |  3:45.37 |    193296    |   210207   & y2 t7 F4 [: X9 }# Q
       12  | 46:42.58 |  3:19.35 |    210208    |   225167   
# D$ s' [4 t- |0 g% v" d; K       13  | 50:02.18 |  4:11.07 |    225168    |   243999   
9 ~5 v/ @: ?+ S       14  | 54:13.25 |  4:45.33 |    244000    |   265407   
) K. x( d3 M; U& |7 M6 k, Q& M. }" j) V
: n, J/ W0 ~5 W! {, c& m: Y& M
Range status and errors
( M0 V* \8 x8 q  }
$ K4 ^! M! M" R3 TSelected range! m9 ]- j5 F) W* V- M

. p; X7 p, x. V( W3 b     Filename F:\名盘经典\Adele - Skyfall\Adele - Skyfall.wav. `6 k, f8 N1 J# m/ s+ |; G# p1 R& h
: g" r+ I- _( z
     Peak level 99.9 %! P% a4 |$ \% S6 O/ ~% c
     Extraction speed 2.5 X: D7 p! m6 N! B
     Range quality 99.9 %' S# i7 n7 _  H# M# G  g
     Copy CRC 32BEE540
* y, R2 i$ }7 ?, u     Copy OK- m- M- @- Y. R5 m
3 x/ w* ~, n$ M0 x
No errors occurred3 q7 @; W0 q6 r2 l* U& r

/ O  t& {3 u5 ^/ Q5 P; E
. O. T3 b7 N+ k* u5 r& j1 E9 o& aAccurateRip summary
; h+ d4 O3 j! A% v, s% w/ L, o, [& U
Track  1  not present in database
; \; V2 @! H, U: w* E8 tTrack  2  not present in database
" V! D" X1 Y5 Z- sTrack  3  not present in database: J  V4 @$ I+ H
Track  4  not present in database9 N5 @$ |( h1 @4 \# _  ?
Track  5  not present in database
% h: k* Z0 S) }2 }: JTrack  6  not present in database
2 ~9 C8 X+ b% U! i; _# u, HTrack  7  not present in database& s6 q" G; ?6 ^7 d. B: J
Track  8  not present in database
( C) M1 r1 o4 G, e% @% Y3 BTrack  9  not present in database5 M$ C/ A4 j, I$ M% p3 c
Track 10  not present in database
$ P+ o, p8 a- R. G8 u, STrack 11  not present in database7 @: F4 r( C& \7 K4 l! H
Track 12  not present in database
! o) [5 v0 m; u/ }: q7 J5 w! dTrack 13  not present in database
3 E5 X* x$ {* H2 F& TTrack 14  not present in database" t3 e* B$ |; W8 x$ L5 x
4 D# x/ T$ e0 Y& V' l3 K( }
None of the tracks are present in the AccurateRip database- V" V% m& s! J$ ^. u8 r/ y
: i. @7 R" B, M7 |) z; }
End of status report* a1 }6 `; a  g  v
. C, Q% G/ g' i% K
==== Log checksum 1DA5A47D072EB2D841A5F03EF8B76712B991E0178EE9C7026D2F8F03D8113950 ====3 Q% M4 Q# v; u' V" ]
* v/ r5 R1 n! X  R0 e2 M7 Z
' s) M! |* U- x
  t. v2 Q" q: Q/ T
0 a6 c+ `5 [5 r1 Z/ r
# u. `1 f7 d. U4 {

尚未簽到

發表於 2015-3-31 21:37:20 | 顯示全部樓層
great to have your work

尚未簽到

發表於 2015-3-31 21:43:47 | 顯示全部樓層
great to have your work

尚未簽到

發表於 2015-4-1 10:47:31 | 顯示全部樓層
不错,感谢楼主的无私分享,谢谢
累計簽到︰10 天
連續簽到︰1 天
發表於 2015-4-1 14:37:43 | 顯示全部樓層
這個我收藏了!謝謝分享!WK的資源越來越豐富

尚未簽到

發表於 2015-4-3 22:51:23 | 顯示全部樓層
( T; Q9 R2 q4 Q9 v2 I8 o6 T5 p/ ?; h
這個我收藏了!謝謝分享!WK的資源越來越豐富

尚未簽到

發表於 2015-4-8 22:50:16 | 顯示全部樓層

5 O" h6 _6 }. U& O5 f! c這個我收藏了!謝謝分享!WK的資源越來越豐富

尚未簽到

發表於 2015-4-14 10:57:46 | 顯示全部樓層
很讚的文章,謝謝咯!相信WK因為有你而更加精彩!
累計簽到︰4 天
連續簽到︰1 天
發表於 2015-4-20 21:35:55 | 顯示全部樓層
很讚的文章,謝謝咯!相信WK因為有你而更加精彩!

回復樓主 親!! 現在是淩晨!妳失眠啦?餓啦?通宵加班?還是想WK啦?

 分享同時學會感恩,一句感謝的話語,就是最大的支持!  歡迎交流討論
您需要登錄後才可以回帖 登錄 | 立即注册

本版積分規則

VIP精品区

c重要聲明:本論壇是以即時上載言論的方式運作,WK論壇對所有言論的真實性、立場及版權等,不負任何法律責任。而一切言論只代表發佈者個人意見,並非本網站之立場,讀者及用戶務必自行判斷內容之真實性。 由於本論壇受到「即時上載言論」運作方式所規限,故不能完全監察所有言論,若讀者及用戶發現有內容出現「真實性、立場及版權」等問題,請聯絡我們:info@waikeung.net論壇有權刪除任何言論(刪除前或不會作事先警告及通知)| SiteMap[網站地圖]

發表新帖 返回頂部