WK綜合論壇, WK综合论坛

查看:2929 回復:26 發表於 2015-4-20 21:35:55
累計簽到︰172 天
連續簽到︰1 天
發表於 2015-3-31 17:52:51 | 顯示全部樓層 |閱讀模式

[欧美流行] Adele - Skyfall [複製鏈接]

64675332201304051025004022484854788_01.jpg 64675332201304051025004022484854788_003.jpg 64675332201304051025004022484854788_004.jpg & N0 j3 t1 K& e% c2 p, T; P. v

. @# `' }( s" ?* x8 g# t/ E- \
4 k1 L: v8 c2 g& k: uExact Audio Copy V1.0 beta 3 from 29. August 2011
; m( x/ e/ O/ d+ C$ n
6 x2 Y4 D  G& m! B& KEAC extraction logfile from 9. December 2012, 16:404 a: l* ]0 ]( R$ A4 ?* s
5 T+ N" k" Q9 W8 H3 o
Adele / Skyfall
& x& T# s0 d- ]' h/ p% w- H) w2 N5 w: ]# ]" Z. [2 W4 u. `4 t9 h
Used drive  : hp      DVD RW AD-7581S   Adapter: 1  ID: 06 M; l+ o. X; g  ^8 S

6 A3 q: y4 Z% m  \Read mode               : Secure
- A& l  n* s- C& Q4 s; ]Utilize accurate stream : Yes
3 ], L  h* j4 BDefeat audio cache      : Yes
. W) k" f4 J* }Make use of C2 pointers : No/ Y1 u6 C( b; \; |7 F* F5 q6 O
2 k1 p" {% Q! d+ ~3 b! w! ?" A
Read offset correction                      : 6
2 F( J9 C* W1 s$ LOverread into Lead-In and Lead-Out          : No
/ W, w) z8 ^0 @7 U/ JFill up missing offset samples with silence : Yes9 ~# x7 F3 v3 K2 {0 i) o/ T  h" J
Delete leading and trailing silent blocks   : No
. N$ O1 X+ F8 w, H1 n2 U  UNull samples used in CRC calculations       : Yes+ e& V$ v6 g9 Z
Used interface                              : Native Win32 interface for Win NT & 2000
2 c) M2 r. Z. c3 B! [$ X9 b7 M! f1 f7 S4 {
Used output format : Internal WAV Routines
/ L& h! I" H+ h" j& ~' tSample format      : 44.100 Hz; 16 Bit; Stereo" O/ ?0 O2 w3 e
4 j% ~% R  E. k6 L

; I+ B7 }/ U$ kTOC of the extracted CD
0 G( `* R( f- g  V3 `$ }( t: f5 q! t5 K6 l+ U, `, b# G; ?
     Track |   Start  |  Length  | Start sector | End sector " k# i% [- n+ t$ ]2 I/ A
    ---------------------------------------------------------
: G: I, M9 W) q* }. U$ }        1  |  0:00.00 |  4:49.05 |         0    |    21679   
( G  e+ |% r' s        2  |  4:49.05 |  3:51.35 |     21680    |    39039   ! J  \2 r  |: Z5 T, Q
        3  |  8:40.40 |  4:03.63 |     39040    |    57327   
4 a8 M+ [3 M9 o        4  | 12:44.28 |  3:32.52 |     57328    |    73279   ' G# g. v6 ?3 U, N( E) u' E
        5  | 16:17.05 |  4:46.06 |     73280    |    94735     k+ _6 d* C% a- N, d0 j: c
        6  | 21:03.11 |  4:29.17 |     94736    |   114927   ( ^0 y  P5 Q$ A! c0 J4 K- A. p8 `% n
        7  | 25:32.28 |  4:03.63 |    114928    |   133215   
2 ?; T% Y1 g9 C8 S% K4 ~        8  | 29:36.16 |  3:34.14 |    133216    |   149279   - z1 Z1 y  {4 l' _! W
        9  | 33:10.30 |  5:18.38 |    149280    |   173167   . }0 @7 n+ l$ x+ ^+ G
       10  | 38:28.68 |  4:28.28 |    173168    |   193295   / n+ \* x& w7 ]4 ^9 A1 y# [
       11  | 42:57.21 |  3:45.37 |    193296    |   210207   ; t6 v9 F3 U( T! ]- F) A
       12  | 46:42.58 |  3:19.35 |    210208    |   225167   % b+ Z: ?4 `: q7 c
       13  | 50:02.18 |  4:11.07 |    225168    |   243999   
: L( A  \* l) e7 Y% Z       14  | 54:13.25 |  4:45.33 |    244000    |   265407   0 S0 g. l  Q, _9 M' p+ A- M" c

6 {+ D# Z  u2 J. q8 o; H' k/ \& L/ L
Range status and errors
  w5 |3 n% h. m$ z; Z  M- u2 ~
6 a7 t0 ?$ B4 p! [2 ZSelected range" g7 R7 D( {4 n& `! Q, W; y- X6 T

2 D1 S5 X* D2 }     Filename F:\名盘经典\Adele - Skyfall\Adele - Skyfall.wav! X# X- ~+ p  q
( P9 I5 y* m. E0 ]
     Peak level 99.9 %  k5 N8 E$ A1 ~
     Extraction speed 2.5 X) b. p9 |% u4 j3 l, q# `
     Range quality 99.9 %- E2 K) [- t: x) R- x! N0 t8 J: V
     Copy CRC 32BEE540$ j* i6 I" @5 _$ V
     Copy OK# `4 n) K% Z7 |: p+ L0 Q

" r# Y6 [+ `6 v) \. BNo errors occurred5 H# ~4 R# J2 w! e9 {: f4 g
& q3 q& Z. Z, T3 C$ ^0 f, s
) _, ?; |% w6 B- J4 ]* H
AccurateRip summary
4 d; d1 W- S7 a, C, e  ?" ^' e* Q  b/ r6 ~
Track  1  not present in database- T' p3 X& ^+ \. D( _5 C% }; ]
Track  2  not present in database- C; _( B/ b- n% z$ o! C  L
Track  3  not present in database3 e9 B. |% H8 H4 @! c: B0 f- `
Track  4  not present in database
# k6 B/ y4 Z/ r0 ^Track  5  not present in database
7 e! L. f* z# v) W) h; y( LTrack  6  not present in database2 k" O- O: R9 |
Track  7  not present in database
1 w0 z" T( X& z# G. jTrack  8  not present in database
. Z8 u6 Y) l9 u' hTrack  9  not present in database" O3 g- W4 R* @7 g; C2 G7 r
Track 10  not present in database! [9 d3 K% y- |
Track 11  not present in database
. C7 ^7 X+ J1 Q& F( fTrack 12  not present in database
4 o3 y/ d) Y4 M' qTrack 13  not present in database: s! z$ l) m% f. \* d7 [4 P9 S
Track 14  not present in database
4 }$ Q5 c% k5 g6 D. D, M- ?
3 n5 F/ q$ t/ HNone of the tracks are present in the AccurateRip database: S7 [8 f* q0 B$ c

" J4 n; _1 l" k* t' c( _2 }End of status report2 v! [) i' E8 H
5 V- F4 d. P8 ]( V" t( P, {
==== Log checksum 1DA5A47D072EB2D841A5F03EF8B76712B991E0178EE9C7026D2F8F03D8113950 ====4 R# R7 Q4 k7 l; z) M' m. w4 @9 \

3 m  l0 e  d7 V6 V0 w
0 N  b" A1 J% m2 p) b' ^. J# ^7 e' I/ R
! l- ]7 f7 O5 i6 G
, W8 b- V- N" @/ L

尚未簽到

發表於 2015-3-31 21:37:20 | 顯示全部樓層
great to have your work

尚未簽到

發表於 2015-3-31 21:43:47 | 顯示全部樓層
great to have your work

尚未簽到

發表於 2015-4-1 10:47:31 | 顯示全部樓層
不错,感谢楼主的无私分享,谢谢
累計簽到︰10 天
連續簽到︰1 天
發表於 2015-4-1 14:37:43 | 顯示全部樓層
這個我收藏了!謝謝分享!WK的資源越來越豐富

尚未簽到

發表於 2015-4-3 22:51:23 | 顯示全部樓層

& [% P% X- c5 `, u0 `! i" D- X這個我收藏了!謝謝分享!WK的資源越來越豐富

尚未簽到

發表於 2015-4-8 22:50:16 | 顯示全部樓層
# R) a0 V, w8 ^6 o
這個我收藏了!謝謝分享!WK的資源越來越豐富

尚未簽到

發表於 2015-4-14 10:57:46 | 顯示全部樓層
很讚的文章,謝謝咯!相信WK因為有你而更加精彩!
累計簽到︰4 天
連續簽到︰1 天
發表於 2015-4-20 21:35:55 | 顯示全部樓層
很讚的文章,謝謝咯!相信WK因為有你而更加精彩!

回復樓主 親!! 早上好! 心底有WK、心情就會飛翔,心中要個希望、笑容就會清爽!

 分享同時學會感恩,一句感謝的話語,就是最大的支持!  歡迎交流討論
您需要登錄後才可以回帖 登錄 | 立即注册

本版積分規則

c重要聲明:本論壇是以即時上載言論的方式運作,WK論壇對所有言論的真實性、立場及版權等,不負任何法律責任。而一切言論只代表發佈者個人意見,並非本網站之立場,讀者及用戶務必自行判斷內容之真實性。 由於本論壇受到「即時上載言論」運作方式所規限,故不能完全監察所有言論,若讀者及用戶發現有內容出現「真實性、立場及版權」等問題,請聯絡我們:info@waikeung.net論壇有權刪除任何言論(刪除前或不會作事先警告及通知)| SiteMap[網站地圖]

發表新帖 返回頂部