WK綜合論壇, WK综合论坛

查看:2742 回復:26 發表於 2015-4-20 21:35:55
累計簽到︰172 天
連續簽到︰1 天
發表於 2015-3-31 17:52:51 | 顯示全部樓層 |閱讀模式

[欧美流行] Adele - Skyfall [複製鏈接]

64675332201304051025004022484854788_01.jpg 64675332201304051025004022484854788_003.jpg 64675332201304051025004022484854788_004.jpg 7 c9 q/ Z) @) ^; s

- Z( T8 l4 @( e% s% {" z; V6 y' y7 ?  L
Exact Audio Copy V1.0 beta 3 from 29. August 2011# M9 b) E- w( i- o+ K
3 U; F3 }9 E+ ?; [
EAC extraction logfile from 9. December 2012, 16:40* [5 ~9 z' |2 D* I5 g

* s: B1 \. m6 ^& ^Adele / Skyfall
: ~$ {! p7 s5 y7 S& y# `5 S' d
7 s& T* P; x8 K/ F: {" `" D  _Used drive  : hp      DVD RW AD-7581S   Adapter: 1  ID: 0& {2 }5 c9 S! Q. M- v
# ^% s# E5 H9 U6 A; b
Read mode               : Secure
2 l$ L( [$ \9 H% j; b; mUtilize accurate stream : Yes
  P# n) m+ v$ `' A8 P3 H+ v7 KDefeat audio cache      : Yes
3 @( M, F; Q) RMake use of C2 pointers : No! z4 }0 S( H% A  B  i" j

4 y5 m3 E+ D: d; pRead offset correction                      : 6
* K. ^0 t. K. J2 D6 u2 _Overread into Lead-In and Lead-Out          : No
* H- q6 o( @' K# uFill up missing offset samples with silence : Yes
& L" x9 K& }$ R6 U. yDelete leading and trailing silent blocks   : No
9 H! P5 P: @# ^" E( `5 P! BNull samples used in CRC calculations       : Yes' R* \9 P# p& h- `4 N# M  b
Used interface                              : Native Win32 interface for Win NT & 2000
! U/ M5 |$ f  w+ y$ ?2 E. ?; t% D( m: ^! b
Used output format : Internal WAV Routines3 y/ O4 h' P  A% S) B3 W* X$ w
Sample format      : 44.100 Hz; 16 Bit; Stereo3 d; w8 J2 C3 Z( w

% i7 [+ b' F! Y/ L2 {, N' q( }! C" H; A) [2 ]
TOC of the extracted CD/ [9 \, D& t! Y" n( a& O& O

0 Z8 a, Z5 o* D3 t. f     Track |   Start  |  Length  | Start sector | End sector
0 I4 V  t' a/ k+ p2 d3 @7 p    ---------------------------------------------------------
% h8 W6 g0 I1 E% U" o( D9 k        1  |  0:00.00 |  4:49.05 |         0    |    21679   
3 h" I; R; R" W3 y- E; U& O        2  |  4:49.05 |  3:51.35 |     21680    |    39039   
% j' G3 u* [+ {$ ]$ J$ {        3  |  8:40.40 |  4:03.63 |     39040    |    57327   
, ]6 y2 q& i& m2 `+ L3 j3 P        4  | 12:44.28 |  3:32.52 |     57328    |    73279   : @) X. v- t/ R, t2 o
        5  | 16:17.05 |  4:46.06 |     73280    |    94735   
+ t1 T% Z7 H: h5 ?1 b        6  | 21:03.11 |  4:29.17 |     94736    |   114927   7 f( h( l, {) W, s  n; Z/ L
        7  | 25:32.28 |  4:03.63 |    114928    |   133215   ( d+ Z! B3 L% W' p' \
        8  | 29:36.16 |  3:34.14 |    133216    |   149279   ! f2 C0 p/ U/ [# q* C% F' i! v
        9  | 33:10.30 |  5:18.38 |    149280    |   173167   " i& i# i2 \) f/ W8 N( J
       10  | 38:28.68 |  4:28.28 |    173168    |   193295   . y, ~  J' I. ^: j  U
       11  | 42:57.21 |  3:45.37 |    193296    |   210207   ; |3 c" Q6 r: c1 W' L6 r, |7 n
       12  | 46:42.58 |  3:19.35 |    210208    |   225167   
$ [4 _6 S2 P/ P; j% A       13  | 50:02.18 |  4:11.07 |    225168    |   243999   
1 F9 D3 E! N- v) F+ i9 G       14  | 54:13.25 |  4:45.33 |    244000    |   265407   ; b5 K7 |! }( |1 K8 K3 \7 D
+ y' Q% l* @1 t; G; w# S$ }+ ^0 q" ^4 u
, G, N# d$ c' y, i% B" u% ^
Range status and errors
! n$ e7 }6 c0 o# J" u  e# r/ r' ~! B
Selected range
" j5 a# x7 h! \  |( c- q. `8 L0 r& s/ r; R- x  b
     Filename F:\名盘经典\Adele - Skyfall\Adele - Skyfall.wav7 I( ~0 [# z# g' G, R. [* ~

7 Q* S5 {! `- l* k5 v0 y- k     Peak level 99.9 %+ N0 m' Q! C1 n1 q0 k
     Extraction speed 2.5 X6 J# ~- O6 P7 M# O: Z. E" k* R. G
     Range quality 99.9 %- U7 o$ c& R0 w& Y
     Copy CRC 32BEE540! d  }% m$ w7 k# Q0 C
     Copy OK. k. I" F% Z- i5 A& c2 U9 H6 _4 I
  _6 y$ ~- j1 B. F' N
No errors occurred
, P6 V) z0 d% {  J4 z8 O0 f+ l9 X- y( b2 f0 `( V+ t5 d* j
, j) E. t) m3 p+ A/ }+ r, |7 O- ^
AccurateRip summary; q# O" Q: H8 `! [, r
. q" [1 q6 U+ }( v
Track  1  not present in database
  s0 o) Q# T- j) K  LTrack  2  not present in database
1 o/ Z0 c! f$ }6 R  |5 A# D0 F! oTrack  3  not present in database
( n" {( j. b: F# u/ o( k1 r7 T0 `Track  4  not present in database: [: s1 J; e7 G; ]6 n; |
Track  5  not present in database1 t' F; A9 j$ [! P
Track  6  not present in database
1 H3 G' J6 W) ]" |* r. pTrack  7  not present in database
! D1 o/ \2 _2 K, ]: k# x# vTrack  8  not present in database
- ?) m, U% D- f( g4 B  B. qTrack  9  not present in database2 B! y2 [7 [' G  m
Track 10  not present in database
5 D2 E: W2 J5 U2 RTrack 11  not present in database
0 s* J% P, x1 X, nTrack 12  not present in database
# d. \* G) \+ S% Q# ~Track 13  not present in database
# r  I) J2 n: OTrack 14  not present in database4 x/ e- ^$ d, [) s, @+ k4 X& r& D
8 m% C) ~+ f3 t. A8 @* C; }, l
None of the tracks are present in the AccurateRip database1 e6 w- S' C; ]8 t5 e1 Z% L. i

9 X$ c1 d/ N- z0 NEnd of status report  X& W& A+ x: _( x

- ?* q1 t! f: L, g0 x2 r& e4 Z% L==== Log checksum 1DA5A47D072EB2D841A5F03EF8B76712B991E0178EE9C7026D2F8F03D8113950 ====0 F9 I# c% |1 e; M

' L, q9 p' [; z6 g) D4 v, ~2 {7 W8 H( R& j8 v
- W+ u0 o; O2 V! s* n5 R. L" F
遊客,如果您要查看本帖隱藏內容請回復
: M0 k$ j* O4 h; i, [( Q
# ?" s/ {7 _8 B9 }$ b7 d, r2 a

尚未簽到

發表於 2015-3-31 21:37:20 | 顯示全部樓層
great to have your work

尚未簽到

發表於 2015-3-31 21:43:47 | 顯示全部樓層
great to have your work

尚未簽到

發表於 2015-4-1 10:47:31 | 顯示全部樓層
不错,感谢楼主的无私分享,谢谢
累計簽到︰10 天
連續簽到︰1 天
發表於 2015-4-1 14:37:43 | 顯示全部樓層
這個我收藏了!謝謝分享!WK的資源越來越豐富

尚未簽到

發表於 2015-4-3 22:51:23 | 顯示全部樓層

7 H1 n  ^" c/ v5 M* I$ v8 e; ~這個我收藏了!謝謝分享!WK的資源越來越豐富

尚未簽到

發表於 2015-4-8 22:50:16 | 顯示全部樓層

/ T) m& X5 l' c& [這個我收藏了!謝謝分享!WK的資源越來越豐富

尚未簽到

發表於 2015-4-14 10:57:46 | 顯示全部樓層
很讚的文章,謝謝咯!相信WK因為有你而更加精彩!
累計簽到︰4 天
連續簽到︰1 天
發表於 2015-4-20 21:35:55 | 顯示全部樓層
很讚的文章,謝謝咯!相信WK因為有你而更加精彩!

回復樓主 親!! 現在是淩晨!妳失眠啦?餓啦?通宵加班?還是想WK啦?

 分享同時學會感恩,一句感謝的話語,就是最大的支持!  歡迎交流討論
您需要登錄後才可以回帖 登錄 | 立即注册

本版積分規則

c重要聲明:本論壇是以即時上載言論的方式運作,WK論壇對所有言論的真實性、立場及版權等,不負任何法律責任。而一切言論只代表發佈者個人意見,並非本網站之立場,讀者及用戶務必自行判斷內容之真實性。 由於本論壇受到「即時上載言論」運作方式所規限,故不能完全監察所有言論,若讀者及用戶發現有內容出現「真實性、立場及版權」等問題,請聯絡我們:info@waikeung.net論壇有權刪除任何言論(刪除前或不會作事先警告及通知)| SiteMap[網站地圖]

發表新帖 返回頂部