WK綜合論壇, WK综合论坛

查看:118 回復:1 發表於 6 天前
本主題由 212love 於 3 天前 解除高亮
累計簽到:2133 天
連續簽到:1 天
發表於 7 天前 | 顯示全部樓層 |閱讀模式
VIP精品區,資源無限好賺金任務區,輕松賺金幣
加入VIP,享受高級特權宣傳賺金又升級,超級棒

我沒談完的那場戀愛.Between.Us., 2021.[MKV / 10.84G] 國語 2160p [複製鏈接]

影視分享
分類: 電影
題材: 愛情 
地區: 中港台 
語言: 國語 
格式: MKV 
年份: 2021
資源: BT资源

  {( e5 C- D: P# ?) W$ n: K& S0 G- ]$ g. f% I/ ?
◎译  名 我没谈完的那场恋爱 / 不说再见- L# G$ P" j% S! n4 K% M8 [5 K. ?) \
◎年  代 2021
9 h) F' `. {+ A◎产  地 中国大陆
" ^% |2 q5 D( ~: e◎类  别 爱情
# f! m' H& h8 J8 c! ?◎语  言 汉语普通话
: M* j! Q) p! e( j◎上映日期 2021-06-25(中国大陆)8 c  j- X$ A+ [8 x* k& e) V3 B. ]
◎IMDb链接 https://www.imdb.com/title/tt11662974/
! q; z, I" b; ~6 x2 l' `◎豆瓣评分 4.0/10 (3177人评价)2 M' f8 C% B4 |9 u( d  _7 X
◎豆瓣链接 https://movie.douban.com/subject/35442444/
4 j2 w5 }' U& U1 S; v◎片  长 97分钟1 @$ ^9 M7 `2 N# U" L
◎导  演 赵宇 Yu Zhao (id:1320916)
6 h$ I  _. O- F  p! z- S( |+ N◎编  剧 赵宇 Yu Zhao (id:1320916)" P, M6 {9 Z( z( [
      陈梦怡 (id:1457200)
; X; _  C% ?7 B# Y( X8 o      李绚彦 Xuanyan Li (id:1335262)
: o3 K/ t( z& V◎演  员 于文文 Kelly Yu (id:1342252)
1 P9 M1 ]) `: ~+ g) X) ]      宋宁峰 Ningfeng Song (id:1313368)1 O* C& S6 _+ S
      刘琦 Mulligan liu (id:1398572)
+ w7 k; u( E# a9 r( U2 o      李博 Bo Li (id:1456618)1 ^( o, j9 S& h3 _' F7 f
      刘奕 Yi Liu (id:1335268)
" v7 o+ S- t0 ]% B* l      尹菲 Fei Yin (id:1350802)
$ z+ {! `/ ~! l0 S      曹力 Li Cao (id:1274714)
7 |( n  m" j( h; y* \; R9 n      佘南南 Nannan She (id:1342105)
3 v! E# b- I, U6 M4 a. J4 l( T      殷成阳 Chengyang Yin (id:1408013)  L/ z! Q4 M' ?, b
) F; \  f3 i' J6 [0 m. N
◎标  签 爱情 / 遗憾 / 音乐 / 梦想 / 国产 / 2021 / 渐冻症 / 怀旧
# y: R$ @: z# d" R7 }
: L5 s* q- v/ E# G9 H5 o◎简  介: M* v# q8 l3 X& \; K
  本片讲述了两个千差万别却同样迷茫的年轻音乐人,一个是多年打拼,事业毫无起色,又屡遭生活暴击的和声歌手珊妮,一个是身患重病,隐姓埋名等待死亡降临的前摇滚乐手董东,对生命感到绝望的二人在自我了断时相遇......自杀计划流产,他们的生活也因彼此的出现发生改变。
$ P5 _! u% k  F) ^' _4 \另外一个时空的故事,从珊妮意外发现的一本1970年代的日记中铺陈开来,一段没有下文的悲伤爱情竟然在珊妮的努力下尘埃落定。跟音乐、爱情和人生有关的种种,让珊妮与董东的相遇愈发神奇。千丝万缕中,是否每一种爱都能开花结果? 他们能否找到继续爱这个世界的理由?( G$ B: u) ?6 r2 T+ b: |
8 Z% f# s' s  X4 F$ V$ T9 f
General8 N" y4 [0 D  |% k! W* C* u
Complete name : 我没谈完的那场恋爱.Between Us 2021 WEB-DL 2160p H265 [email protected]5 d! h0 W$ ?) [: T/ j) J1 b
Format : MPEG-4* R: f0 M1 e; I" M. q) N
Format profile : Base Media
; w% J  q7 t3 w# G4 LCodec ID : isom (isom/iso2/mp41)' A, [4 P& y( \2 ^, m: O
File size : 10.8 GiB
7 c8 p& C( F$ Q! U( }Duration : 1 h 37 min
+ P; w; X, ?0 c1 k1 s  d0 K+ ?: POverall bit rate : 16.0 Mb/s  }# Y# z; ~1 o- q" J8 n, X
Recorded date : 2021-07-18T07:16:49.4348074+08:00) }" M; z  D$ [# K. {
Writing application : Lavf58.32.1040 J7 a: X$ L$ B$ I* g# c

* T1 N, ~; t. M/ A; N7 V& |Video- Z3 p" r. l2 T) o6 `
ID : 1* `& M8 x9 f! g2 H- L2 J
Format : HEVC; t" }5 d1 ]1 J
Format/Info : High Efficiency Video Coding$ |' K/ A; M4 |8 c, Y2 R' p4 [
Format profile : [email protected]@Main
3 ~* p  C" A' N0 gCodec ID : hev1# E& l1 s+ p0 V! M7 T8 o
Codec ID/Info : High Efficiency Video Coding9 L8 E9 u# H/ I# `9 K+ h8 _! p
Duration : 1 h 37 min
* h) A) U* |  z; y* L1 ~, qBit rate : 15.8 Mb/s4 j; K% K) f8 B) G+ S; {
Width : 3 840 pixels
  z5 `5 K( ]+ K8 M7 z9 W/ e3 mHeight : 2 160 pixels
) ]3 {; [5 ~/ m9 ]) f) [3 ]Display aspect ratio : 16:9
' T2 }9 r# p: G4 ]3 a' P7 oFrame rate mode : Constant0 e4 y$ l2 G5 b
Frame rate : 24.000 FPS8 d6 e; A0 S$ v  L
Color space : YUV
0 H# B6 }1 l+ N) {7 FChroma subsampling : 4:2:0
2 }5 _' W2 K0 k# ~3 x: gBit depth : 8 bits
0 {3 Q0 i9 B, l7 d9 pBits/(Pixel*Frame) : 0.079
) n3 g! P7 f' lStream size : 10.7 GiB (99%), _: w( c; d+ _5 Y$ i8 ^
Codec configuration box : hvcC8 R7 b: L( |# A; p9 S

6 f) d. g9 H. M; }Audio
) x! J7 }9 d7 P" Q) g# H$ a6 CID : 2
4 d$ k  g+ T! {2 @6 [/ o7 O( GFormat : AAC LC
2 K4 B! u( Q5 h  v/ D3 FFormat/Info : Advanced Audio Codec Low Complexity/ h+ c. D1 ~- H  D. i
Codec ID : mp4a-40-2( H# h* a0 }3 z, M6 _) _7 t
Duration : 1 h 37 min
. L  a$ q" Y3 U9 wBit rate mode : Constant
# L; x# J1 Q8 _- k' m3 V6 SBit rate : 192 kb/s. D! h. {& P* S! S5 N' i; t7 j
Channel(s) : 2 channels* z7 j5 }% q1 M
Channel layout : L R
* O. Z$ `5 }. \2 U% a2 ASampling rate : 44.1 kHz+ m8 g6 w% H+ m& U
Frame rate : 43.066 FPS (1024 SPF)! @9 q) K, v  Z7 C- l
Compression mode : Lossy
5 \% J" i6 u. l( E, V* `3 Z6 j  uStream size : 132 MiB (1%)1 Q; l, ~* w* k% N# ~6 F& G
Default : Yes2 z3 U+ _  ]7 P1 A+ w' g2 I
Alternate group : 1
7 r  b5 }! x, a. g& j2 w% Z

; z9 d% k* U* y; r$ `1 E$ G6 L& z! |0 E: ?& k8 \" R$ L9 ^" N

我沒談完的那場戀愛. MKV.torrent

31.82 KB, 下載次數: 22

累計簽到:67 天
連續簽到:67 天
發表於 6 天前 | 顯示全部樓層
VIP精品區,資源無限好賺金任務區,輕松賺金幣
加入VIP,享受高級特權宣傳賺金又升級,超級棒
本片講述了兩個千差萬別卻同樣迷茫的年輕音樂人跟音樂、愛情和人生有關的種種....耐人尋味 感謝樓主精采分享

回復樓主 親!! 下午好,中午養足了精神嗎?讓我們一起渡過下午茶時間,WK有您更精彩!

 分享同時學會感恩,一句感謝的話語,就是最大的支持!  歡迎交流討論
您需要登錄後才可以回帖 登錄 | 立即注册

本版積分規則

c重要聲明:本論壇是以即時上載言論的方式運作,WK論壇對所有言論的真實性、立場及版權等,不負任何法律責任。而一切言論只代表發佈者個人意見,並非本網站之立場,讀者及用戶務必自行判斷內容之真實性。 由於本論壇受到「即時上載言論」運作方式所規限,故不能完全監察所有言論,若讀者及用戶發現有內容出現「真實性、立場及版權」等問題,請聯絡我們:[email protected]論壇有權刪除任何言論(刪除前或不會作事先警告及通知)| SiteMap[網站地圖]

發表新帖 返回頂部